<?xml version="1.0" standalone="no"?><!DOCTYPE svg PUBLIC "-//W3C//DTD SVG 1.1//EN" "http://www.w3.org/Graphics/SVG/1.1/DTD/svg11.dtd" ><svg xmlns="http://www.w3.org/2000/svg"><metadata></metadata><defs><font id="fonteditor" horiz-adv-x="1000"><font-face font-family="`nÑOSeç[W_b Regular" font-weight="400" font-stretch="normal" units-per-em="1000" panose-1="2 11 5 0 0 0 0 0 0 0" ascent="1160" descent="-320" x-height="0" bbox="1 -279 983 880" underline-thickness="0" underline-position="0" unicode-range="U+002b-ff1a" /><missing-glyph horiz-adv-x="1000" d="M100 880 L900 880 L900 -120 L100 -120 L100 880 ZM818 830 L182 830 L500 421 L818 830 ZM850 -29 L850 789 L532 380 L850 -29 ZM818 -70 L500 339 L182 -70 L818 -70 ZM150 -29 L468 380 L150 789 L150 -29 Z" /><glyph glyph-name="plus" unicode="+" d="M241 335 L38 335 L38 403 L241 403 L241 621 L314 621 L314 403 L517 403 L517 335 L314 335 L314 116 L241 116 L241 335 Z" /><glyph glyph-name="slash" unicode="/" d="M311 793 L377 793 L78 -179 L11 -179 L311 793 Z" /><glyph glyph-name="zero" unicode="0" d="M278 -13 Q171 -13 111 82 Q49 182 49 369 Q49 556 111 654 Q170 747 278 747 Q385 747 444 653 Q506 555 506 369 Q506 182 444 82 Q385 -13 278 -13 ZM278 60 Q417 60 417 369 Q417 673 278 673 Q138 673 138 369 Q138 60 278 60 Z" /><glyph glyph-name="one" unicode="1" d="M88 76 L251 76 L251 623 L121 623 L121 681 Q212 698 273 733 L343 733 L343 76 L490 76 L490 0 L88 0 L88 76 Z" /><glyph glyph-name="two" unicode="2" d="M44 54 Q380 348 380 527 Q380 593 347 631 Q311 672 245 672 Q164 672 93 587 L40 639 Q140 747 256 747 Q354 747 412 688 Q469 629 469 530 Q469 344 182 72 Q271 79 302 79 L505 79 L505 0 L44 0 L44 54 Z" /><glyph glyph-name="three" unicode="3" d="M264 -13 Q121 -13 29 87 L75 147 Q155 63 257 63 Q323 63 364 100 Q406 137 406 199 Q406 346 178 346 L178 416 Q381 416 381 556 Q381 609 348 641 Q314 672 257 674 Q175 671 105 601 L56 659 Q151 747 261 747 Q356 747 414 699 Q474 649 474 563 Q474 435 343 386 L343 382 Q411 366 454 319 Q499 268 499 196 Q499 100 430 42 Q365 -13 264 -13 Z" /><glyph glyph-name="four" unicode="4" d="M339 275 L339 500 Q339 519 345 633 L341 633 Q317 585 282 525 L115 275 L339 275 ZM523 202 L426 202 L426 0 L339 0 L339 202 L20 202 L20 262 L325 733 L426 733 L426 275 L523 275 L523 202 Z" /><glyph glyph-name="five" unicode="5" d="M261 -13 Q125 -13 28 84 L73 144 Q154 63 253 63 Q319 63 363 109 Q409 158 409 236 Q409 314 368 359 Q327 403 257 403 Q200 403 135 360 L86 390 L109 733 L466 733 L466 655 L189 655 L171 443 Q223 472 280 472 Q377 472 436 416 Q501 354 501 239 Q501 123 428 53 Q359 -13 261 -13 Z" /><glyph glyph-name="six" unicode="6" d="M301 58 Q354 58 389 104 Q425 151 425 225 Q425 387 293 387 Q209 387 143 293 Q160 58 301 58 ZM448 615 Q402 671 330 671 Q146 671 141 366 Q214 455 308 455 Q403 455 456 397 Q511 337 511 225 Q511 121 449 53 Q389 -13 301 -13 Q191 -13 126 78 Q56 174 56 350 Q56 552 138 656 Q210 747 327 747 Q428 747 498 672 L448 615 Z" /><glyph glyph-name="seven" unicode="7" d="M198 0 Q215 390 404 655 L49 655 L49 733 L508 733 L508 678 Q386 521 340 364 Q302 233 293 0 L198 0 Z" /><glyph glyph-name="eight" unicode="8" d="M279 -13 Q178 -13 111 42 Q45 97 45 182 Q45 311 180 384 L180 389 Q81 457 81 558 Q81 641 138 693 Q195 744 282 744 Q374 744 429 690 Q483 637 483 551 Q483 450 385 374 L385 369 Q509 297 509 177 Q509 96 446 42 Q381 -13 279 -13 ZM329 398 Q405 465 405 546 Q405 602 372 639 Q337 677 280 677 Q229 677 197 644 Q164 611 164 558 Q164 499 214 458 Q249 430 329 398 ZM281 55 Q344 55 383 90 Q422 124 422 179 Q422 245 364 289 Q328 316 228 356 Q128 292 128 190 Q128 132 172 93 Q215 55 281 55 Z" /><glyph glyph-name="nine" unicode="9" d="M261 346 Q345 346 414 444 Q399 675 254 675 Q201 675 166 630 Q130 583 130 509 Q130 433 163 390 Q197 346 261 346 ZM108 119 Q158 63 231 63 Q406 63 415 369 Q342 278 246 278 Q152 278 99 337 Q44 397 44 509 Q44 613 106 681 Q166 747 254 747 Q364 747 430 660 Q500 567 500 398 Q500 189 419 81 Q348 -13 234 -13 Q130 -13 58 62 L108 119 Z" /><glyph glyph-name="C" unicode="c" d="M377 -13 Q237 -13 149 87 Q58 191 58 366 Q58 540 151 645 Q241 747 383 747 Q503 747 584 656 L534 596 Q469 666 384 666 Q279 666 216 586 Q153 505 153 369 Q153 230 215 149 Q276 68 381 68 Q475 68 551 150 L602 92 Q511 -13 377 -13 Z" /><glyph glyph-name="D" unicode="d" d="M100 733 L284 733 Q452 733 541 638 Q630 544 630 369 Q630 194 542 98 Q453 0 288 0 L100 0 L100 733 ZM276 76 Q404 76 470 153 Q534 228 534 369 Q534 658 276 658 L193 658 L193 76 L276 76 Z" /><glyph glyph-name="G" unicode="g" d="M388 -13 Q241 -13 151 87 Q58 190 58 366 Q58 541 153 645 Q246 747 394 747 Q520 747 605 656 L555 596 Q489 666 396 666 Q285 666 219 586 Q153 506 153 369 Q153 229 216 149 Q281 68 397 68 Q484 68 530 111 L530 303 L375 303 L375 380 L615 380 L615 72 Q533 -13 388 -13 Z" /><glyph glyph-name="I" unicode="i" d="M100 733 L193 733 L193 0 L100 0 L100 733 Z" /><glyph glyph-name="P" unicode="p" d="M100 733 L309 733 Q584 733 584 518 Q584 405 509 346 Q439 291 314 291 L193 291 L193 0 L100 0 L100 733 ZM302 366 Q492 366 492 518 Q492 595 443 628 Q398 658 298 658 L193 658 L193 366 L302 366 Z" /><glyph glyph-name="R" unicode="r" d="M193 386 L316 386 Q494 386 494 527 Q494 658 316 658 L193 658 L193 386 ZM503 0 L325 311 L193 311 L193 0 L100 0 L100 733 L330 733 Q586 733 586 527 Q586 361 420 321 L608 0 L503 0 Z" /><glyph glyph-name="U" unicode="u" d="M360 -13 Q97 -13 97 303 L97 733 L190 733 L190 300 Q190 68 360 68 Q535 68 535 300 L535 733 L624 733 L624 303 Q624 -13 360 -13 Z" /><glyph glyph-name="V" unicode="v" d="M1 733 L98 733 L217 336 L252 215 Q272 143 288 94 L292 94 Q307 141 328 215 Q352 300 363 336 L481 733 L575 733 L342 0 L235 0 L1 733 Z" /><glyph glyph-name="W" unicode="w" d="M25 733 L121 733 L220 216 L241 97 L245 97 Q262 176 298 334 L399 733 L483 733 L586 334 Q607 244 638 97 L643 97 L685 334 L762 733 L851 733 L699 0 L588 0 L477 442 L441 609 L437 609 L400 442 L291 0 L181 0 L25 733 Z" /><glyph glyph-name="bar" unicode="|" d="M103 838 L167 838 L167 -279 L103 -279 L103 838 Z" /><glyph glyph-name="emdash" unicode="&#x2014;" d="M46 313 L848 313 L848 249 L46 249 L46 313 Z" /><glyph glyph-name="uni3001" unicode="&#x3001;" d="M273 -56 Q175 67 52 167 L117 224 Q229 134 341 2 L273 -56 Z" /><glyph glyph-name="uni3002" unicode="&#x3002;" d="M194 244 Q258 244 302 200 Q347 155 347 92 Q347 29 302 -16 Q258 -61 194 -61 Q132 -61 87 -16 Q42 29 42 92 Q42 155 87 200 Q132 244 194 244 ZM194 -10 Q237 -10 266 20 Q295 49 295 92 Q295 134 266 163 Q236 193 194 193 Q153 193 123 163 Q93 133 93 92 Q93 50 123 20 Q153 -10 194 -10 Z" /><glyph glyph-name="uni2F00" unicode="&#x2f00;&#x4e00;" d="M956 430 L956 349 L48 349 L48 430 L956 430 Z" /><glyph glyph-name="uni4E03" unicode="&#x4e03;" d="M759 32 Q807 32 823 68 Q837 100 845 214 Q875 192 920 179 Q910 50 881 8 Q849 -41 761 -41 L500 -41 Q407 -41 374 -11 Q340 20 340 108 L340 411 L65 367 L53 441 L340 487 L340 819 L418 819 L418 499 L938 583 L950 508 L418 424 L418 107 Q418 61 434 47 Q450 32 503 32 L759 32 Z" /><glyph glyph-name="uni4E07" unicode="&#x4e07;" d="M412 689 Q408 567 400 485 L844 485 Q844 459 843 449 Q819 19 770 -34 Q741 -66 685 -70 Q627 -75 509 -66 Q507 -27 483 7 Q558 -1 657 -1 Q690 -1 704 12 Q746 50 765 413 L391 413 Q339 59 91 -79 Q70 -44 37 -21 Q221 77 287 294 Q328 427 334 689 L65 689 L65 761 L935 761 L935 689 L412 689 Z" /><glyph glyph-name="uni4E09" unicode="&#x4e09;" d="M876 740 L876 666 L126 666 L126 740 L876 740 ZM798 416 L798 341 L190 341 L190 416 L798 416 ZM930 71 L930 -4 L69 -4 L69 71 L930 71 Z" /><glyph glyph-name="uni4E0A" unicode="&#x4e0a;" d="M946 45 L946 -29 L55 -29 L55 45 L428 45 L428 821 L506 821 L506 515 L878 515 L878 441 L506 441 L506 45 L946 45 Z" /><glyph glyph-name="uni4E0B" unicode="&#x4e0b;" d="M520 689 L520 511 L533 526 Q756 419 888 319 L836 252 Q732 337 520 451 L520 -75 L441 -75 L441 689 L59 689 L59 763 L942 763 L942 689 L520 689 Z" /><glyph glyph-name="uni4E0D" unicode="&#x4e0d;&#xf967;" d="M610 692 Q586 651 539 582 L539 -74 L460 -74 L460 482 Q296 295 98 191 Q84 215 48 256 Q351 408 515 692 L73 692 L73 766 L927 766 L927 692 L610 692 ZM614 525 Q847 374 955 262 L896 205 Q776 334 559 477 L614 525 Z" /><glyph glyph-name="uni4E0E" unicode="&#x4e0e;" d="M945 190 L754 190 Q726 6 680 -40 Q649 -71 591 -75 Q523 -79 413 -71 Q409 -29 386 2 Q474 -6 565 -6 Q602 -6 617 7 Q654 39 679 190 L57 190 L57 262 L689 262 Q694 297 706 407 L290 407 L277 355 L200 363 Q258 566 305 838 L381 831 L354 695 L841 695 L841 624 L340 624 Q330 576 306 475 L786 475 L784 440 Q771 311 764 262 L945 262 L945 190 Z" /><glyph glyph-name="uni4E13" unicode="&#x4e13;" d="M390 464 L353 354 L784 354 L797 358 L853 324 Q739 206 588 64 Q698 18 751 -14 L706 -78 Q538 26 259 108 L301 162 Q391 137 514 92 Q640 211 711 284 L247 284 Q270 341 312 464 L60 464 L60 536 L335 536 Q357 602 373 654 L140 654 L140 725 L394 725 Q417 805 424 835 L503 835 Q487 777 470 725 L853 725 L853 654 L450 654 Q441 627 413 536 L925 536 L925 464 L390 464 Z" /><glyph glyph-name="uni4E16" unicode="&#x4e16;" d="M723 308 L723 517 L535 517 L535 308 L723 308 ZM723 194 L723 238 L535 238 L535 189 L462 189 L462 517 L276 517 L276 69 L918 69 L918 -3 L276 -3 L276 -76 L200 -76 L200 517 L51 517 L51 588 L200 588 L200 810 L276 810 L276 588 L462 588 L462 831 L535 831 L535 588 L723 588 L723 819 L797 819 L797 588 L952 588 L952 517 L797 517 L797 194 L723 194 Z" /><glyph glyph-name="uni4E1A" unicode="&#x4e1a;" d="M918 573 Q831 366 746 229 L685 262 Q790 434 851 606 L918 573 ZM221 237 Q184 373 85 588 L154 609 Q252 404 295 265 L221 237 ZM938 49 L938 -24 L64 -24 L64 49 L342 49 L342 824 L416 824 L416 49 L585 49 L585 823 L659 823 L659 49 L938 49 Z" /><glyph glyph-name="uni4E24" unicode="&#x4e24;" d="M588 695 L407 695 L407 558 L588 558 L588 695 ZM661 695 L661 558 L897 558 L897 18 Q897 -49 852 -64 Q815 -77 668 -77 Q660 -35 641 -2 Q736 -7 799 -4 Q824 -3 824 20 L824 488 L660 488 Q656 433 650 389 Q767 255 812 174 L767 117 Q724 196 632 308 Q595 164 496 65 Q472 98 443 117 Q576 241 587 488 L406 488 Q402 431 396 386 Q471 296 499 244 L455 185 Q429 237 377 303 Q340 162 242 65 Q222 95 191 117 Q322 241 333 488 L178 488 L178 -77 L105 -77 L105 558 L334 558 L334 695 L63 695 L63 767 L938 767 L938 695 L661 695 Z" /><glyph glyph-name="uni4E2A" unicode="&#x4e2a;" d="M496 757 Q352 536 70 371 Q47 407 22 430 Q313 593 453 834 L530 834 Q705 582 983 443 Q957 417 932 376 Q648 543 496 757 ZM535 509 L535 -76 L458 -76 L458 509 L535 509 Z" /><glyph glyph-name="uni4E2D" unicode="&#x4e2d;" d="M823 321 L823 586 L536 586 L536 321 L823 321 ZM459 321 L459 586 L173 586 L173 321 L459 321 ZM899 659 L899 191 L823 191 L823 248 L536 248 L536 -76 L459 -76 L459 248 L173 248 L173 186 L100 186 L100 659 L459 659 L459 837 L536 837 L536 659 L899 659 Z" /><glyph glyph-name="uni4E30" unicode="&#x4e30;" d="M945 164 L538 164 L538 -74 L461 -74 L461 164 L57 164 L57 237 L461 237 L461 398 L143 398 L143 469 L461 469 L461 617 L94 617 L94 690 L461 690 L461 836 L538 836 L538 690 L905 690 L905 617 L538 617 L538 469 L859 469 L859 398 L538 398 L538 237 L945 237 L945 164 Z" /><glyph glyph-name="uni4E3A" unicode="&#x4e3a;" d="M269 629 Q238 696 165 780 L229 808 Q299 731 337 662 L269 629 ZM898 597 L897 558 Q876 30 829 -26 Q799 -61 746 -65 Q691 -70 588 -63 Q584 -23 562 14 Q628 7 717 7 Q746 7 760 22 Q800 62 819 523 L476 523 Q429 145 116 -63 Q96 -33 58 -9 Q354 184 400 523 L86 523 L86 597 L408 597 Q412 653 412 717 L412 834 L486 834 L486 716 Q486 660 483 597 L898 597 ZM634 175 Q593 261 499 371 L560 401 Q657 295 699 211 L634 175 Z" /><glyph glyph-name="uni4E3D" unicode="&#x4e3d;" d="M380 325 L380 529 L181 529 L181 325 L380 325 ZM453 9 Q453 -46 420 -63 Q392 -78 296 -76 Q293 -46 275 -6 Q345 -8 364 -6 Q380 -6 380 10 L380 256 L181 256 L181 -74 L111 -74 L111 597 L453 597 L453 9 ZM85 777 L463 777 L463 708 L85 708 L85 777 ZM829 325 L829 529 L611 529 L611 325 L829 325 ZM902 11 Q902 -45 869 -61 Q841 -74 738 -74 Q732 -34 717 -4 Q793 -6 812 -4 Q829 -4 829 12 L829 256 L611 256 L611 -74 L541 -74 L541 597 L902 597 L902 11 ZM929 777 L929 708 L525 708 L525 777 L929 777 Z" /><glyph glyph-name="uni4E5F" unicode="&#x4e5f;" d="M758 12 Q826 12 849 46 Q869 78 879 188 Q906 169 948 158 Q936 33 902 -9 Q864 -56 759 -56 L409 -56 Q297 -56 258 -24 Q217 8 217 101 L217 413 L54 362 L34 429 L217 485 L217 769 L289 769 L289 507 L496 571 L496 835 L569 835 L569 593 L801 665 L822 681 L874 658 L870 644 Q865 354 838 278 Q813 211 758 203 Q714 196 641 198 Q636 243 622 267 Q657 264 722 264 Q759 264 774 311 Q794 368 797 593 L569 522 L569 136 L496 136 L496 499 L289 435 L289 99 Q289 46 311 29 Q334 12 406 12 L758 12 Z" /><glyph glyph-name="uni4E60" unicode="&#x4e60;" d="M716 263 Q706 260 133 61 L106 136 Q320 200 702 333 L716 263 ZM284 610 Q469 484 549 410 L496 353 Q415 434 234 562 L284 610 ZM885 722 Q876 39 833 -19 Q805 -62 750 -66 Q703 -71 590 -65 Q590 -28 566 6 Q636 1 724 1 Q752 1 764 17 Q802 58 810 692 L122 692 L122 764 L885 764 L885 722 Z" /><glyph glyph-name="uni4E86" unicode="&#x4e86;&#xf9ba;" d="M886 722 Q740 548 540 433 L540 20 Q540 -49 488 -65 Q450 -76 282 -76 Q278 -47 252 -2 Q377 -7 434 -4 Q463 -3 463 21 L463 498 L512 498 Q634 572 745 686 L101 686 L101 759 L812 759 L828 764 L886 722 Z" /><glyph glyph-name="uni4E8B" unicode="&#x4e8b;" d="M774 207 L534 207 L534 132 L774 132 L774 207 ZM534 266 L774 266 L774 336 L534 336 L534 266 ZM460 513 L460 585 L245 585 L245 513 L460 513 ZM534 585 L534 513 L758 513 L758 585 L534 585 ZM951 207 L848 207 L848 30 L774 30 L774 75 L534 75 L534 6 Q534 -52 490 -68 Q456 -80 324 -80 Q318 -51 298 -17 Q328 -18 435 -18 Q460 -17 460 6 L460 75 L137 75 L137 132 L460 132 L460 207 L51 207 L51 266 L460 266 L460 336 L146 336 L146 391 L460 391 L460 461 L174 461 L174 637 L460 637 L460 695 L70 695 L70 756 L460 756 L460 836 L534 836 L534 756 L932 756 L932 695 L534 695 L534 637 L832 637 L832 461 L534 461 L534 391 L848 391 L848 266 L951 266 L951 207 Z" /><glyph glyph-name="uni4E92" unicode="&#x4e92;" d="M656 274 Q668 370 680 490 L347 490 Q315 340 300 274 L656 274 ZM947 37 L947 -32 L55 -32 L55 37 L621 37 Q634 118 647 206 L285 206 L272 154 L192 162 Q255 388 311 704 L89 704 L89 773 L917 773 L917 704 L389 704 L375 633 Q367 586 361 558 L765 558 Q732 242 701 37 L947 37 Z" /><glyph glyph-name="uni4EA4" unicode="&#x4ea4;" d="M936 635 L65 635 L65 707 L461 707 L461 838 L535 838 L535 707 L936 707 L936 635 ZM677 608 Q860 485 945 387 L880 336 Q795 440 618 563 L677 608 ZM395 575 Q294 436 118 326 Q80 369 57 385 Q226 475 320 604 L395 575 ZM721 411 Q664 263 558 158 Q713 35 961 -6 Q935 -31 912 -76 Q660 -28 500 106 Q347 -15 90 -80 Q77 -46 43 -10 Q298 44 445 158 Q347 262 289 406 L360 428 Q409 303 502 208 Q596 302 644 433 L721 411 Z" /><glyph glyph-name="uni4EAB" unicode="&#x4eab;" d="M931 685 L67 685 L67 750 L459 750 L459 837 L536 837 L536 750 L931 750 L931 685 ZM266 476 L736 476 L736 567 L266 567 L266 476 ZM193 422 L193 621 L814 621 L814 422 L193 422 ZM944 116 L537 116 L537 -1 Q537 -57 490 -70 Q460 -78 309 -78 Q304 -54 283 -17 Q317 -18 436 -18 Q460 -17 460 1 L460 116 L58 116 L58 180 L460 180 L460 239 L504 239 Q589 263 673 300 L151 300 L151 361 L780 361 L798 364 L847 324 Q723 247 537 196 L537 180 L944 180 L944 116 Z" /><glyph glyph-name="uni2F08" unicode="&#x2f08;&#x4eba;" d="M531 806 Q530 799 530 785 L529 760 Q542 562 611 392 Q726 105 968 -6 Q931 -34 913 -67 Q600 81 497 511 Q407 101 97 -67 Q75 -36 37 -10 Q295 122 392 426 Q436 564 449 806 L531 806 Z" /><glyph glyph-name="uni4EC5" unicode="&#x4ec5;" d="M369 807 Q322 692 262 593 L262 -75 L189 -75 L189 483 Q133 405 75 350 Q52 397 29 424 Q200 579 296 830 L369 807 ZM910 712 Q855 401 689 189 Q802 50 969 -13 Q938 -39 919 -76 Q755 -8 639 130 Q518 -3 354 -76 Q333 -37 307 -15 Q471 51 593 191 Q475 362 412 635 L482 650 Q537 410 642 251 Q770 420 825 657 L371 657 L371 727 L848 727 L861 731 L910 712 Z" /><glyph glyph-name="uni4ECE" unicode="&#x4ece;" d="M431 144 Q386 233 296 347 Q242 73 112 -77 Q88 -56 40 -26 Q237 177 264 803 L344 800 Q332 581 312 444 Q435 307 487 207 L431 144 ZM699 801 Q697 718 692 640 Q751 152 965 -5 Q930 -34 907 -76 Q733 68 661 400 Q595 75 395 -74 Q364 -40 328 -18 Q512 109 579 388 Q616 540 621 801 L699 801 Z" /><glyph glyph-name="uni4EE3" unicode="&#x4ee3;" d="M873 615 Q820 689 712 779 L766 815 Q874 730 931 655 L873 615 ZM384 803 Q345 709 277 601 L277 -75 L202 -75 L202 494 Q139 412 68 347 Q51 385 25 419 Q212 578 314 825 L384 803 ZM648 465 Q704 25 854 11 Q894 8 909 183 Q931 163 971 144 Q942 -81 857 -76 Q638 -60 575 455 L335 425 L325 495 L567 525 Q553 685 548 821 L622 821 Q627 660 641 535 L940 573 L950 503 L648 465 Z" /><glyph glyph-name="uni4EE5" unicode="&#x4ee5;" d="M520 436 Q473 556 366 680 L432 713 Q541 592 590 474 L520 436 ZM465 209 Q322 144 66 32 L39 109 Q101 133 177 165 L160 783 L236 786 L251 196 L448 280 L465 209 ZM905 -73 Q844 18 681 191 Q565 16 338 -79 Q316 -46 279 -15 Q526 76 638 270 Q737 443 772 785 L853 777 Q815 439 721 259 Q907 71 967 -16 L905 -73 Z" /><glyph glyph-name="uni4EEC" unicode="&#x4eec;" d="M296 812 Q268 712 220 599 L220 -76 L148 -76 L148 454 Q115 396 79 349 Q64 391 39 424 Q155 573 228 831 L296 812 ZM340 636 L412 636 L412 -77 L340 -77 L340 636 ZM439 836 Q523 722 558 645 L497 610 Q460 698 381 805 L439 836 ZM918 18 Q918 -44 878 -61 Q846 -74 719 -74 Q714 -40 695 -3 Q773 -7 823 -4 Q845 -3 845 19 L845 732 L575 732 L575 800 L918 800 L918 18 Z" /><glyph glyph-name="uni4EFB" unicode="&#x4efb;" d="M368 814 Q321 700 262 602 L262 -77 L189 -77 L189 492 Q132 415 71 357 Q56 397 25 431 Q197 584 296 836 L368 814 ZM674 340 L674 33 L941 33 L941 -39 L343 -39 L343 33 L600 33 L600 340 L305 340 L305 412 L600 412 L600 676 Q482 655 361 641 Q357 663 338 704 Q687 749 861 812 L916 750 Q814 717 674 689 L674 412 L956 412 L956 340 L674 340 Z" /><glyph glyph-name="uni4F01" unicode="&#x4f01;" d="M529 839 Q696 588 965 451 Q938 422 916 387 Q642 545 496 766 Q358 544 84 381 Q68 412 37 439 Q318 597 454 839 L529 839 ZM544 21 L924 21 L924 -48 L79 -48 L79 21 L204 21 L204 389 L278 389 L278 21 L467 21 L467 569 L544 569 L544 336 L831 336 L831 269 L544 269 L544 21 Z" /><glyph glyph-name="uni4F18" unicode="&#x4f18;" d="M859 634 Q817 696 712 774 L762 813 Q867 736 913 676 L859 634 ZM336 810 Q304 717 247 607 L247 -77 L175 -77 L175 483 Q131 414 76 352 Q51 401 32 422 Q177 578 267 830 L336 810 ZM845 19 Q872 19 880 47 Q888 74 891 172 Q919 150 959 141 Q953 28 932 -11 Q910 -50 851 -50 L704 -50 Q639 -50 616 -28 Q594 -6 594 57 L594 267 Q529 30 338 -78 Q319 -47 286 -23 Q430 57 496 206 Q549 328 562 530 L313 530 L313 601 L565 601 Q568 674 568 826 L641 826 Q641 698 637 601 L943 601 L943 530 L635 530 Q631 475 628 451 L667 451 L667 59 Q667 34 675 27 Q684 19 712 19 L845 19 Z" /><glyph glyph-name="uni4F1A" unicode="&#x4f1a;" d="M92 338 L914 338 L914 269 L445 269 Q380 133 327 39 Q549 46 732 54 Q663 133 600 189 L663 223 Q819 89 898 -38 L831 -79 Q809 -42 785 -12 Q402 -31 110 -41 L100 32 Q205 34 247 36 Q313 157 355 269 L92 269 L92 338 ZM735 528 L735 460 L262 460 L262 528 L735 528 ZM530 835 Q694 606 966 493 Q942 468 918 427 Q642 561 496 764 Q357 559 83 423 Q67 456 40 482 Q322 617 454 835 L530 835 Z" /><glyph glyph-name="uni4F20" unicode="&#x4f20;" d="M338 811 Q294 701 235 596 L235 -75 L162 -75 L162 483 Q120 423 64 364 Q42 410 21 436 Q179 590 268 833 L338 811 ZM549 464 L513 345 L833 345 L845 350 L896 317 Q817 225 676 69 Q746 17 785 -22 L730 -77 Q636 22 469 127 L523 172 Q577 139 619 110 Q703 201 767 275 L412 275 Q439 348 473 464 L294 464 L294 533 L494 533 L527 652 L351 652 L351 721 L546 721 L560 777 Q569 812 573 831 L647 821 Q630 754 620 721 L905 721 L905 652 L602 652 Q580 572 568 533 L950 533 L950 464 L549 464 Z" /><glyph glyph-name="uni4F55" unicode="&#x4f55;" d="M338 814 Q298 706 249 613 L249 -75 L176 -75 L176 491 Q137 429 83 370 Q67 408 42 442 Q187 597 269 836 L338 814 ZM440 462 L440 251 L612 251 L612 462 L440 462 ZM440 185 L440 116 L369 116 L369 528 L681 528 L681 185 L440 185 ZM959 668 L886 668 L886 26 Q886 -44 837 -61 Q794 -75 637 -75 Q632 -41 610 1 Q718 -3 785 0 Q813 1 813 26 L813 668 L340 668 L340 740 L959 740 L959 668 Z" /><glyph glyph-name="uni4F5C" unicode="&#x4f5c;" d="M358 810 Q321 710 256 596 L256 -75 L182 -75 L182 481 Q138 419 83 362 Q64 409 40 436 Q197 588 287 833 L358 810 ZM650 599 L650 456 L935 456 L935 387 L650 387 L650 236 L949 236 L949 166 L650 166 L650 -76 L575 -76 L575 599 L506 599 Q440 476 364 391 Q340 417 306 441 Q446 586 526 824 L597 805 Q576 745 542 670 L958 670 L958 599 L650 599 Z" /><glyph glyph-name="uni4F60" unicode="&#x4f60;" d="M337 812 Q294 703 234 598 L234 -74 L163 -74 L163 487 Q123 429 62 363 Q41 411 20 436 Q175 588 267 833 L337 812 ZM522 397 Q470 185 376 57 Q358 72 312 98 Q402 207 449 411 L522 397 ZM684 576 L684 14 Q684 -46 649 -62 Q618 -77 517 -77 Q511 -43 491 -2 Q515 -3 594 -3 Q611 -3 611 14 L611 576 L459 576 Q416 474 362 404 Q334 430 303 451 Q412 588 467 832 L540 816 Q517 729 487 645 L892 645 L904 648 L955 636 Q934 517 911 424 L849 436 Q867 542 872 576 L684 576 ZM822 419 Q918 241 947 85 L876 61 Q849 215 757 397 L822 419 Z" /><glyph glyph-name="uni4F9B" unicode="&#x4f9b;" d="M341 812 Q299 704 239 598 L239 -75 L166 -75 L166 486 Q121 420 67 365 Q47 408 25 438 Q180 588 271 834 L341 812 ZM555 157 Q478 23 364 -74 Q333 -43 305 -28 Q418 59 484 179 L555 157 ZM768 176 Q885 66 946 -37 L883 -78 Q828 25 710 143 L768 176 ZM536 308 L731 308 L731 552 L536 552 L536 308 ZM957 308 L957 235 L311 235 L311 308 L464 308 L464 552 L335 552 L335 624 L464 624 L464 825 L536 825 L536 624 L731 624 L731 826 L803 826 L803 624 L945 624 L945 552 L803 552 L803 308 L957 308 Z" /><glyph glyph-name="uni4FE1" unicode="&#x4fe1;" d="M864 728 L406 728 L406 789 L864 789 L864 728 ZM348 813 Q305 705 246 607 L246 -73 L176 -73 L176 500 Q122 425 65 368 Q46 412 23 440 Q187 594 279 834 L348 813 ZM455 179 L455 32 L817 32 L817 179 L455 179 ZM383 239 L891 239 L891 -73 L817 -73 L817 -29 L455 -29 L455 -76 L383 -76 L383 239 ZM394 376 L880 376 L880 316 L394 316 L394 376 ZM882 453 L394 453 L394 514 L882 514 L882 453 ZM958 652 L958 590 L312 590 L312 652 L958 652 Z" /><glyph glyph-name="uni503E" unicode="&#x503e;" d="M664 607 Q684 664 695 710 L501 710 L501 774 L953 774 L953 710 L773 710 Q755 660 731 607 L907 607 L907 147 L840 147 L840 542 L608 542 L608 145 L543 145 L543 607 L664 607 ZM287 815 Q259 726 217 628 L217 -76 L149 -76 L149 492 Q106 413 58 355 Q44 394 21 430 Q149 586 220 834 L287 815 ZM496 261 Q494 226 498 199 Q333 107 313 85 Q307 112 284 151 Q313 167 313 214 L313 727 L378 727 L378 539 L505 539 L505 475 L378 475 L378 204 L496 261 ZM751 283 Q751 164 712 89 Q655 -19 505 -79 Q489 -50 465 -33 Q690 53 690 284 L690 490 L751 490 L751 283 ZM770 121 Q897 38 957 -24 L914 -77 Q847 -5 728 76 L770 121 Z" /><glyph glyph-name="uni50CF" unicode="&#x50cf;" d="M304 812 Q269 708 226 617 L226 -76 L155 -76 L155 484 Q108 405 61 350 Q46 390 22 425 Q158 583 235 831 L304 812 ZM406 473 L589 473 L589 586 L406 586 L406 473 ZM475 716 Q442 672 413 641 L614 641 Q639 667 669 716 L475 716 ZM848 586 L657 586 L657 473 L848 473 L848 586 ZM948 345 Q877 282 784 225 Q858 85 964 26 Q932 -2 915 -33 Q726 85 647 420 L623 420 Q595 396 560 375 Q676 278 696 135 Q714 5 647 -46 Q611 -75 551 -77 Q516 -77 474 -74 Q472 -35 456 -11 Q499 -15 537 -15 Q578 -15 598 2 Q646 36 630 136 Q487 16 309 -51 Q291 -18 267 4 Q478 68 613 200 Q603 230 583 260 Q471 173 324 119 Q307 150 286 170 Q444 217 553 302 Q533 326 509 345 Q420 295 321 259 Q301 287 277 311 Q422 354 528 420 L338 420 L338 569 Q329 561 309 545 Q284 574 254 587 Q392 685 472 835 L543 822 Q527 794 513 772 L709 772 L722 776 L768 745 Q738 693 696 641 L918 641 L918 420 L711 420 Q731 342 759 278 Q831 326 896 389 L948 345 Z" /><glyph glyph-name="uni5143" unicode="&#x5143;" d="M855 687 L151 687 L151 758 L855 758 L855 687 ZM834 12 Q864 12 873 44 Q881 75 885 191 Q908 172 954 158 Q948 28 926 -14 Q903 -59 839 -59 L696 -59 Q630 -59 606 -35 Q583 -12 583 52 L583 408 L396 408 Q380 222 327 122 Q258 -10 99 -74 Q81 -38 52 -16 Q198 40 259 156 Q304 243 317 408 L64 408 L64 480 L939 480 L939 408 L658 408 L658 53 Q658 27 667 20 Q676 12 705 12 L834 12 Z" /><glyph glyph-name="uni5145" unicode="&#x5145;" d="M101 446 Q211 448 256 450 Q311 545 351 646 L70 646 L70 717 L461 717 L461 837 L535 837 L535 717 L932 717 L932 646 L439 646 Q373 515 335 453 L730 467 Q661 533 596 583 L656 620 Q839 482 924 364 L860 321 Q841 350 795 401 Q418 380 105 371 L101 446 ZM410 344 Q396 166 338 80 Q267 -27 90 -75 Q76 -38 47 -12 Q209 28 271 118 Q320 189 332 344 L410 344 ZM838 1 Q867 1 876 31 Q884 61 888 174 Q911 155 957 142 Q950 15 929 -26 Q906 -69 843 -69 L701 -69 Q635 -69 612 -47 Q589 -25 589 37 L589 350 L664 350 L664 37 Q664 14 672 8 Q681 1 710 1 L838 1 Z" /><glyph glyph-name="uni5149" unicode="&#x5149;" d="M869 771 Q790 605 730 518 L668 543 Q744 662 794 799 L869 771 ZM259 515 Q228 628 141 763 L208 788 Q300 651 329 543 L259 515 ZM837 -5 Q866 -5 875 25 Q884 55 888 163 Q910 144 956 130 Q949 8 928 -32 Q905 -74 843 -74 L699 -74 Q633 -74 610 -51 Q586 -29 586 34 L586 387 L402 387 Q386 201 329 105 Q257 -19 84 -76 Q67 -39 38 -13 Q198 35 262 142 Q310 222 324 387 L58 387 L58 458 L460 458 L460 837 L534 837 L534 458 L945 458 L945 387 L661 387 L661 35 Q661 10 670 3 Q679 -5 707 -5 L837 -5 Z" /><glyph glyph-name="uni5171" unicode="&#x5171;" d="M408 158 Q295 21 124 -78 Q100 -52 65 -25 Q240 66 331 188 L408 158 ZM651 189 Q831 62 930 -31 L860 -77 Q763 20 587 151 L651 189 ZM358 318 L642 318 L642 554 L358 554 L358 318 ZM952 318 L952 246 L53 246 L53 318 L283 318 L283 554 L93 554 L93 626 L283 626 L283 828 L358 828 L358 626 L642 626 L642 828 L718 828 L718 626 L916 626 L916 554 L718 554 L718 318 L952 318 Z" /><glyph glyph-name="uni5185" unicode="&#x5185;" d="M900 22 Q900 -46 855 -62 Q820 -75 669 -75 Q663 -34 644 0 Q750 -5 803 -2 Q827 -1 827 23 L827 593 L537 593 Q534 523 519 463 Q711 295 801 185 L740 137 Q667 234 497 392 Q435 231 254 124 Q232 157 201 180 Q450 313 463 593 L175 593 L175 -78 L102 -78 L102 666 L464 666 L464 837 L538 837 L538 666 L900 666 L900 22 Z" /><glyph glyph-name="uni518C" unicode="&#x518c;" d="M775 443 L775 702 L616 702 L616 443 L775 443 ZM368 443 L368 702 L228 702 L228 443 L368 443 ZM955 371 L848 371 L848 14 Q848 -45 811 -63 Q780 -77 666 -77 Q659 -42 642 -6 Q726 -9 755 -7 Q775 -6 775 14 L775 371 L614 371 Q602 76 499 -79 Q476 -48 443 -28 Q532 109 542 371 L440 371 L440 18 Q440 -39 404 -56 Q374 -69 264 -69 Q260 -41 240 -2 Q325 -4 349 -2 Q368 -2 368 18 L368 371 L226 371 Q212 73 98 -83 Q73 -46 44 -31 Q143 108 155 371 L45 371 L45 443 L157 443 L157 771 L440 771 L440 443 L544 443 L544 771 L848 771 L848 443 L955 443 L955 371 Z" /><glyph glyph-name="uni5199" unicode="&#x5199;" d="M155 566 L82 566 L82 782 L920 782 L920 566 L844 566 L844 714 L155 714 L155 566 ZM945 150 L735 150 Q713 -4 672 -44 Q643 -73 589 -76 Q532 -79 427 -73 Q425 -34 402 -3 Q472 -10 565 -10 Q599 -10 611 1 Q641 27 661 150 L58 150 L58 219 L671 219 Q677 270 683 336 L296 336 L287 303 L213 310 Q260 475 301 706 L376 698 L354 588 L775 588 L775 522 L339 522 Q321 440 312 403 L763 403 Q762 378 760 368 Q753 287 745 219 L945 219 L945 150 Z" /><glyph glyph-name="uni51B3" unicode="&#x51b3;" d="M207 558 Q163 644 54 761 L113 797 Q224 682 271 600 L207 558 ZM269 296 Q199 134 105 -32 L42 13 Q130 156 214 342 L269 296 ZM635 504 Q635 431 629 379 L787 379 L787 608 L635 608 L635 504 ZM675 307 Q752 62 964 -11 Q940 -33 915 -75 Q695 14 612 279 Q552 45 304 -79 Q278 -41 251 -20 Q492 89 542 307 L308 307 L308 379 L554 379 Q559 433 559 504 L559 608 L359 608 L359 679 L559 679 L559 835 L635 835 L635 679 L859 679 L859 379 L958 379 L958 307 L675 307 Z" /><glyph glyph-name="uni51C6" unicode="&#x51c6;" d="M246 574 Q190 643 69 724 L117 775 Q240 697 296 632 L246 574 ZM40 50 Q138 178 230 338 L283 289 Q200 140 102 0 L40 50 ZM467 40 L642 40 L642 178 L467 178 L467 40 ZM642 573 L467 573 L467 443 L642 443 L642 573 ZM642 376 L467 376 L467 243 L642 243 L642 376 ZM956 -28 L467 -28 L467 -76 L396 -76 L396 504 Q356 443 308 391 Q273 432 252 448 Q395 590 476 837 L548 817 Q516 725 474 640 L655 640 Q693 729 716 832 L792 811 Q755 706 726 640 L933 640 L933 573 L714 573 L714 443 L909 443 L909 376 L714 376 L714 243 L909 243 L909 178 L714 178 L714 40 L956 40 L956 -28 Z" /><glyph glyph-name="uni51ED" unicode="&#x51ed;" d="M584 722 Q486 712 361 703 Q358 728 343 758 Q695 786 842 826 L895 773 Q800 749 657 731 L657 613 L943 613 L943 548 L657 548 L657 428 L926 428 L926 365 L338 365 L338 428 L584 428 L584 548 L303 548 L303 613 L584 613 L584 722 ZM176 585 Q131 540 81 501 Q58 531 28 553 Q191 663 276 837 L343 817 Q309 745 248 668 L248 335 L176 335 L176 585 ZM864 7 Q885 7 891 28 Q898 50 900 129 Q920 112 966 101 Q961 5 941 -28 Q921 -61 871 -61 L753 -61 Q695 -61 674 -41 Q653 -20 653 36 L653 221 L340 221 L340 194 Q340 3 88 -77 Q75 -45 46 -14 Q266 51 266 196 L266 287 L726 287 L726 37 Q726 18 733 12 Q739 7 762 7 L864 7 Z" /><glyph glyph-name="uni51FA" unicode="&#x51fa;" d="M890 336 L890 -74 L814 -74 L814 -14 L190 -14 L190 -76 L116 -76 L116 336 L190 336 L190 59 L457 59 L457 400 L154 400 L154 742 L228 742 L228 472 L457 472 L457 831 L533 831 L533 472 L773 472 L773 742 L850 742 L850 400 L533 400 L533 59 L814 59 L814 336 L890 336 Z" /><glyph glyph-name="uni5207" unicode="&#x5207;&#xfa00;" d="M346 183 Q365 183 372 211 Q377 237 379 326 Q406 304 446 294 Q440 189 422 152 Q402 113 352 113 L247 113 Q191 113 172 136 Q153 159 153 226 L153 472 L46 449 L33 517 L153 543 L153 809 L226 809 L226 558 L451 606 L465 539 L226 488 L226 225 Q226 198 231 191 Q237 183 257 183 L346 183 ZM937 749 L936 708 Q919 38 873 -21 Q847 -59 796 -65 Q752 -71 656 -65 Q654 -27 632 11 Q690 6 766 6 Q791 5 805 23 Q845 72 861 678 L651 678 Q644 386 601 240 Q537 23 364 -80 Q346 -49 310 -21 Q476 71 534 272 Q572 404 576 678 L402 678 L402 749 L937 749 Z" /><glyph glyph-name="uni521B" unicode="&#x521b;" d="M451 3 Q485 3 495 28 Q505 52 509 141 Q541 121 575 114 Q568 9 545 -26 Q521 -62 456 -62 L271 -62 Q198 -62 172 -40 Q145 -17 145 47 L145 473 L507 473 Q507 452 506 443 Q492 210 464 179 Q445 158 407 153 Q356 150 309 154 Q306 189 291 218 Q327 214 376 214 Q396 214 405 223 Q424 248 434 407 L217 407 L217 47 Q217 19 228 11 Q239 3 277 3 L451 3 ZM384 814 Q384 813 364 771 Q527 604 594 505 L541 456 Q471 561 331 711 Q232 541 85 427 Q57 459 31 479 Q226 618 315 835 L384 814 ZM713 169 L642 169 L642 720 L713 720 L713 169 ZM909 821 L909 22 Q909 -43 864 -60 Q825 -75 684 -73 Q676 -35 658 -2 Q752 -6 810 -3 Q836 -2 836 22 L836 821 L909 821 Z" /><glyph glyph-name="uni5229" unicode="&#x5229;&#xf9dd;" d="M334 537 L525 537 L525 469 L334 469 L334 396 Q414 333 522 237 L479 176 Q421 240 334 320 L334 -74 L262 -74 L262 357 Q174 164 72 62 Q57 94 31 131 Q163 256 247 469 L53 469 L53 537 L262 537 L262 706 Q186 692 69 675 Q65 701 46 734 Q339 778 459 831 L514 774 Q442 745 334 721 L334 537 ZM664 171 L592 171 L592 718 L664 718 L664 171 ZM910 817 L910 23 Q910 -45 865 -64 Q826 -77 685 -77 Q676 -34 658 -2 Q769 -5 810 -3 Q836 -3 836 22 L836 817 L910 817 Z" /><glyph glyph-name="uni522B" unicode="&#x522b;" d="M420 726 L165 726 L165 534 L420 534 L420 726 ZM492 467 L96 467 L96 792 L492 792 L492 467 ZM509 356 L508 322 Q493 2 462 -36 Q440 -63 402 -66 Q372 -70 291 -66 Q287 -24 270 5 Q324 0 367 0 Q389 0 400 11 Q422 37 434 287 L295 287 Q260 18 83 -80 Q66 -46 36 -25 Q195 57 225 287 L59 287 L59 356 L232 356 Q236 408 237 442 L308 442 Q303 363 302 356 L509 356 ZM697 167 L625 167 L625 716 L697 716 L697 167 ZM909 817 L909 21 Q909 -45 866 -62 Q833 -77 694 -77 Q689 -41 668 -2 Q757 -6 811 -3 Q836 -3 836 21 L836 817 L909 817 Z" /><glyph glyph-name="uni5230" unicode="&#x5230;" d="M566 94 L568 27 L55 -46 L43 28 Q106 35 274 56 L274 231 L83 231 L83 299 L274 299 L274 418 L346 418 L346 299 L534 299 L534 231 L346 231 L346 65 L566 94 ZM424 653 Q542 517 582 430 L524 395 Q507 429 490 457 Q396 450 258 443 L58 431 L52 502 L143 506 Q184 596 217 705 L54 705 L54 771 L564 771 L564 705 L300 705 Q244 563 218 509 Q412 517 448 519 Q412 570 369 622 L424 653 ZM678 167 L607 167 L607 717 L678 717 L678 167 ZM914 809 L914 24 Q914 -45 869 -63 Q833 -76 696 -76 Q688 -37 671 1 Q714 -1 818 -1 Q842 0 842 24 L842 809 L914 809 Z" /><glyph glyph-name="uni5236" unicode="&#x5236;" d="M362 520 L603 520 L603 452 L362 452 L362 352 L568 352 L568 79 Q568 28 538 14 Q513 2 422 2 Q417 34 400 67 Q470 65 486 67 Q500 67 500 80 L500 284 L362 284 L362 -75 L291 -75 L291 284 L162 284 L162 5 L94 5 L94 352 L291 352 L291 452 L48 452 L48 520 L291 520 L291 625 L161 625 Q135 561 111 522 Q89 536 45 550 Q111 648 145 813 L215 799 Q198 734 185 693 L291 693 L291 833 L362 833 L362 693 L564 693 L564 625 L362 625 L362 520 ZM745 196 L675 196 L675 746 L745 746 L745 196 ZM924 826 L924 26 Q924 -40 883 -58 Q847 -73 723 -73 Q715 -32 699 5 Q758 3 831 3 Q852 4 852 25 L852 826 L924 826 Z" /><glyph glyph-name="uni5251" unicode="&#x5251;" d="M591 117 L594 53 Q381 13 99 -39 L80 34 Q127 41 384 82 Q454 230 501 406 L569 390 Q512 220 453 94 L591 117 ZM508 474 L173 474 L173 538 L508 538 L508 474 ZM323 169 Q313 269 278 393 L337 406 Q372 287 386 185 L323 169 ZM159 372 Q210 253 227 151 L166 129 Q152 222 102 354 L159 372 ZM382 822 Q376 810 362 786 Q546 641 625 546 L581 491 Q499 595 330 733 Q220 564 66 449 Q49 491 29 516 Q221 647 320 846 L382 822 ZM738 167 L672 167 L672 717 L738 717 L738 167 ZM918 817 L918 19 Q918 -43 877 -60 Q838 -74 709 -73 Q701 -34 685 -5 Q792 -8 827 -6 Q852 -5 852 19 L852 817 L918 817 Z" /><glyph glyph-name="uni52A1" unicode="&#x52a1;" d="M866 282 Q865 259 862 249 Q834 8 784 -38 Q758 -62 703 -65 Q634 -67 555 -62 Q553 -27 532 4 Q606 -3 683 -3 Q714 -3 726 6 Q763 36 786 217 L483 217 Q396 -4 101 -75 Q83 -37 60 -12 Q325 39 404 217 L129 217 L129 282 L427 282 Q441 333 446 381 L523 375 Q516 332 504 282 L866 282 ZM324 656 Q387 577 508 525 Q659 586 743 670 L339 670 L324 656 ZM858 707 Q775 582 595 494 Q742 449 956 436 Q932 409 915 369 Q669 390 507 457 Q331 388 79 357 Q70 393 49 422 Q256 442 425 496 Q336 545 276 614 Q221 569 139 522 Q117 559 93 577 Q288 676 383 838 L461 822 Q427 771 397 734 L800 734 L813 738 L858 707 Z" /><glyph glyph-name="uni52A8" unicode="&#x52a8;" d="M477 688 L93 688 L93 755 L477 755 L477 688 ZM446 67 L428 132 Q124 65 93 46 L93 50 Q92 49 92 47 Q87 74 69 116 Q86 120 114 184 Q162 297 195 450 L57 450 L57 518 L494 518 L494 450 L272 450 Q232 288 170 145 L407 195 Q375 287 349 347 L410 364 Q481 202 512 88 L446 67 ZM942 607 L941 570 Q924 30 882 -24 Q856 -56 810 -62 Q766 -66 672 -61 Q668 -19 649 12 Q705 7 779 7 Q804 6 817 22 Q853 62 868 536 L719 536 Q694 94 517 -76 Q492 -41 459 -22 Q625 130 646 536 L507 536 L507 607 L649 607 Q652 677 652 820 L725 820 Q725 712 722 607 L942 607 Z" /><glyph glyph-name="uni52A9" unicode="&#x52a9;" d="M177 124 L364 164 L364 296 L177 296 L177 124 ZM177 720 L177 574 L364 574 L364 720 L177 720 ZM364 507 L177 507 L177 363 L364 363 L364 507 ZM494 124 Q252 67 51 21 L38 96 L109 110 L109 788 L434 788 L434 179 L489 191 L494 124 ZM927 611 L926 574 Q913 22 873 -31 Q850 -63 801 -69 Q771 -72 664 -68 Q660 -23 642 3 Q699 -1 772 -1 Q798 -3 809 14 Q842 54 854 540 L698 540 Q685 321 632 183 Q567 14 426 -79 Q404 -42 372 -24 Q504 59 565 213 Q614 337 626 540 L467 540 L467 611 L629 611 Q632 684 632 836 L704 836 Q704 684 701 611 L927 611 Z" /><glyph glyph-name="uni5305" unicode="&#x5305;" d="M273 632 Q192 517 100 442 Q60 482 38 496 Q211 623 304 842 L379 820 Q355 765 318 703 L870 703 L870 668 Q855 228 821 184 Q799 155 758 150 Q717 145 642 150 Q640 186 623 221 Q688 215 723 217 Q745 216 756 230 Q783 265 794 632 L273 632 ZM271 462 L271 301 L531 301 L531 462 L271 462 ZM776 15 Q839 15 859 39 Q878 61 886 140 Q914 121 957 113 Q946 13 912 -20 Q876 -55 777 -55 L400 -55 Q282 -55 241 -28 Q198 1 198 83 L198 529 L604 529 L604 234 L271 234 L271 83 Q271 42 294 29 Q318 15 396 15 L776 15 Z" /><glyph glyph-name="uni533A" unicode="&#x533a;" d="M948 -20 L171 -20 L171 -78 L97 -78 L97 775 L925 775 L925 704 L171 704 L171 50 L948 50 L948 -20 ZM767 132 Q700 218 563 335 Q436 192 291 95 Q264 127 231 152 Q381 243 507 381 Q399 468 273 549 L325 596 Q438 526 554 436 Q646 548 708 669 L779 645 Q709 514 611 391 Q751 279 825 188 L767 132 Z" /><glyph glyph-name="uni5347" unicode="&#x5347;" d="M947 364 L732 364 L732 -77 L657 -77 L657 364 L352 364 Q345 220 298 124 Q238 1 98 -79 Q78 -47 45 -23 Q264 100 279 364 L55 364 L55 436 L280 436 L280 658 Q170 627 90 609 Q83 642 63 669 Q360 739 496 821 L552 760 Q477 721 353 681 L353 436 L657 436 L657 817 L732 817 L732 436 L947 436 L947 364 Z" /><glyph glyph-name="uni5370" unicode="&#x5370;" d="M474 773 Q348 715 181 669 L181 490 L456 490 L456 419 L181 419 L181 177 L462 177 L462 105 L181 105 L181 20 L106 20 L106 747 L152 729 Q317 783 411 835 L474 773 ZM918 175 Q918 110 878 92 Q845 78 720 78 Q715 113 691 157 Q732 155 823 155 Q844 156 844 176 L844 694 L597 694 L597 -72 L524 -72 L524 767 L918 767 L918 175 Z" /><glyph glyph-name="uni5386" unicode="&#x5386;" d="M893 501 Q892 475 891 465 Q868 27 822 -24 Q795 -56 744 -60 Q695 -63 593 -58 Q589 -15 567 16 Q631 10 716 10 Q744 9 758 23 Q797 59 816 430 L557 430 Q539 250 480 137 Q409 2 263 -72 Q245 -40 214 -18 Q349 48 413 168 Q467 268 483 430 L256 430 L256 501 L488 501 Q493 581 494 664 L570 664 Q565 528 563 501 L893 501 ZM943 717 L193 717 L193 471 Q193 106 104 -74 Q77 -47 39 -32 Q118 127 118 471 L118 788 L943 788 L943 717 Z" /><glyph glyph-name="uni539A" unicode="&#x539a;" d="M207 716 L207 492 Q207 110 101 -74 Q70 -49 38 -37 Q134 130 134 493 L134 784 L940 784 L940 716 L207 716 ZM368 433 L769 433 L769 500 L368 500 L368 433 ZM368 548 L769 548 L769 613 L368 613 L368 548 ZM298 382 L298 663 L842 663 L842 382 L298 382 ZM952 103 L614 103 L614 -2 Q614 -55 573 -67 Q540 -77 407 -77 Q398 -45 381 -16 Q484 -19 520 -17 Q541 -16 541 0 L541 103 L214 103 L214 163 L541 163 L541 219 L595 219 Q652 240 712 272 L295 272 L295 326 L794 326 L810 329 L854 291 Q755 220 614 172 L614 163 L952 163 L952 103 Z" /><glyph glyph-name="uni539F" unicode="&#x539f;" d="M443 187 Q364 59 240 -34 Q220 -14 179 10 Q301 89 373 207 L443 187 ZM370 318 L783 318 L783 410 L370 410 L370 318 ZM370 466 L783 466 L783 557 L370 557 L370 466 ZM611 259 L611 4 Q611 -52 573 -65 Q543 -76 418 -76 Q414 -51 395 -11 Q487 -14 520 -12 Q539 -12 539 5 L539 259 L297 259 L297 616 L506 616 Q522 670 529 714 L207 714 L207 494 Q207 112 102 -74 Q72 -49 38 -36 Q134 134 134 495 L134 781 L940 781 L940 714 L616 714 Q597 652 584 616 L859 616 L859 259 L611 259 ZM754 211 Q895 101 957 11 L897 -30 Q837 63 697 175 L754 211 Z" /><glyph glyph-name="uni53C2" unicode="&#x53c2;" d="M826 144 Q661 -25 225 -82 Q212 -47 190 -20 Q611 25 762 175 L826 144 ZM692 258 Q557 148 288 87 Q271 118 247 140 Q509 193 632 287 L692 258 ZM588 375 Q482 294 295 242 Q265 277 251 287 Q437 335 529 403 L588 375 ZM694 451 Q804 322 967 259 Q938 234 918 201 Q733 283 612 451 L391 451 Q271 288 77 196 Q61 220 22 254 Q193 324 301 451 L56 451 L56 515 L349 515 Q375 554 398 604 L103 596 L94 664 L260 667 Q329 757 368 837 L448 815 Q389 726 342 669 Q533 672 718 678 Q655 727 606 760 L664 795 Q832 691 917 591 L856 550 Q836 574 788 619 L479 607 Q456 554 433 515 L946 515 L946 451 L694 451 Z" /><glyph glyph-name="uni53CB" unicode="&#x53cb;" d="M393 395 Q454 255 567 160 Q677 262 726 395 L393 395 ZM824 447 Q768 245 627 115 Q760 26 955 -10 Q926 -35 908 -76 Q710 -36 570 67 Q444 -28 269 -77 Q249 -34 227 -15 Q388 26 511 115 Q406 209 340 353 Q261 90 104 -45 Q86 -22 40 6 Q257 180 318 598 L73 598 L73 670 L327 670 Q336 746 339 837 L415 837 Q407 711 402 670 L930 670 L930 598 L393 598 Q381 516 369 466 L761 466 L773 470 L824 447 Z" /><glyph glyph-name="uni53D1" unicode="&#x53d1;" d="M798 640 Q762 691 672 787 L729 823 Q820 730 858 681 L798 640 ZM428 361 Q486 241 588 155 Q689 243 741 361 L428 361 ZM841 412 Q782 231 647 110 Q779 20 961 -14 Q935 -39 915 -80 Q724 -38 590 63 Q459 -31 282 -79 Q268 -46 243 -15 Q406 23 531 111 Q442 194 382 306 Q275 116 90 1 Q69 33 35 58 Q289 213 393 539 L254 539 Q162 539 148 522 Q132 572 123 592 Q142 597 159 632 Q200 701 226 809 L304 794 Q282 711 232 611 L412 611 Q441 719 454 840 L537 828 Q520 708 497 611 L928 611 L927 539 L477 539 Q461 488 442 433 L777 433 L791 437 L841 412 Z" /><glyph glyph-name="uni53D6" unicode="&#x53d6;" d="M394 705 L199 705 L199 572 L394 572 L394 705 ZM199 148 Q260 156 394 176 L394 299 L199 299 L199 148 ZM394 506 L199 506 L199 367 L394 367 L394 506 ZM466 705 L466 -74 L394 -74 L394 107 Q329 96 208 77 Q91 59 45 51 L32 126 Q78 131 129 138 L129 705 L51 705 L51 774 L536 774 L536 705 L466 705 ZM930 689 Q892 379 768 182 Q854 57 974 -4 Q944 -29 921 -65 Q805 1 722 116 Q635 6 518 -62 Q498 -27 469 -2 Q589 60 679 183 Q583 347 530 610 L601 623 Q642 406 724 253 Q814 412 848 627 L511 627 L511 700 L868 700 L882 703 L930 689 Z" /><glyph glyph-name="uni53D8" unicode="&#x53d8;" d="M348 669 L74 669 L74 735 L483 735 Q459 788 432 828 L504 846 Q543 789 567 735 L927 735 L927 669 L650 669 L650 368 L576 368 L576 669 L422 669 L422 367 L348 367 L348 669 ZM745 621 Q854 525 917 434 L859 396 Q796 491 689 589 L745 621 ZM292 609 Q241 486 149 397 Q125 419 91 437 Q180 514 225 627 L292 609 ZM296 273 Q371 177 500 111 Q634 176 709 273 L296 273 ZM821 309 Q741 171 576 76 Q732 11 952 -14 Q929 -37 910 -79 Q671 -48 498 37 Q331 -40 92 -79 Q78 -42 55 -13 Q267 15 424 77 Q294 158 216 273 L135 273 L135 339 L760 339 L773 343 L821 309 Z" /><glyph glyph-name="uni53E4" unicode="&#x53e4;" d="M760 298 L240 298 L240 46 L760 46 L760 298 ZM539 584 L539 369 L839 369 L839 -74 L760 -74 L760 -25 L240 -25 L240 -78 L165 -78 L165 369 L460 369 L460 584 L57 584 L57 657 L460 657 L460 837 L539 837 L539 657 L946 657 L946 584 L539 584 Z" /><glyph glyph-name="uni53EA" unicode="&#x53ea;" d="M242 698 L242 341 L775 341 L775 698 L242 698 ZM242 234 L169 234 L169 768 L852 768 L852 239 L775 239 L775 271 L242 271 L242 234 ZM419 171 Q298 24 121 -77 Q86 -42 61 -24 Q247 75 340 202 L419 171 ZM649 200 Q841 66 929 -33 L865 -79 Q779 22 589 160 L649 200 Z" /><glyph glyph-name="uni53EF" unicode="&#x53ef;" d="M233 474 L233 246 L494 246 L494 474 L233 474 ZM233 175 L233 95 L161 95 L161 546 L567 546 L567 175 L233 175 ZM944 692 L821 692 L821 30 Q821 -46 770 -61 Q730 -75 563 -75 Q554 -36 531 4 Q638 -1 716 2 Q745 3 745 31 L745 692 L59 692 L59 766 L944 766 L944 692 Z" /><glyph glyph-name="uni53F0" unicode="&#x53f0;" d="M259 277 L259 39 L738 39 L738 277 L259 277 ZM184 347 L817 347 L817 -74 L738 -74 L738 -32 L259 -32 L259 -76 L184 -76 L184 347 ZM680 722 Q870 571 950 443 L886 394 Q863 433 815 490 Q770 487 72 457 L67 531 L217 536 Q320 691 383 840 L465 812 Q388 663 303 540 Q450 545 752 559 Q687 626 622 680 L680 722 Z" /><glyph glyph-name="uni53F8" unicode="&#x53f8;" d="M234 357 L234 171 L555 171 L555 357 L234 357 ZM234 105 L234 32 L161 32 L161 423 L628 423 L628 105 L234 105 ZM696 530 L98 530 L98 597 L696 597 L696 530 ZM885 34 Q885 -39 840 -56 Q802 -70 654 -70 Q648 -25 628 10 Q741 7 786 9 Q810 10 810 34 L810 701 L91 701 L91 772 L885 772 L885 34 Z" /><glyph glyph-name="uni5404" unicode="&#x5404;" d="M279 210 L279 32 L716 32 L716 210 L279 210 ZM205 279 L793 279 L793 -78 L716 -78 L716 -35 L279 -35 L279 -81 L205 -81 L205 279 ZM322 657 Q393 574 505 504 Q627 579 699 666 L330 666 L322 657 ZM818 701 Q737 573 575 463 Q755 365 965 324 Q941 300 917 256 Q695 306 506 421 Q306 308 69 252 Q58 288 33 319 Q249 365 439 465 Q340 535 275 610 Q197 536 116 487 Q88 520 59 542 Q267 655 375 845 L446 820 Q416 771 386 732 L754 732 L767 736 L818 701 Z" /><glyph glyph-name="uni5408" unicode="&#x5408;" d="M271 254 L271 31 L730 31 L730 254 L271 254 ZM198 321 L806 321 L806 -77 L730 -77 L730 -36 L271 -36 L271 -77 L198 -77 L198 321 ZM751 512 L751 446 L250 446 L250 512 L751 512 ZM531 834 Q701 599 970 477 Q947 456 921 413 Q648 556 498 762 Q358 553 83 407 Q66 438 37 466 Q319 608 456 834 L531 834 Z" /><glyph glyph-name="uni540C" unicode="&#x540c;" d="M369 378 L369 189 L631 189 L631 378 L369 378 ZM369 125 L369 53 L300 53 L300 441 L701 441 L701 125 L369 125 ZM754 545 L250 545 L250 610 L754 610 L754 545 ZM911 17 Q911 -46 870 -64 Q834 -78 703 -78 Q698 -41 676 -5 Q777 -8 814 -6 Q838 -5 838 17 L838 714 L163 714 L163 -79 L91 -79 L91 785 L911 785 L911 17 Z" /><glyph glyph-name="uni540D" unicode="&#x540d;" d="M771 44 L771 271 L327 271 L327 44 L771 44 ZM847 -76 L771 -76 L771 -24 L327 -24 L327 -76 L254 -76 L254 253 Q174 225 88 205 Q76 245 50 273 Q249 315 418 405 Q344 472 266 528 L322 571 Q414 509 487 445 Q647 544 732 669 L362 669 Q260 571 125 500 Q101 538 74 556 Q297 664 408 840 L491 822 Q457 771 426 737 L780 737 L792 741 L842 710 Q727 487 450 340 L847 340 L847 -76 Z" /><glyph glyph-name="uni540E" unicode="&#x540e;" d="M384 278 L384 43 L798 43 L798 278 L384 278 ZM313 348 L871 348 L871 -75 L798 -75 L798 -25 L384 -25 L384 -77 L313 -77 L313 348 ZM959 562 L959 490 L226 490 L226 480 Q226 108 93 -77 Q70 -43 35 -27 Q152 139 152 481 L152 760 L228 745 Q617 776 814 828 L876 769 Q650 711 226 679 L226 562 L959 562 Z" /><glyph glyph-name="uni5411" unicode="&#x5411;" d="M374 394 L374 199 L625 199 L625 394 L374 394 ZM374 132 L374 61 L306 61 L306 461 L694 461 L694 132 L374 132 ZM903 23 Q903 -47 857 -63 Q818 -76 670 -76 Q662 -35 643 0 Q752 -5 805 -2 Q829 -1 829 23 L829 593 L175 593 L175 -76 L102 -76 L102 665 L375 665 Q419 759 439 839 L530 823 Q494 735 457 665 L903 665 L903 23 Z" /><glyph glyph-name="uni5458" unicode="&#x5458;" d="M269 614 L734 614 L734 727 L269 727 L269 614 ZM813 792 L813 548 L193 548 L193 792 L813 792 ZM534 328 L534 235 Q534 136 465 70 Q368 -24 119 -80 Q99 -45 70 -19 Q308 28 397 105 Q456 157 456 237 L456 328 L534 328 ZM565 122 Q812 40 933 -18 L894 -80 Q763 -13 528 68 L565 122 ZM853 461 L853 102 L774 102 L774 391 L233 391 L233 95 L158 95 L158 461 L853 461 Z" /><glyph glyph-name="uni548C" unicode="&#x548c;" d="M322 543 L496 543 L496 474 L322 474 L322 448 Q397 369 489 255 L444 194 Q415 242 322 363 L322 -74 L249 -74 L249 366 Q168 173 70 68 Q57 99 29 136 Q153 260 230 474 L54 474 L54 543 L249 543 L249 709 Q172 697 84 685 Q77 718 63 744 Q318 779 439 827 L489 769 Q420 744 322 723 L322 543 ZM826 122 L826 673 L603 673 L603 122 L826 122 ZM900 744 L900 -25 L826 -25 L826 50 L603 50 L603 -32 L530 -32 L530 744 L900 744 Z" /><glyph glyph-name="uni5496" unicode="&#x5496;" d="M139 702 L139 235 L240 235 L240 702 L139 702 ZM139 173 L139 77 L79 77 L79 763 L300 763 L300 173 L139 173 ZM637 636 Q637 609 636 601 Q619 32 582 -21 Q562 -51 525 -57 Q481 -61 437 -57 Q437 -22 420 10 Q452 7 496 7 Q515 7 525 23 Q556 65 570 569 L484 569 Q470 88 309 -80 Q287 -51 257 -32 Q407 119 419 569 L336 569 L336 636 L421 636 Q422 698 422 833 L487 833 Q487 762 485 636 L637 636 ZM861 111 L861 653 L737 653 L737 111 L861 111 ZM925 720 L925 -32 L861 -32 L861 44 L737 44 L737 -40 L676 -40 L676 720 L925 720 Z" /><glyph glyph-name="uni54A8" unicode="&#x54a8;" d="M352 669 L83 669 L83 735 L352 735 L352 669 ZM378 464 Q228 411 78 363 L51 431 Q161 460 371 522 L378 464 ZM262 226 L262 31 L744 31 L744 226 L262 226 ZM189 292 L819 292 L819 -74 L744 -74 L744 -36 L262 -36 L262 -78 L189 -78 L189 292 ZM667 662 Q718 402 955 355 Q927 325 914 291 Q703 346 636 545 Q571 371 338 306 Q325 338 300 361 Q448 398 516 476 Q573 541 593 662 L493 662 Q450 582 400 529 Q369 553 336 569 Q441 666 488 838 L560 823 Q547 781 525 728 L861 728 L873 731 L923 717 Q881 591 844 524 L783 543 Q808 591 832 662 L667 662 Z" /><glyph glyph-name="uni54C1" unicode="&#x54c1;" d="M700 723 L303 723 L303 534 L700 534 L700 723 ZM775 463 L231 463 L231 794 L775 794 L775 463 ZM157 286 L157 49 L366 49 L366 286 L157 286 ZM86 358 L439 358 L439 -68 L366 -68 L366 -23 L157 -23 L157 -77 L86 -77 L86 358 ZM847 49 L847 286 L620 286 L620 49 L847 49 ZM920 358 L920 -70 L847 -70 L847 -23 L620 -23 L620 -77 L548 -77 L548 358 L920 358 Z" /><glyph glyph-name="uni552E" unicode="&#x552e;" d="M257 168 L257 22 L763 22 L763 168 L257 168 ZM183 229 L839 229 L839 -78 L763 -78 L763 -39 L257 -39 L257 -78 L183 -78 L183 229 ZM249 351 L477 351 L477 426 L249 426 L249 351 ZM477 669 L249 669 L249 602 L477 602 L477 669 ZM477 549 L249 549 L249 479 L477 479 L477 549 ZM921 351 L921 292 L179 292 L179 577 Q131 517 91 480 Q65 515 37 538 Q176 658 252 839 L323 816 Q304 771 278 726 L487 726 Q519 793 531 837 L607 817 Q581 764 561 726 L877 726 L877 669 L550 669 L550 602 L828 602 L828 549 L550 549 L550 479 L831 479 L831 426 L550 426 L550 351 L921 351 Z" /><glyph glyph-name="uni55B5" unicode="&#x55b5;" d="M143 674 L143 239 L256 239 L256 674 L143 674 ZM325 167 L143 167 L143 90 L76 90 L76 746 L325 746 L325 167 ZM470 400 L470 257 L617 257 L617 400 L470 400 ZM840 400 L687 400 L687 257 L840 257 L840 400 ZM840 41 L840 192 L687 192 L687 41 L840 41 ZM617 41 L617 192 L470 192 L470 41 L617 41 ZM401 467 L911 467 L911 -71 L840 -71 L840 -25 L470 -25 L470 -77 L401 -77 L401 467 ZM952 702 L952 633 L811 633 L811 511 L740 511 L740 633 L573 633 L573 511 L502 511 L502 633 L361 633 L361 702 L502 702 L502 825 L573 825 L573 702 L740 702 L740 825 L811 825 L811 702 L952 702 Z" /><glyph glyph-name="uni56DE" unicode="&#x56de;" d="M618 499 L376 499 L376 271 L618 271 L618 499 ZM691 566 L691 205 L305 205 L305 566 L691 566 ZM836 48 L836 721 L161 721 L161 48 L836 48 ZM915 795 L915 -76 L836 -76 L836 -22 L161 -22 L161 -76 L86 -76 L86 795 L915 795 Z" /><glyph glyph-name="uni56F4" unicode="&#x56f4;" d="M785 333 Q784 315 782 305 Q768 163 742 137 Q724 119 692 116 Q645 114 598 116 Q596 145 582 176 Q618 172 661 172 Q682 172 689 179 Q703 196 712 270 L529 270 L529 66 L459 66 L459 270 L211 270 L211 333 L459 333 L459 418 L267 418 L267 478 L459 478 L459 560 L225 560 L225 622 L459 622 L459 703 L529 703 L529 622 L776 622 L776 560 L529 560 L529 478 L737 478 L737 418 L529 418 L529 333 L785 333 ZM844 37 L844 730 L155 730 L155 37 L844 37 ZM917 796 L917 -76 L844 -76 L844 -27 L155 -27 L155 -76 L85 -76 L85 796 L917 796 Z" /><glyph glyph-name="uni56FA" unicode="&#x56fa;" d="M647 329 L361 329 L361 186 L647 186 L647 329 ZM536 502 L536 388 L716 388 L716 127 L294 127 L294 388 L465 388 L465 502 L230 502 L230 564 L465 564 L465 678 L536 678 L536 564 L780 564 L780 502 L536 502 ZM834 37 L834 720 L166 720 L166 37 L834 37 ZM910 790 L910 -79 L834 -79 L834 -32 L166 -32 L166 -79 L93 -79 L93 790 L910 790 Z" /><glyph glyph-name="uni56FD" unicode="&#x56fd;" d="M775 197 L775 134 L230 134 L230 197 L460 197 L460 365 L272 365 L272 429 L460 429 L460 571 L244 571 L244 638 L755 638 L755 571 L530 571 L530 429 L730 429 L730 365 L530 365 L530 197 L775 197 ZM640 347 Q709 287 741 238 L690 208 Q662 254 593 321 L640 347 ZM833 42 L833 722 L164 722 L164 42 L833 42 ZM910 791 L910 -77 L833 -77 L833 -27 L164 -27 L164 -77 L90 -77 L90 791 L910 791 Z" /><glyph glyph-name="uni56FE" unicode="&#x56fe;" d="M312 204 Q534 179 714 118 L680 63 Q505 126 278 153 L312 204 ZM407 324 Q538 298 643 251 L612 201 Q513 250 377 279 L407 324 ZM379 562 Q428 508 506 464 Q590 512 643 568 L385 568 L379 562 ZM747 603 Q688 510 569 432 Q682 378 820 353 Q796 329 779 297 Q634 328 508 396 Q371 322 212 286 Q197 322 177 347 Q310 371 445 433 Q382 475 337 522 Q289 479 246 451 Q220 479 195 496 Q339 581 415 704 L476 684 Q463 660 436 626 L693 626 L705 629 L747 603 ZM840 31 L840 725 L159 725 L159 31 L840 31 ZM913 793 L913 -77 L840 -77 L840 -35 L159 -35 L159 -77 L87 -77 L87 793 L913 793 Z" /><glyph glyph-name="uni5728" unicode="&#x5728;" d="M671 17 L935 17 L935 -53 L334 -53 L334 17 L597 17 L597 298 L373 298 L373 368 L597 368 L597 559 L671 559 L671 368 L896 368 L896 298 L671 298 L671 17 ZM935 682 L935 611 L390 611 Q334 495 269 407 L269 -73 L196 -73 L196 319 Q147 266 80 218 Q69 249 42 285 Q203 399 306 611 L66 611 L66 682 L339 682 Q370 758 392 837 L468 818 Q451 760 420 682 L935 682 Z" /><glyph glyph-name="uni5730" unicode="&#x5730;" d="M243 238 Q330 276 357 286 L372 220 Q304 188 65 82 L36 156 Q91 175 173 210 L173 527 L45 527 L45 598 L173 598 L173 825 L243 825 L243 598 L360 598 L360 527 L243 527 L243 238 ZM819 13 Q862 13 876 41 Q889 67 894 155 Q925 133 961 126 Q952 20 926 -15 Q897 -54 821 -54 L576 -54 Q490 -54 460 -27 Q429 1 429 80 L429 395 L350 362 L321 426 L429 472 L429 744 L500 744 L500 502 L634 559 L634 837 L705 837 L705 588 L837 644 L867 669 L919 649 L915 635 Q915 309 905 261 Q898 207 852 195 Q824 188 758 188 Q751 232 740 252 Q764 251 807 251 Q831 251 837 277 Q844 311 844 571 L705 512 L705 145 L634 145 L634 482 L500 425 L500 79 Q500 39 515 26 Q530 13 578 13 L819 13 Z" /><glyph glyph-name="uni573A" unicode="&#x573a;" d="M937 515 Q936 489 934 480 Q908 26 858 -34 Q833 -64 791 -67 Q756 -71 684 -68 Q682 -28 665 3 Q716 -2 760 -2 Q784 -2 794 13 Q834 53 860 445 L792 445 Q690 94 436 -76 Q409 -49 379 -33 Q626 113 723 445 L639 445 Q572 254 417 143 Q407 155 365 184 L367 176 Q140 85 63 56 L39 131 Q105 152 175 178 L175 524 L53 524 L53 594 L175 594 L175 825 L245 825 L245 594 L355 594 L355 524 L245 524 L245 203 L352 243 L365 186 Q505 278 568 445 L498 445 Q423 445 411 433 Q401 465 380 503 Q411 508 480 552 Q591 623 696 719 L375 719 L375 790 L776 790 L790 796 L846 754 Q692 615 537 515 L937 515 Z" /><glyph glyph-name="uni578B" unicode="&#x578b;" d="M890 385 Q890 328 852 313 Q819 301 703 301 Q698 332 678 369 Q775 366 800 369 Q819 369 819 387 L819 830 L890 830 L890 385 ZM703 447 L634 447 L634 780 L703 780 L703 447 ZM266 593 L389 593 L389 730 L266 730 L266 593 ZM261 527 Q239 369 111 288 Q89 319 62 340 Q170 406 192 527 L71 527 L71 593 L197 593 L197 730 L104 730 L104 796 L552 796 L552 730 L459 730 L459 593 L572 593 L572 527 L459 527 L459 313 L389 313 L389 527 L261 527 ZM949 27 L949 -43 L51 -43 L51 27 L468 27 L468 153 L154 153 L154 221 L468 221 L468 333 L543 333 L543 221 L845 221 L845 153 L543 153 L543 27 L949 27 Z" /><glyph glyph-name="uni57FA" unicode="&#x57fa;" d="M535 14 L880 14 L880 -49 L126 -49 L126 14 L461 14 L461 119 L257 119 L257 180 L461 180 L461 264 L535 264 L535 180 L744 180 L744 119 L535 119 L535 14 ZM320 359 L683 359 L683 430 L320 430 L320 359 ZM320 678 L320 611 L683 611 L683 678 L320 678 ZM320 486 L683 486 L683 555 L320 555 L320 486 ZM739 296 Q829 190 964 142 Q938 121 915 85 Q762 148 661 296 L348 296 Q246 146 87 72 Q66 107 39 129 Q174 183 265 296 L49 296 L49 359 L247 359 L247 678 L95 678 L95 740 L247 740 L247 836 L320 836 L320 740 L683 740 L683 836 L758 836 L758 740 L908 740 L908 678 L758 678 L758 359 L951 359 L951 296 L739 296 Z" /><glyph glyph-name="uni5802" unicode="&#x5802;" d="M144 459 L76 459 L76 677 L248 677 Q215 740 167 799 L232 825 Q297 753 324 694 L287 677 L462 677 L462 837 L535 837 L535 677 L719 677 L676 694 Q728 758 767 829 L843 802 Q787 724 742 677 L928 677 L928 459 L856 459 L856 611 L144 611 L144 459 ZM296 361 L705 361 L705 472 L296 472 L296 361 ZM935 17 L935 -49 L68 -49 L68 17 L462 17 L462 137 L155 137 L155 202 L462 202 L462 301 L226 301 L226 532 L778 532 L778 301 L535 301 L535 202 L859 202 L859 137 L535 137 L535 17 L935 17 Z" /><glyph glyph-name="uni5854" unicode="&#x5854;" d="M465 670 L320 670 L320 736 L465 736 L465 834 L533 834 L533 736 L736 736 L736 834 L806 834 L806 736 L953 736 L953 670 L806 670 L806 573 L736 573 L736 670 L533 670 L533 573 L465 573 L465 670 ZM349 285 L366 218 L64 88 L37 163 Q84 179 173 214 L173 525 L56 525 L56 596 L173 596 L173 827 L242 827 L242 596 L348 596 L348 525 L242 525 L242 242 L349 285 ZM483 185 L483 25 L796 25 L796 185 L483 185 ZM414 249 L867 249 L867 -76 L796 -76 L796 -38 L483 -38 L483 -76 L414 -76 L414 249 ZM795 391 L795 327 L483 327 L483 391 L795 391 ZM664 615 Q786 452 975 375 Q957 353 934 311 Q743 402 632 550 Q525 391 327 295 Q310 330 290 355 Q495 448 594 615 L664 615 Z" /><glyph glyph-name="uni586B" unicode="&#x586b;" d="M798 570 L492 570 L492 507 L798 507 L798 570 ZM798 459 L492 459 L492 395 L798 395 L798 459 ZM798 346 L492 346 L492 281 L798 281 L798 346 ZM607 691 L346 691 L346 754 L607 754 L607 837 L678 837 L678 754 L945 754 L945 691 L678 691 L678 620 L868 620 L868 230 L424 230 L424 620 L607 620 L607 691 ZM318 175 L958 175 L958 110 L318 110 L318 175 ZM373 218 Q254 164 66 82 L37 156 Q83 173 173 210 L173 524 L56 524 L56 594 L173 594 L173 824 L242 824 L242 594 L348 594 L348 524 L242 524 L242 239 L356 286 L373 218 ZM583 71 Q494 -15 344 -77 Q312 -42 289 -25 Q433 24 515 95 L583 71 ZM749 98 Q879 27 965 -39 L897 -76 Q817 -8 697 60 L749 98 Z" /><glyph glyph-name="uni5904" unicode="&#x5904;" d="M693 104 L615 104 L615 835 L693 835 L693 577 L718 590 Q866 435 933 326 L868 286 Q813 380 693 518 L693 104 ZM254 610 Q240 561 227 526 Q262 370 326 262 Q399 405 427 610 L254 610 ZM510 667 Q478 381 374 194 Q509 30 789 30 Q922 30 961 31 Q939 -4 931 -46 L785 -46 Q480 -46 334 129 Q240 -4 99 -77 Q66 -37 39 -20 Q193 55 286 195 Q225 293 188 428 Q155 358 116 305 Q83 333 56 346 Q178 506 223 833 L300 813 Q291 755 272 679 L447 679 L461 682 L510 667 Z" /><glyph glyph-name="uni5907" unicode="&#x5907;" d="M249 292 L249 192 L461 192 L461 292 L249 292 ZM745 292 L536 292 L536 192 L745 192 L745 292 ZM745 21 L745 131 L536 131 L536 21 L745 21 ZM461 21 L461 131 L249 131 L249 21 L461 21 ZM174 358 L823 358 L823 -74 L745 -74 L745 -44 L249 -44 L249 -76 L174 -76 L174 358 ZM330 675 Q392 608 499 554 Q616 614 684 685 L340 685 L330 675 ZM805 724 Q729 606 577 519 Q749 450 968 427 Q943 401 923 358 Q680 391 499 476 Q311 385 68 344 Q53 390 35 415 Q241 442 422 518 Q340 566 278 629 Q212 576 131 532 Q111 565 81 586 Q280 680 370 839 L449 824 Q429 788 398 751 L744 751 L757 755 L805 724 Z" /><glyph glyph-name="uni590D" unicode="&#x590d;" d="M248 678 Q183 595 98 529 Q79 562 52 587 Q198 687 270 837 L336 816 Q310 766 293 741 L899 741 L899 678 L248 678 ZM319 199 Q388 131 505 85 Q629 133 699 199 L319 199 ZM289 373 L752 373 L752 441 L289 441 L289 373 ZM289 492 L752 492 L752 558 L289 558 L289 492 ZM815 229 Q744 127 595 55 Q752 9 958 -4 Q936 -27 917 -70 Q672 -49 508 18 Q328 -51 66 -77 Q61 -51 38 -10 Q256 7 421 57 Q330 104 271 169 Q216 121 149 80 Q126 108 96 128 Q241 204 326 319 L216 319 L216 611 L828 611 L828 319 L403 319 L406 318 Q389 292 358 256 L757 256 L770 260 L815 229 Z" /><glyph glyph-name="uni591A" unicode="&#x591a;" d="M394 690 Q368 671 331 647 Q448 587 508 535 Q617 607 680 690 L394 690 ZM787 727 Q697 565 496 448 Q321 346 104 299 Q90 339 68 364 Q270 401 444 497 Q378 554 269 610 Q205 575 127 543 Q108 574 76 598 Q328 687 454 838 L537 820 Q509 788 471 753 L727 753 L740 757 L787 727 ZM544 342 Q504 312 457 285 Q577 218 647 154 Q768 234 831 342 L544 342 ZM934 382 Q773 9 176 -78 Q163 -38 143 -11 Q400 20 581 115 Q503 188 389 249 Q304 207 223 179 Q201 214 177 235 Q476 329 615 499 L697 480 Q660 438 624 406 L872 406 L886 409 L934 382 Z" /><glyph glyph-name="uni591F" unicode="&#x591f;" d="M708 320 Q687 295 657 265 Q733 212 779 166 Q840 235 874 320 L708 320 ZM666 686 Q648 664 627 641 Q690 601 739 555 Q797 617 828 686 L666 686 ZM170 463 L170 248 L277 248 L277 463 L170 463 ZM965 362 Q867 36 509 -79 Q490 -43 468 -21 Q621 22 732 119 Q682 172 610 223 Q570 190 523 160 Q504 189 475 205 Q634 298 718 447 Q635 381 528 338 Q517 363 488 392 Q601 431 693 511 Q646 558 584 600 Q548 570 522 552 Q509 572 485 590 Q469 26 425 -31 Q400 -67 353 -72 Q317 -76 230 -72 Q226 -31 208 -3 Q260 -7 326 -7 Q350 -8 362 10 Q401 55 418 641 L194 641 Q163 575 127 522 L335 522 L335 189 L170 189 L170 129 L110 129 L110 499 Q96 481 89 473 Q65 499 31 521 Q135 635 185 836 L259 820 Q245 769 224 712 L487 712 L485 602 Q625 697 687 835 L755 824 Q732 779 709 745 L860 745 L872 748 L916 727 Q865 575 740 466 L800 455 Q773 407 753 379 L904 379 L917 382 L965 362 Z" /><glyph glyph-name="uni2F24" unicode="&#x2f24;&#x5927;" d="M562 475 Q679 108 955 -5 Q922 -36 899 -75 Q629 53 501 420 Q413 67 102 -75 Q83 -40 46 -14 Q358 122 435 475 L66 475 L66 551 L447 551 Q460 639 462 835 L542 835 Q540 654 526 551 L939 551 L939 475 L562 475 Z" /><glyph glyph-name="uni5929" unicode="&#x5929;" d="M554 375 Q656 66 962 -9 Q934 -34 911 -78 Q623 4 506 296 Q431 40 89 -78 Q74 -41 44 -14 Q394 105 444 375 L94 375 L94 451 L452 451 Q454 470 454 508 L454 684 L63 684 L63 760 L936 760 L936 684 L532 684 L532 507 Q532 470 531 451 L911 451 L911 375 L554 375 Z" /><glyph glyph-name="uni5956" unicode="&#x5956;" d="M942 733 Q840 426 418 351 Q404 387 378 413 Q528 435 635 484 Q591 540 515 605 L569 637 Q645 577 695 516 Q801 585 848 688 L573 688 Q505 622 436 583 Q413 618 392 637 Q540 717 596 840 L668 817 Q653 787 627 753 L884 753 L898 755 L942 733 ZM169 598 Q144 668 77 755 L134 784 Q202 702 229 631 L169 598 ZM281 514 Q161 449 82 408 L50 472 Q133 510 281 584 L281 837 L353 837 L353 349 L281 349 L281 514 ZM560 207 Q652 29 958 -5 Q930 -30 913 -70 Q604 -24 499 179 Q414 -20 82 -78 Q70 -41 47 -15 Q356 34 429 207 L63 207 L63 274 L451 274 Q458 301 465 350 L542 350 Q535 304 528 274 L934 274 L934 207 L560 207 Z" /><glyph glyph-name="uni597D" unicode="&#x597d;" d="M212 563 Q180 420 151 306 Q215 269 267 232 Q325 369 344 563 L212 563 ZM419 624 Q400 357 326 188 Q399 132 440 82 L395 23 Q359 68 293 123 Q221 -6 101 -78 Q81 -43 55 -18 Q166 40 236 168 Q187 205 133 239 L122 197 L60 229 Q96 359 142 563 L47 563 L47 631 L156 631 Q179 734 197 836 L268 828 Q251 740 227 631 L362 631 L375 634 L419 624 ZM960 367 L722 367 L722 18 Q722 -45 680 -61 Q643 -74 518 -74 Q511 -38 490 -2 Q589 -5 626 -3 Q648 -2 648 18 L648 367 L414 367 L414 436 L648 436 L648 569 L678 569 Q750 627 821 717 L447 717 L447 785 L875 785 L890 790 L939 754 Q846 621 722 525 L722 436 L960 436 L960 367 Z" /><glyph glyph-name="uni5982" unicode="&#x5982;" d="M226 563 Q192 425 160 308 Q229 271 301 223 Q368 360 390 563 L226 563 ZM467 626 Q445 351 361 181 Q444 121 492 67 L448 4 Q403 55 324 117 Q243 -9 106 -77 Q84 -38 61 -16 Q185 39 265 161 Q200 206 141 241 L128 196 L64 228 Q104 354 155 563 L47 563 L47 633 L171 633 Q202 763 216 837 L288 828 Q278 781 243 633 L408 633 L422 635 L467 626 ZM847 94 L847 659 L602 659 L602 94 L847 94 ZM919 729 L919 -36 L847 -36 L847 24 L602 24 L602 -51 L532 -51 L532 729 L919 729 Z" /><glyph glyph-name="uni59CB" unicode="&#x59cb;" d="M422 492 L501 496 Q570 656 616 837 L697 820 Q629 622 574 500 L842 517 Q800 591 751 653 L811 683 Q931 530 971 417 L907 381 Q896 414 877 452 Q505 424 430 420 L422 492 ZM211 562 Q183 445 148 307 Q217 267 265 233 Q322 370 341 562 L211 562 ZM417 624 Q398 356 324 189 Q399 131 440 81 L395 22 Q358 68 292 123 Q217 -8 99 -79 Q75 -39 53 -19 Q164 39 234 169 Q181 209 131 240 L119 197 L57 230 Q88 335 141 562 L47 562 L47 631 L156 631 Q174 714 198 837 L269 829 Q253 746 226 631 L359 631 L372 633 L417 624 ZM561 258 L561 35 L840 35 L840 258 L561 258 ZM490 326 L914 326 L914 -73 L840 -73 L840 -32 L561 -32 L561 -77 L490 -77 L490 326 Z" /><glyph glyph-name="uni5A01" unicode="&#x5a01;" d="M876 697 Q828 745 737 797 L778 839 Q871 792 919 745 L876 697 ZM368 329 Q372 342 323 204 Q389 169 428 145 Q470 214 487 329 L368 329 ZM515 -1 Q482 30 443 57 Q370 -29 240 -74 Q226 -43 202 -23 Q322 15 391 92 Q353 117 301 146 L289 117 L235 146 Q257 200 303 329 L219 329 L219 390 L323 390 L353 487 L235 487 L235 547 L592 547 L592 487 L420 487 L388 390 L611 390 L611 329 L552 329 Q530 195 481 111 Q527 78 550 57 L515 -1 ZM911 521 Q862 290 763 138 Q807 -5 866 -5 Q898 -5 905 174 Q929 148 965 133 Q956 11 933 -34 Q911 -78 858 -78 Q768 -78 710 66 Q638 -18 547 -77 Q515 -39 494 -22 Q606 41 684 147 Q636 327 625 624 L188 624 L188 408 Q188 81 91 -76 Q65 -46 34 -32 Q119 107 119 408 L119 692 L622 692 Q620 786 620 835 L694 835 Q694 738 695 692 L945 692 L945 624 L697 624 Q708 390 739 234 Q806 358 840 531 L911 521 Z" /><glyph glyph-name="uni5B66" unicode="&#x5b66;" d="M154 450 L83 450 L83 671 L236 671 Q206 729 152 796 L214 824 Q280 750 310 688 L276 671 L480 671 Q461 738 407 817 L471 841 Q530 760 552 688 L509 671 L686 671 Q749 747 793 830 L870 804 Q823 735 768 671 L923 671 L923 450 L851 450 L851 605 L154 605 L154 450 ZM941 207 L538 207 L538 12 Q538 -50 490 -65 Q451 -77 306 -77 Q299 -47 275 -6 Q396 -9 438 -7 Q464 -6 464 14 L464 207 L64 207 L64 276 L464 276 L464 348 L502 348 Q578 385 643 436 L230 436 L230 502 L718 502 L733 506 L781 470 Q685 371 538 301 L538 276 L941 276 L941 207 Z" /><glyph glyph-name="uni5B83" unicode="&#x5b83;" d="M709 26 Q765 26 783 55 Q799 82 807 181 Q838 161 880 151 Q869 32 838 -7 Q804 -48 710 -48 L407 -48 Q303 -48 266 -21 Q229 7 229 86 L229 536 L305 536 L305 315 Q580 392 716 467 L777 409 Q606 325 305 248 L305 86 Q305 49 324 37 Q343 26 407 26 L709 26 ZM910 712 L910 484 L833 484 L833 639 L163 639 L163 484 L89 484 L89 712 L458 712 L458 837 L537 837 L537 712 L910 712 Z" /><glyph glyph-name="uni5B8C" unicode="&#x5b8c;" d="M158 521 L83 521 L83 730 L459 730 L459 836 L536 836 L536 730 L916 730 L916 521 L839 521 L839 660 L158 660 L158 521 ZM230 480 L230 549 L769 549 L769 480 L230 480 ZM835 9 Q863 9 871 32 Q880 56 882 141 Q907 125 950 112 Q944 10 922 -24 Q900 -59 841 -59 L687 -59 Q619 -59 595 -38 Q572 -17 572 43 L572 296 L397 296 Q378 146 318 66 Q245 -32 82 -78 Q64 -38 38 -15 Q187 22 251 104 Q303 170 318 296 L60 296 L60 366 L940 366 L940 296 L646 296 L646 43 Q646 22 655 16 Q664 9 695 9 L835 9 Z" /><glyph glyph-name="uni5B9A" unicode="&#x5b9a;" d="M158 506 L85 506 L85 722 L460 722 L460 836 L537 836 L537 722 L915 722 L915 506 L839 506 L839 652 L158 652 L158 506 ZM537 23 Q602 11 699 11 Q907 11 955 12 Q933 -22 927 -63 L695 -63 Q525 -63 428 -24 Q312 23 248 142 Q195 3 99 -81 Q72 -52 38 -31 Q189 86 225 376 L301 369 Q292 300 277 236 Q329 93 461 43 L461 462 L213 462 L213 532 L792 532 L792 462 L537 462 L537 296 L833 296 L833 227 L537 227 L537 23 Z" /><glyph glyph-name="uni5B9E" unicode="&#x5b9e;" d="M167 521 L94 521 L94 723 L459 723 L459 837 L538 837 L538 723 L908 723 L908 521 L832 521 L832 653 L167 653 L167 521 ZM388 440 Q339 498 242 555 L287 602 Q387 547 435 493 L388 440 ZM187 451 Q295 392 343 341 L298 285 Q249 340 144 401 L187 451 ZM931 192 L570 192 Q782 87 905 -19 L855 -74 Q732 38 500 157 Q404 -10 127 -73 Q112 -36 85 -9 Q349 47 432 192 L75 192 L75 257 L462 257 Q496 358 503 603 L580 603 Q573 371 541 257 L931 257 L931 192 Z" /><glyph glyph-name="uni5BA4" unicode="&#x5ba4;" d="M145 578 L74 578 L74 762 L460 762 L460 836 L535 836 L535 762 L929 762 L929 578 L855 578 L855 693 L145 693 L145 578 ZM942 19 L942 -48 L62 -48 L62 19 L460 19 L460 144 L153 144 L153 210 L460 210 L460 322 L139 312 L135 380 Q156 381 201 381 L274 382 Q319 449 359 527 L175 527 L175 593 L832 593 L832 527 L444 527 Q396 447 352 384 Q662 392 715 394 Q667 433 615 469 L668 506 Q824 407 900 314 L844 272 Q820 301 785 333 Q623 327 535 325 L535 210 L855 210 L855 144 L535 144 L535 19 L942 19 Z" /><glyph glyph-name="uni5BFC" unicode="&#x5bfc;" d="M215 732 L215 627 L751 627 L751 732 L215 732 ZM350 394 Q226 394 184 416 Q139 439 139 507 L139 797 L824 797 L824 561 L215 561 L215 508 Q215 476 239 466 Q264 456 345 456 L743 456 Q803 456 822 472 Q841 488 847 543 Q875 527 918 519 Q908 443 875 419 Q841 394 747 394 L350 394 ZM941 222 L722 222 L722 13 Q722 -49 675 -62 Q640 -73 484 -73 Q478 -42 458 -6 Q561 -10 622 -7 Q647 -7 647 14 L647 222 L272 222 Q385 128 431 53 L376 4 Q327 90 214 184 L258 222 L65 222 L65 291 L647 291 L647 368 L722 368 L722 291 L942 291 L941 222 Z" /><glyph glyph-name="uni2F29" unicode="&#x2f29;&#x5c0f;" d="M544 822 L544 27 Q544 -44 494 -63 Q450 -78 303 -76 Q294 -37 272 1 Q375 -3 436 0 Q465 0 465 27 L465 822 L544 822 ZM774 597 Q931 347 971 156 L893 123 Q853 319 704 570 L774 597 ZM286 575 Q221 282 106 140 Q72 165 36 179 Q156 320 204 590 L286 575 Z" /><glyph glyph-name="uni5C31" unicode="&#x5c31;" d="M882 613 Q848 699 769 778 L826 807 Q906 730 944 644 L882 613 ZM528 642 L56 642 L56 710 L258 710 L258 837 L332 837 L332 710 L528 710 L528 642 ZM197 236 Q163 91 93 -3 Q66 24 36 40 Q98 117 129 250 L197 236 ZM179 367 L411 367 L411 501 L179 501 L179 367 ZM332 303 L332 8 Q332 -46 300 -61 Q272 -73 174 -73 Q167 -36 150 -6 Q224 -8 246 -6 Q262 -5 262 9 L262 303 L110 303 L110 564 L482 564 L482 303 L332 303 ZM453 68 Q431 152 384 238 L443 259 Q493 175 515 91 L453 68 ZM858 0 Q880 0 889 6 Q902 13 905 32 Q909 72 908 153 Q928 134 965 122 Q965 27 956 -13 Q946 -45 922 -59 Q900 -70 863 -70 L800 -70 Q761 -70 735 -53 Q713 -34 713 29 L713 330 Q662 75 498 -78 Q468 -50 434 -35 Q640 152 662 503 L521 503 L521 574 L665 574 Q666 593 666 628 L666 837 L738 837 L738 629 Q738 593 737 574 L953 574 L953 503 L735 503 Q735 495 733 479 L731 454 L781 454 L781 26 Q781 12 790 7 Q800 0 817 0 L858 0 Z" /><glyph glyph-name="uni5C3D" unicode="&#x5c3d;" d="M272 134 Q565 75 758 -16 L717 -82 Q535 11 235 77 L272 134 ZM362 379 Q542 336 662 272 L624 208 Q506 274 327 322 L362 379 ZM259 614 Q259 582 258 564 L781 564 L781 725 L259 725 L259 614 ZM704 493 Q794 254 966 164 Q938 142 913 103 Q722 216 631 493 L254 493 Q229 230 96 90 Q74 122 39 146 Q183 299 183 615 L183 796 L855 796 L855 493 L704 493 Z" /><glyph glyph-name="uni5C55" unicode="&#x5c55;" d="M470 288 L670 288 L670 390 L470 390 L470 288 ZM470 454 L670 454 L670 545 L470 545 L470 454 ZM218 610 L815 610 L815 724 L218 724 L218 610 ZM894 179 Q816 121 734 78 Q827 9 957 -16 Q926 -47 913 -78 Q642 -10 539 224 L416 224 L416 33 L520 50 Q588 60 627 67 L630 2 Q282 -56 244 -63 L232 6 Q273 11 347 23 L347 224 L221 224 L221 288 L400 288 L400 390 L251 390 L251 454 L400 454 L400 545 L218 545 L218 498 Q218 109 100 -77 Q73 -54 35 -39 Q143 131 143 498 L143 789 L888 789 L888 545 L739 545 L739 454 L907 454 L907 390 L739 390 L739 288 L947 288 L947 224 L608 224 Q640 164 688 117 Q774 166 838 218 L894 179 Z" /><glyph glyph-name="uni2F2F" unicode="&#x2f2f;&#x5de5;" d="M947 74 L947 0 L55 0 L55 74 L457 74 L457 648 L107 648 L107 724 L897 724 L897 648 L538 648 L538 74 L947 74 Z" /><glyph glyph-name="uni5DE7" unicode="&#x5de7;" d="M625 702 Q607 608 576 475 L930 475 L928 439 Q896 22 837 -38 Q809 -69 752 -74 Q697 -77 594 -71 Q590 -28 568 5 Q645 -3 726 -3 Q759 -3 772 10 Q821 52 850 404 L559 404 Q548 355 538 321 L461 332 Q503 473 548 702 L413 702 L413 629 L270 629 L270 251 Q345 268 444 292 L452 222 L54 123 L37 198 Q180 231 195 234 L195 629 L50 629 L50 703 L409 703 L409 775 L951 775 L951 702 L625 702 Z" /><glyph glyph-name="uni5DE9" unicode="&#x5de9;" d="M418 229 Q236 174 57 124 L35 195 L183 235 L183 637 L48 637 L48 707 L399 707 L399 637 L256 637 L256 255 L407 297 L418 229 ZM593 437 L729 437 L729 368 L590 368 Q571 77 366 -75 Q342 -44 313 -23 Q501 114 520 368 L381 368 L381 437 L523 437 L523 675 L593 675 L593 437 ZM852 776 Q847 385 854 242 Q865 18 909 7 Q921 4 927 173 Q953 136 975 122 Q969 -2 945 -46 Q923 -86 881 -70 Q809 -48 788 173 Q776 305 776 708 L398 708 L398 776 L852 776 Z" /><glyph glyph-name="uni2F30" unicode="&#x2f30;&#x5df1;" d="M744 18 Q822 18 846 52 Q868 83 878 200 Q915 177 952 170 Q940 34 902 -9 Q861 -55 743 -55 L366 -55 Q244 -55 201 -28 Q156 0 156 83 L156 454 L750 454 L750 703 L143 703 L143 778 L826 778 L826 318 L750 318 L750 381 L231 381 L231 83 Q231 43 256 31 Q281 18 362 18 L744 18 Z" /><glyph glyph-name="uni5E01" unicode="&#x5e01;" d="M853 141 Q853 79 812 64 Q775 49 645 51 Q639 83 619 125 Q720 122 756 124 Q777 124 777 143 L777 460 L535 460 L535 -75 L459 -75 L459 460 L228 460 L228 39 L153 39 L153 532 L459 532 L459 695 Q295 684 92 681 Q91 703 76 748 Q624 762 886 809 L916 741 Q778 717 535 700 L535 532 L853 532 L853 141 Z" /><glyph glyph-name="uni5E08" unicode="&#x5e08;" d="M165 241 L98 241 L98 722 L165 722 L165 241 ZM257 835 L326 835 L326 438 Q326 262 298 158 Q260 16 158 -76 Q136 -46 103 -27 Q197 57 231 185 Q257 279 257 439 L257 835 ZM692 716 L692 594 L906 594 L906 151 Q906 100 876 86 Q851 73 763 73 Q761 98 741 139 Q779 138 822 138 Q837 138 837 152 L837 526 L692 526 L692 -75 L621 -75 L621 526 L488 526 L488 66 L419 66 L419 594 L621 594 L621 716 L384 716 L384 784 L945 784 L945 716 L692 716 Z" /><glyph glyph-name="uni5E74" unicode="&#x5e74;&#xf98e;" d="M513 224 L513 422 L289 422 L289 224 L513 224 ZM950 152 L588 152 L588 -77 L513 -77 L513 152 L51 152 L51 224 L215 224 L215 492 L513 492 L513 644 L270 644 Q202 528 118 447 Q78 482 54 494 Q204 625 279 839 L354 821 Q335 773 308 716 L904 716 L904 644 L588 644 L588 492 L881 492 L881 422 L588 422 L588 224 L950 224 L950 152 Z" /><glyph glyph-name="uni2F34" unicode="&#x2f34;&#x5e7f;" d="M938 633 L220 633 L220 433 Q220 86 101 -83 Q75 -50 42 -33 Q145 115 145 433 L145 704 L490 704 L490 836 L566 836 L566 704 L938 704 L938 633 Z" /><glyph glyph-name="uni5E8F" unicode="&#x5e8f;" d="M893 341 L946 318 Q837 165 776 107 L718 136 Q769 187 831 273 L616 273 L616 8 Q616 -54 569 -67 Q536 -78 383 -78 Q376 -42 358 -9 Q468 -14 518 -11 Q541 -8 541 9 L541 273 L232 273 L232 336 L592 336 Q491 391 373 439 L417 482 Q486 455 568 418 Q649 461 722 524 L289 524 L289 586 L789 586 L806 590 L855 553 Q766 459 633 387 Q684 362 719 341 L714 336 L879 336 L893 341 ZM948 725 L948 656 L196 656 L196 450 Q196 96 97 -79 Q78 -59 35 -37 Q124 116 124 450 L124 725 L491 725 L491 836 L567 836 L567 725 L948 725 Z" /><glyph glyph-name="uni5EA6" unicode="&#x5ea6;&#xfa01;" d="M194 670 L194 452 Q194 94 96 -78 Q71 -53 35 -36 Q124 118 124 452 L124 738 L491 738 L491 836 L567 836 L567 738 L940 738 L940 670 L194 670 ZM458 497 L458 392 L700 392 L700 497 L458 497 ZM387 332 L387 497 L228 497 L228 558 L387 558 L387 645 L458 645 L458 558 L700 558 L700 645 L772 645 L772 558 L933 558 L933 497 L772 497 L772 332 L387 332 ZM425 208 Q480 135 587 81 Q699 135 756 208 L425 208 ZM865 247 Q802 127 664 48 Q793 2 958 -15 Q931 -41 915 -78 Q721 -53 586 10 Q438 -51 234 -76 Q226 -48 203 -14 Q380 4 511 50 Q414 108 354 193 L394 208 L240 208 L240 269 L805 269 L818 272 L865 247 Z" /><glyph glyph-name="uni5EA7" unicode="&#x5ea7;" d="M187 662 L187 455 Q187 98 94 -73 Q64 -45 32 -32 Q116 126 116 456 L116 731 L491 731 L491 836 L567 836 L567 731 L946 731 L946 662 L187 662 ZM423 598 Q412 528 392 472 Q474 399 516 346 L471 298 Q433 348 367 412 Q327 327 259 270 Q235 294 203 314 Q325 404 353 605 L423 598 ZM603 15 L949 15 L949 -51 L192 -51 L192 15 L531 15 L531 164 L257 164 L257 228 L531 228 L531 621 L603 621 L603 329 Q722 418 753 605 L820 597 Q810 535 788 475 Q906 378 951 326 L904 277 Q857 333 761 415 Q718 334 654 283 Q633 308 603 327 L603 228 L888 228 L888 164 L603 164 L603 15 Z" /><glyph glyph-name="uni5EFA" unicode="&#x5efa;" d="M662 626 L810 626 L810 698 L662 698 L662 626 ZM810 567 L662 567 L662 493 L810 493 L810 567 ZM590 567 L315 567 L315 626 L590 626 L590 698 L386 698 L386 757 L590 757 L590 829 L662 829 L662 757 L882 757 L882 626 L957 626 L957 567 L882 567 L882 433 L662 433 L662 359 L892 359 L892 302 L662 302 L662 223 L935 223 L935 162 L662 162 L662 56 L590 56 L590 162 L328 162 L328 223 L590 223 L590 302 L374 302 L374 359 L590 359 L590 433 L379 433 L379 493 L590 493 L590 567 ZM339 481 Q317 275 257 135 Q376 22 656 22 Q912 22 964 23 Q942 -10 933 -50 L654 -50 Q355 -50 224 71 Q170 -24 93 -78 Q68 -44 37 -26 Q119 29 174 128 Q117 203 80 323 L138 345 Q165 255 205 196 Q244 292 262 424 L146 424 L126 385 L58 404 Q129 537 206 707 L45 707 L45 773 L243 773 L255 777 L306 762 Q275 688 179 490 L282 490 L296 492 L339 481 Z" /><glyph glyph-name="uni5F00" unicode="&#x5f00;" d="M647 417 L647 700 L369 700 L369 417 L647 417 ZM945 345 L723 345 L723 -78 L647 -78 L647 345 L366 345 Q340 59 118 -81 Q89 -46 59 -26 Q265 100 290 345 L56 345 L56 417 L293 417 Q294 432 294 460 L294 700 L93 700 L93 771 L914 771 L914 700 L723 700 L723 417 L945 417 L945 345 Z" /><glyph glyph-name="uni5F3A" unicode="&#x5f3a;" d="M376 351 L374 319 Q354 -4 316 -46 Q293 -71 251 -75 Q219 -78 135 -74 Q133 -33 115 -6 Q171 -11 221 -11 Q244 -11 255 0 Q284 32 300 284 L123 284 L117 244 L49 253 Q74 393 86 557 L296 557 L296 718 L61 718 L61 785 L365 785 L365 488 L147 488 L131 351 L376 351 ZM625 247 L625 384 L493 384 L493 247 L625 247 ZM695 384 L695 247 L835 247 L835 384 L695 384 ZM517 584 L808 584 L808 719 L517 719 L517 584 ZM899 -82 Q888 -52 870 -16 Q441 -49 394 -52 L383 21 L625 34 L625 185 L427 185 L427 446 L625 446 L625 522 L449 522 L449 782 L878 782 L878 522 L695 522 L695 446 L904 446 L904 185 L695 185 L695 39 L834 48 Q804 96 775 136 L836 164 Q930 42 965 -52 L899 -82 Z" /><glyph glyph-name="uni5F55" unicode="&#x5f55;" d="M871 324 Q776 241 673 178 Q791 70 950 27 Q922 2 901 -38 Q670 37 536 239 L536 4 Q536 -53 495 -68 Q464 -79 337 -79 Q332 -52 311 -13 Q401 -18 440 -15 Q462 -14 462 5 L462 143 Q283 63 111 -9 L72 57 Q181 98 462 213 L462 395 L70 395 L70 461 L725 461 L731 552 L167 552 L167 620 L735 620 L737 668 Q739 701 739 712 L138 712 L138 781 L748 781 L762 784 L820 780 Q817 643 801 461 L937 461 L937 395 L536 395 L536 366 Q572 289 628 224 Q739 301 808 370 L871 324 ZM187 363 Q308 297 371 238 L319 187 Q261 245 138 319 L187 363 Z" /><glyph glyph-name="uni5F71" unicode="&#x5f71;" d="M915 791 Q814 659 653 564 Q622 600 599 616 Q757 700 845 819 L915 791 ZM940 516 Q826 372 658 277 Q632 308 604 329 Q776 419 871 545 L940 516 ZM183 582 L488 582 L488 645 L183 645 L183 582 ZM183 690 L488 690 L488 752 L183 752 L183 690 ZM615 415 L49 415 L49 473 L299 473 L299 535 L117 535 L117 799 L558 799 L558 535 L367 535 L367 473 L615 473 L615 415 ZM220 117 Q172 19 100 -48 Q75 -27 45 -10 Q120 53 156 133 L220 117 ZM190 211 L481 211 L481 304 L190 304 L190 211 ZM367 158 L367 -6 Q367 -53 335 -65 Q309 -76 217 -76 Q209 -47 189 -16 Q259 -19 284 -17 Q299 -17 299 -5 L299 158 L126 158 L126 356 L550 356 L550 158 L367 158 ZM968 237 Q851 36 617 -75 Q594 -40 566 -17 L534 -34 Q498 33 430 104 L486 132 Q561 53 593 -3 L589 -5 Q800 96 897 264 L968 237 Z" /><glyph glyph-name="uni5F97" unicode="&#x5f97;" d="M811 749 L482 749 L482 669 L811 669 L811 749 ZM811 615 L482 615 L482 534 L811 534 L811 615 ZM885 477 L410 477 L410 805 L885 805 L885 477 ZM324 806 Q229 669 80 569 Q65 602 41 629 Q182 720 253 833 L324 806 ZM336 589 Q306 535 254 466 L254 -76 L181 -76 L181 382 Q123 319 64 274 Q49 312 25 345 Q183 461 271 615 L336 589 ZM465 180 Q550 105 592 41 L535 1 Q499 61 412 146 L465 180 ZM950 197 L801 197 L801 5 Q801 -50 763 -66 Q730 -78 611 -78 Q607 -50 587 -10 Q676 -13 707 -11 Q727 -10 727 7 L727 197 L326 197 L326 261 L727 261 L727 346 L349 346 L349 410 L932 410 L932 346 L801 346 L801 261 L950 261 L950 197 Z" /><glyph glyph-name="uni2F3C" unicode="&#x2f3c;&#x5fc3;" d="M785 512 Q931 327 973 143 L900 108 Q859 294 720 479 L785 512 ZM212 465 Q180 194 94 78 L27 119 Q115 233 140 479 L212 465 ZM361 832 Q548 769 703 667 L656 602 Q516 704 314 775 L361 832 ZM382 560 L382 60 Q382 26 394 15 Q407 5 448 5 L632 5 Q676 5 690 45 Q703 81 709 214 Q736 190 778 180 Q770 36 744 -12 Q715 -63 636 -63 L442 -63 Q363 -63 335 -37 Q307 -12 307 61 L307 560 L382 560 Z" /><glyph glyph-name="uni6001" unicode="&#x6001;" d="M57 -2 Q119 86 156 242 L222 220 Q174 42 124 -37 L57 -2 ZM644 13 Q684 13 695 33 Q706 53 711 130 Q735 112 778 102 Q770 8 746 -23 Q720 -54 649 -54 L417 -54 Q331 -54 301 -33 Q271 -13 271 47 L271 242 L344 242 L344 48 Q344 26 358 20 Q373 13 421 13 L644 13 ZM444 449 Q552 388 609 329 L542 286 Q495 342 382 410 L444 449 ZM468 300 Q579 200 629 132 L569 92 Q517 170 410 266 L468 300 ZM814 257 Q906 109 937 -6 L866 -31 Q836 91 748 236 L814 257 ZM580 627 Q688 403 955 343 Q924 312 905 274 Q617 353 503 627 Q419 358 90 270 Q75 305 49 332 Q345 406 425 627 L59 627 L59 697 L445 697 Q458 751 467 840 L543 840 Q535 765 522 697 L945 697 L945 627 L580 627 Z" /><glyph glyph-name="uni6027" unicode="&#x6027;" d="M31 392 Q69 485 83 648 L139 640 Q130 486 89 372 L31 392 ZM175 837 L249 837 L249 -76 L175 -76 L175 837 ZM308 677 Q360 583 381 510 L325 483 Q307 552 256 653 L308 677 ZM945 29 L945 -42 L335 -42 L335 29 L621 29 L621 279 L409 279 L409 348 L621 348 L621 555 L475 555 Q444 462 405 400 Q384 414 339 434 Q420 556 460 791 L532 779 Q516 696 496 626 L621 626 L621 833 L695 833 L695 626 L921 626 L921 555 L695 555 L695 348 L899 348 L899 279 L695 279 L695 29 L945 29 Z" /><glyph glyph-name="uni603B" unicode="&#x603b;" d="M735 565 L267 565 L267 390 L735 390 L735 565 ZM816 320 L189 320 L189 635 L361 635 Q330 714 260 803 L323 832 Q400 741 429 665 L368 635 L573 635 Q645 742 682 835 L758 804 Q700 703 655 635 L816 635 L816 320 ZM465 311 Q584 231 645 154 L591 106 Q525 193 413 269 L465 311 ZM47 12 Q107 84 141 226 L210 212 Q178 64 115 -21 L47 12 ZM648 2 Q685 2 696 20 Q706 37 711 103 Q742 83 781 76 Q773 -9 748 -37 Q723 -65 654 -65 L431 -65 Q343 -65 313 -44 Q284 -24 284 37 L284 242 L360 242 L360 37 Q360 15 374 8 Q387 2 435 2 L648 2 ZM813 248 Q920 127 954 30 L894 -7 Q859 92 756 215 L813 248 Z" /><glyph glyph-name="uni606F" unicode="&#x606f;" d="M738 696 L274 696 L274 615 L738 615 L738 696 ZM738 558 L274 558 L274 475 L738 475 L738 558 ZM738 419 L274 419 L274 336 L738 336 L738 419 ZM813 277 L202 277 L202 755 L434 755 Q455 807 466 847 L552 832 Q524 778 511 755 L813 755 L813 277 ZM458 264 Q564 195 611 124 L554 81 Q508 153 403 227 L458 264 ZM41 -1 Q125 63 166 199 L230 175 Q184 25 101 -43 L41 -1 ZM620 -4 Q652 -4 661 13 Q670 29 672 92 Q695 77 740 66 Q733 -16 710 -43 Q687 -70 625 -70 L431 -70 Q354 -70 327 -50 Q301 -31 301 27 L301 191 L374 191 L374 27 Q374 7 385 2 Q396 -4 436 -4 L620 -4 ZM782 209 Q915 98 965 -2 L902 -43 Q849 62 724 172 L782 209 Z" /><glyph glyph-name="uni6076" unicode="&#x6076;" d="M56 -5 Q120 86 157 241 L222 219 Q170 35 122 -39 L56 -5 ZM638 10 Q677 10 689 31 Q700 52 704 128 Q728 109 772 99 Q764 5 739 -26 Q714 -57 643 -57 L411 -57 Q325 -57 296 -36 Q266 -16 266 45 L266 239 L339 239 L339 45 Q339 23 353 17 Q366 10 414 10 L638 10 ZM555 93 Q510 184 401 287 L459 320 Q570 219 618 131 L555 93 ZM808 268 Q906 112 936 6 L865 -21 Q831 104 743 246 L808 268 ZM433 396 L562 396 L562 723 L433 723 L433 396 ZM936 396 L936 330 L64 330 L64 396 L363 396 L363 723 L108 723 L108 789 L902 789 L902 723 L634 723 L634 396 L936 396 ZM216 661 Q277 573 303 480 L236 456 Q215 545 153 640 L216 661 ZM683 475 Q742 566 780 665 L855 642 Q799 532 743 454 L683 475 Z" /><glyph glyph-name="uni60F3" unicode="&#x60f3;" d="M829 723 L581 723 L581 630 L829 630 L829 723 ZM829 572 L581 572 L581 478 L829 478 L829 572 ZM829 421 L581 421 L581 326 L829 326 L829 421 ZM900 265 L512 265 L512 784 L900 784 L900 265 ZM467 273 Q552 196 605 132 L551 88 Q509 143 415 235 L467 273 ZM50 9 Q103 80 144 212 L209 187 Q160 38 115 -24 L50 9 ZM240 255 L240 518 Q167 382 84 314 Q62 345 36 366 Q152 448 227 623 L58 623 L58 688 L240 688 L240 834 L311 834 L311 688 L469 688 L469 623 L311 623 L311 567 Q367 532 477 447 L437 387 Q395 427 311 498 L311 255 L240 255 ZM623 12 Q659 12 670 32 Q680 52 683 128 Q709 108 751 100 Q743 6 720 -24 Q695 -55 628 -55 L421 -55 Q340 -55 313 -35 Q285 -16 285 42 L285 201 L358 201 L358 43 Q358 23 370 18 Q383 12 426 12 L623 12 ZM829 232 Q918 95 949 32 L880 -2 Q855 54 765 203 L829 232 Z" /><glyph glyph-name="uni610F" unicode="&#x610f;" d="M343 710 Q374 658 386 611 L357 603 L635 603 L610 610 Q637 656 659 710 L343 710 ZM929 542 L76 542 L76 603 L313 603 Q300 651 271 702 L305 710 L121 710 L121 770 L462 770 L462 837 L535 837 L535 770 L878 770 L878 710 L700 710 L738 702 Q708 644 681 603 L929 603 L929 542 ZM747 436 L259 436 L259 377 L747 377 L747 436 ZM747 325 L259 325 L259 264 L747 264 L747 325 ZM819 208 L447 208 Q548 165 604 115 L558 68 Q499 124 392 171 L430 208 L188 208 L188 492 L819 492 L819 208 ZM46 -15 Q144 42 186 158 L249 135 Q194 0 103 -54 L46 -15 ZM608 -6 Q640 -6 649 11 Q658 28 662 95 Q678 83 725 70 Q720 -13 697 -40 Q675 -67 615 -67 L426 -67 Q351 -67 325 -49 Q299 -31 299 23 L299 151 L372 151 L372 23 Q372 5 383 0 Q394 -6 432 -6 L608 -6 ZM779 167 Q900 78 957 -10 L897 -47 Q844 40 722 132 L779 167 Z" /><glyph glyph-name="uni611F" unicode="&#x611f;" d="M43 -15 Q134 48 176 180 L240 158 Q192 6 104 -56 L43 -15 ZM540 555 L235 555 L235 607 L540 607 L540 555 ZM461 435 L314 435 L314 331 L461 331 L461 435 ZM520 278 L252 278 L252 487 L524 487 L524 281 Q594 327 652 396 Q590 516 562 674 L199 674 L199 586 Q199 330 90 196 Q73 222 36 242 Q131 358 131 587 L131 736 L553 736 Q547 785 544 837 L615 837 Q616 791 623 736 L805 736 Q753 773 678 799 L717 843 Q810 813 859 773 L828 736 L938 736 L938 674 L633 674 Q655 556 698 458 Q749 535 779 626 L848 610 Q807 489 734 390 Q800 283 863 283 Q896 284 903 409 Q927 387 961 376 Q952 284 929 249 Q907 216 859 216 Q769 216 689 333 Q637 272 571 225 Q547 254 517 276 L520 278 ZM426 261 Q540 208 597 146 L546 99 Q488 163 377 220 L426 261 ZM619 3 Q652 3 661 21 Q671 39 673 108 Q698 89 741 81 Q733 -7 711 -35 Q688 -64 625 -64 L431 -64 Q354 -64 327 -44 Q301 -25 301 32 L301 187 L375 187 L375 33 Q375 14 386 9 Q397 3 437 3 L619 3 ZM781 191 Q908 90 958 -9 L892 -45 Q849 52 720 158 L781 191 Z" /><glyph glyph-name="uni620F" unicode="&#x620f;" d="M843 649 Q802 708 706 788 L758 827 Q854 754 897 694 L843 649 ZM381 71 Q343 146 284 234 Q204 85 86 -3 Q62 34 32 58 Q154 141 237 307 Q157 429 65 553 L118 595 Q175 520 273 383 Q324 509 349 655 L56 655 L56 722 L369 722 L381 725 L429 709 Q399 482 323 311 Q405 190 441 124 L381 71 ZM896 443 Q835 282 723 149 Q772 18 844 11 Q879 8 894 171 Q915 147 955 131 Q929 -84 847 -79 Q734 -71 664 85 Q576 -3 489 -52 Q465 -19 430 3 Q534 53 637 159 Q597 285 573 496 L438 481 L429 549 L568 565 Q558 670 551 830 L627 830 Q632 692 642 574 L933 607 L942 539 L649 505 Q666 342 697 230 Q788 347 838 479 L896 443 Z" /><glyph glyph-name="uni6210" unicode="&#x6210;" d="M714 832 Q831 773 893 718 L847 667 Q783 726 670 787 L714 832 ZM887 498 Q822 302 711 160 Q770 5 845 5 Q882 5 892 190 Q922 160 956 150 Q946 23 921 -23 Q896 -69 839 -69 Q729 -69 656 95 Q565 -4 450 -71 Q423 -34 396 -12 Q530 60 626 173 Q574 337 553 594 L208 594 L208 464 L463 464 L463 432 Q456 129 431 98 Q412 73 371 69 Q331 66 252 69 Q250 108 231 139 Q289 134 337 134 Q360 134 367 145 Q385 164 390 395 L208 395 L208 387 Q208 68 103 -84 Q75 -52 41 -34 Q132 101 132 388 L132 667 L549 667 Q545 722 543 835 L620 835 Q620 739 624 667 L947 667 L947 594 L629 594 Q645 385 684 247 Q766 367 812 517 L887 498 Z" /><glyph glyph-name="uni6211" unicode="&#x6211;" d="M859 601 Q806 681 702 771 L759 810 Q866 720 919 644 L859 601 ZM895 399 Q828 273 721 164 Q782 -5 854 -5 Q891 -5 899 174 Q928 146 962 134 Q952 10 927 -34 Q903 -79 847 -79 Q736 -79 662 108 Q562 19 451 -39 Q431 -6 400 20 Q532 84 637 182 Q601 307 581 472 L346 472 L346 312 L525 351 L530 284 Q483 272 346 241 L346 19 Q346 -46 303 -63 Q267 -77 137 -77 Q130 -42 109 -2 Q196 -6 249 -3 Q273 -3 273 20 L273 223 L164 199 Q91 182 66 177 L45 252 Q99 261 273 297 L273 472 L59 472 L59 543 L273 543 L273 702 Q186 685 89 672 Q82 703 65 734 Q322 773 460 824 L513 763 Q439 737 346 717 L346 543 L575 543 Q563 668 561 828 L637 828 Q637 677 649 543 L943 543 L943 472 L657 472 Q672 345 698 244 Q778 330 829 426 L895 399 Z" /><glyph glyph-name="uni6216" unicode="&#x6216;" d="M859 678 Q801 734 690 787 L733 833 Q845 783 905 730 L859 678 ZM511 86 Q176 14 79 -8 L65 67 Q282 109 505 156 L511 86 ZM400 451 L197 451 L197 278 L400 278 L400 451 ZM473 516 L473 214 L128 214 L128 516 L473 516 ZM893 515 Q828 313 716 165 Q775 0 847 0 Q885 0 893 185 Q921 155 958 143 Q948 16 923 -31 Q898 -77 840 -77 Q732 -77 660 96 Q567 -6 449 -76 Q423 -43 391 -19 Q531 55 631 177 Q582 340 561 604 L70 604 L70 677 L557 677 Q554 729 552 834 L630 834 Q630 754 633 677 L933 677 L933 604 L638 604 Q654 395 690 255 Q772 379 819 533 L893 515 Z" /><glyph glyph-name="uni6218" unicode="&#x6218;" d="M865 619 Q832 686 763 768 L814 797 Q885 718 919 653 L865 619 ZM425 320 L152 320 L152 66 L425 66 L425 320 ZM308 388 L494 388 L494 -53 L425 -53 L425 -2 L152 -2 L152 -58 L85 -58 L85 388 L237 388 L237 831 L308 831 L308 643 L515 643 L515 577 L308 577 L308 388 ZM936 437 Q883 282 781 146 Q819 10 872 7 Q903 6 915 158 Q931 139 969 119 Q942 -79 873 -77 Q781 -73 728 83 Q645 -5 556 -56 Q534 -25 502 -3 Q610 49 705 159 Q674 279 655 472 L518 453 L508 516 L649 537 Q640 660 633 831 L703 831 Q706 688 717 547 L943 580 L953 516 L723 483 Q739 329 760 230 Q838 341 879 468 L936 437 Z" /><glyph glyph-name="uni2F3E" unicode="&#x2f3e;&#x6236;&#x6237;" d="M761 310 L761 510 L254 510 L254 422 Q254 363 250 310 L761 310 ZM835 578 L835 187 L761 187 L761 240 L242 240 Q209 39 99 -76 Q75 -40 42 -25 Q180 117 180 423 L180 744 L236 728 Q587 777 744 834 L806 779 Q611 715 254 668 L254 578 L835 578 Z" /><glyph glyph-name="uni2F3F" unicode="&#x2f3f;&#x624b;" d="M949 249 L539 249 L539 27 Q539 -43 486 -60 Q441 -75 280 -73 Q269 -34 248 1 Q362 -3 433 0 Q464 0 464 28 L464 249 L53 249 L53 322 L464 322 L464 484 L120 484 L120 555 L464 555 L464 709 Q329 694 138 685 Q133 716 119 751 Q598 773 795 835 L851 776 Q734 740 539 717 L539 555 L893 555 L893 484 L539 484 L539 322 L949 322 L949 249 Z" /><glyph glyph-name="uni6279" unicode="&#x6279;" d="M239 311 L239 10 Q239 -47 205 -63 Q173 -77 81 -76 Q74 -39 59 -8 Q132 -10 153 -8 Q170 -8 170 10 L170 289 L51 250 L32 322 Q65 331 170 363 L170 568 L45 568 L45 636 L170 636 L170 836 L239 836 L239 636 L346 636 L346 568 L239 568 L239 384 Q272 394 338 416 L348 347 L239 311 ZM467 45 L625 77 L631 11 Q571 -3 467 -26 L318 -59 L297 13 L395 31 L395 826 L467 826 L467 518 L622 518 L622 446 L467 446 L467 45 ZM863 3 Q880 3 887 32 Q892 59 895 148 Q919 128 960 116 Q955 13 937 -23 Q917 -64 867 -64 L757 -64 Q701 -64 681 -40 Q662 -16 662 53 L662 827 L734 827 L734 474 Q830 540 893 601 L946 548 Q833 458 734 401 L734 52 Q734 21 740 12 Q746 3 767 3 L863 3 Z" /><glyph glyph-name="uni627E" unicode="&#x627e;" d="M809 627 Q764 697 675 775 L730 812 Q827 729 868 670 L809 627 ZM264 300 L264 18 Q264 -40 228 -55 Q198 -69 92 -69 Q87 -35 69 0 Q93 -1 172 -1 Q192 -1 192 18 L192 278 Q165 269 123 257 L59 239 L37 311 Q78 320 192 352 L192 566 L49 566 L49 636 L192 636 L192 836 L264 836 L264 636 L386 636 L386 566 L264 566 L264 372 Q279 376 325 390 Q364 401 388 407 L397 339 L264 300 ZM887 427 Q822 287 711 168 Q769 23 852 14 Q890 11 905 177 Q928 151 968 136 Q938 -79 856 -72 Q727 -62 652 110 Q545 12 426 -42 Q400 -7 368 16 Q501 68 624 183 Q585 299 558 501 L405 485 L398 555 L551 571 Q537 715 532 833 L606 833 Q612 699 624 579 L930 610 L938 542 L632 509 Q651 362 684 246 Q775 347 826 464 L887 427 Z" /><glyph glyph-name="uni6280" unicode="&#x6280;" d="M374 332 L254 296 L254 13 Q254 -44 217 -61 Q187 -76 82 -74 Q77 -45 58 -6 Q140 -8 161 -6 Q181 -6 181 13 L181 274 L61 239 L40 312 Q107 327 181 348 L181 566 L53 566 L53 636 L181 636 L181 836 L254 836 L254 636 L365 636 L365 566 L254 566 L254 368 Q305 382 365 400 L374 332 ZM502 393 Q554 259 649 163 Q758 261 810 393 L502 393 ZM906 444 Q845 246 703 115 Q811 27 961 -14 Q935 -39 913 -78 Q756 -30 646 67 Q526 -24 362 -76 Q346 -37 322 -9 Q475 32 593 118 Q488 231 429 392 L432 393 L399 393 L399 462 L613 462 L613 611 L379 611 L379 680 L613 680 L613 837 L686 837 L686 680 L925 680 L925 611 L686 611 L686 462 L845 462 L857 465 L906 444 Z" /><glyph glyph-name="uni62DB" unicode="&#x62db;" d="M360 337 L241 298 L241 13 Q241 -44 206 -62 Q179 -77 80 -77 Q77 -45 58 -4 Q127 -7 151 -5 Q169 -5 169 13 L169 275 L51 237 L32 308 Q95 326 169 349 L169 567 L46 567 L46 636 L169 636 L169 836 L241 836 L241 636 L361 636 L361 567 L241 567 L241 371 L348 405 L360 337 ZM493 265 L493 40 L830 40 L830 265 L493 265 ZM421 332 L904 332 L904 -72 L830 -72 L830 -28 L493 -28 L493 -76 L421 -76 L421 332 ZM918 788 Q918 766 917 755 Q902 461 869 425 Q848 399 808 396 Q769 393 695 396 Q693 437 673 466 Q718 462 775 462 Q799 462 808 472 Q831 498 843 719 L636 719 Q601 459 405 369 Q390 403 360 427 Q530 499 562 719 L391 719 L391 788 L918 788 Z" /><glyph glyph-name="uni62E5" unicode="&#x62e5;" d="M241 298 L241 16 Q241 -40 207 -58 Q176 -73 81 -72 Q78 -40 59 -1 Q102 -2 153 -2 Q171 -2 171 17 L171 276 L51 237 L32 309 Q147 342 171 350 L171 567 L46 567 L46 636 L171 636 L171 836 L241 836 L241 636 L353 636 L353 567 L241 567 L241 371 L344 404 L354 335 L241 298 ZM856 310 L856 471 L693 471 L693 310 L856 310 ZM624 310 L624 471 L465 471 L465 410 Q465 363 462 310 L624 310 ZM465 701 L465 538 L624 538 L624 701 L465 701 ZM856 701 L693 701 L693 538 L856 538 L856 701 ZM927 14 Q927 -43 892 -61 Q863 -74 754 -74 Q749 -41 732 -4 Q809 -7 837 -5 Q856 -5 856 14 L856 243 L693 243 L693 -57 L624 -57 L624 243 L456 243 Q434 38 343 -77 Q318 -48 286 -31 Q394 104 394 410 L394 769 L927 769 L927 14 Z" /><glyph glyph-name="uni6301" unicode="&#x6301;" d="M351 334 L242 299 L242 13 Q242 -44 208 -60 Q178 -75 84 -74 Q78 -38 62 -4 Q131 -7 155 -5 Q173 -5 173 13 L173 276 Q117 257 50 237 L31 308 Q83 323 173 351 L173 567 L45 567 L45 636 L173 636 L173 836 L242 836 L242 636 L348 636 L348 567 L242 567 L242 371 L341 402 L351 334 ZM505 238 Q585 143 619 66 L557 29 Q524 112 448 204 L505 238 ZM827 444 L827 334 L950 334 L950 266 L827 266 L827 14 Q827 -49 789 -63 Q757 -76 637 -76 Q632 -43 614 -4 Q705 -7 738 -5 Q757 -4 757 14 L757 266 L374 266 L374 334 L757 334 L757 444 L362 444 L362 513 L625 513 L625 640 L413 640 L413 708 L625 708 L625 832 L696 832 L696 708 L909 708 L909 640 L696 640 L696 513 L957 513 L957 444 L827 444 Z" /><glyph glyph-name="uni6307" unicode="&#x6307;" d="M391 340 L259 299 L259 11 Q259 -46 223 -63 Q193 -78 91 -76 Q86 -41 68 -8 Q146 -10 167 -8 Q186 -8 186 11 L186 277 Q84 247 56 238 L35 310 Q109 329 186 351 L186 566 L47 566 L47 635 L186 635 L186 836 L259 836 L259 635 L376 635 L376 566 L259 566 L259 373 Q330 393 382 409 L391 340 ZM512 296 L512 197 L836 197 L836 296 L512 296 ZM836 31 L836 136 L512 136 L512 31 L836 31 ZM441 360 L909 360 L909 -72 L836 -72 L836 -30 L512 -30 L512 -76 L441 -76 L441 360 ZM814 511 Q855 511 867 533 Q879 555 884 636 Q907 618 952 607 Q944 508 919 476 Q892 443 819 443 L586 443 Q500 443 471 465 Q441 487 441 551 L441 833 L514 833 L514 684 Q724 728 834 777 L891 722 Q761 670 514 623 L514 551 Q514 526 528 518 Q542 511 590 511 L814 511 Z" /><glyph glyph-name="uni6311" unicode="&#x6311;" d="M941 690 Q852 531 811 474 L758 503 Q824 599 874 724 L941 690 ZM439 472 Q418 566 341 684 L396 713 Q469 609 500 505 L439 472 ZM344 348 L240 307 L240 10 Q240 -46 205 -63 Q175 -78 81 -77 Q75 -42 59 -8 Q134 -10 153 -8 Q170 -8 170 10 L170 281 L51 237 L32 308 L170 356 L170 567 L45 567 L45 636 L170 636 L170 836 L240 836 L240 636 L338 636 L338 567 L240 567 L240 381 L330 414 L344 348 ZM505 829 L575 829 L575 391 Q575 219 535 124 Q482 -1 340 -75 Q320 -44 289 -21 Q478 74 500 284 Q442 239 341 165 L301 227 Q361 263 505 362 L505 829 ZM868 2 Q886 2 892 31 Q898 58 900 145 Q927 123 964 114 Q959 12 941 -25 Q921 -65 872 -65 L768 -65 Q714 -65 695 -41 Q676 -18 676 51 L676 829 L747 829 L747 386 L766 404 Q888 306 961 221 L912 168 Q840 253 747 336 L747 50 Q747 19 753 11 Q758 2 777 2 L868 2 Z" /><glyph glyph-name="uni638C" unicode="&#x638c;" d="M153 506 L83 506 L83 704 L251 704 Q217 764 180 805 L245 831 Q296 774 323 726 L276 704 L461 704 L461 837 L536 837 L536 704 L719 704 L675 722 Q727 780 759 831 L833 805 Q788 751 739 704 L922 704 L922 506 L849 506 L849 641 L153 641 L153 506 ZM295 450 L708 450 L708 529 L295 529 L295 450 ZM226 399 L226 580 L781 580 L781 399 L226 399 ZM941 62 L535 62 L535 -1 Q535 -55 491 -68 Q457 -78 312 -78 Q307 -55 286 -19 Q400 -22 438 -20 Q462 -19 462 0 L462 62 L61 62 L61 116 L462 116 L462 183 L118 183 L118 236 L462 236 L462 297 Q302 289 165 289 Q165 313 151 339 Q566 343 779 379 L826 332 Q717 313 535 301 L535 236 L888 236 L888 183 L535 183 L535 116 L941 116 L941 62 Z" /><glyph glyph-name="uni63A8" unicode="&#x63a8;" d="M359 332 L254 299 L254 14 Q254 -44 220 -62 Q189 -77 88 -75 Q81 -34 66 -4 Q137 -7 165 -5 Q182 -5 182 14 L182 277 L48 236 L31 308 Q87 322 182 350 L182 568 L48 568 L48 636 L182 636 L182 836 L254 836 L254 636 L351 636 L351 568 L254 568 L254 371 L350 399 L359 332 ZM505 44 L668 44 L668 183 L505 183 L505 44 ZM668 582 L505 582 L505 448 L668 448 L668 582 ZM668 384 L505 384 L505 248 L668 248 L668 384 ZM957 -24 L505 -24 L505 -75 L434 -75 L434 502 Q400 450 360 407 Q336 443 310 469 Q441 601 508 838 L579 820 Q551 728 515 649 L668 649 Q710 742 736 834 L814 816 Q782 737 741 649 L940 649 L940 582 L736 582 L736 448 L916 448 L916 384 L736 384 L736 248 L916 248 L916 183 L736 183 L736 44 L957 44 L957 -24 Z" /><glyph glyph-name="uni63D0" unicode="&#x63d0;" d="M809 747 L479 747 L479 668 L809 668 L809 747 ZM809 616 L479 616 L479 536 L809 536 L809 616 ZM880 479 L411 479 L411 803 L880 803 L880 479 ZM346 333 L236 296 L236 16 Q236 -40 202 -56 Q172 -71 78 -70 Q72 -35 56 -1 Q99 -2 149 -2 Q167 -2 167 17 L167 274 Q124 259 51 237 L33 309 Q76 319 167 348 L167 567 L44 567 L44 636 L167 636 L167 835 L236 835 L236 636 L346 636 L346 567 L236 567 L236 370 L337 401 L346 333 ZM679 10 Q723 4 773 4 Q933 4 966 5 Q951 -20 944 -61 L770 -61 Q650 -61 583 -30 Q502 8 456 106 Q413 -8 336 -77 Q313 -52 281 -32 Q405 65 430 298 L499 290 Q490 223 479 183 Q519 67 609 29 L609 345 L365 345 L365 408 L935 408 L935 345 L679 345 L679 228 L886 228 L886 167 L679 167 L679 10 Z" /><glyph glyph-name="uni63D2" unicode="&#x63d2;" d="M348 347 L239 311 L239 10 Q239 -47 205 -63 Q173 -77 81 -76 Q74 -39 59 -8 Q132 -10 153 -8 Q170 -8 170 10 L170 289 L51 250 L32 322 Q65 331 170 363 L170 568 L45 568 L45 636 L170 636 L170 836 L239 836 L239 636 L346 636 L346 568 L239 568 L239 384 Q272 394 338 416 L348 347 ZM855 44 L855 192 L727 192 L727 257 L855 257 L855 379 L723 379 L723 443 L922 443 L922 -70 L855 -70 L855 -21 L445 -21 L445 -74 L377 -74 L377 443 L430 426 Q506 453 548 480 L608 428 Q540 395 445 369 L445 257 L573 257 L573 192 L445 192 L445 44 L615 44 L615 546 L356 546 L356 613 L615 613 L615 713 Q511 702 390 697 Q387 721 372 756 Q716 778 867 816 L915 759 Q822 736 683 720 L683 613 L948 613 L948 546 L683 546 L683 44 L855 44 Z" /><glyph glyph-name="uni63E1" unicode="&#x63e1;" d="M239 311 L239 10 Q239 -47 205 -63 Q173 -77 81 -76 Q74 -39 59 -8 Q132 -10 153 -8 Q170 -8 170 10 L170 289 L51 250 L32 322 Q65 331 170 363 L170 568 L45 568 L45 636 L170 636 L170 836 L239 836 L239 636 L346 636 L346 568 L239 568 L239 384 Q272 394 338 416 L348 347 L239 311 ZM451 729 L451 623 L854 623 L854 729 L451 729 ZM958 12 L958 -47 L413 -47 L413 12 L648 12 L648 115 L465 115 L465 173 L648 173 L648 263 L459 255 L452 316 L535 318 Q561 367 587 433 L450 433 Q442 100 338 -71 Q316 -47 282 -29 Q384 138 384 500 L384 792 L924 792 L924 562 L451 562 L451 494 L942 494 L942 433 L658 433 Q622 359 599 320 L706 323 Q803 326 820 326 Q789 358 752 392 L799 420 Q903 333 953 258 L903 227 Q884 254 866 274 L791 270 Q740 268 715 266 L715 173 L905 173 L905 115 L715 115 L715 12 L958 12 Z" /><glyph glyph-name="uni6539" unicode="&#x6539;" d="M581 582 Q619 387 695 249 Q769 377 803 584 L582 584 L581 582 ZM878 584 Q835 331 737 180 Q830 48 970 -12 Q940 -38 918 -75 Q783 -12 690 117 Q585 -8 406 -80 Q391 -48 361 -14 Q546 52 648 181 Q578 304 534 480 Q499 416 464 373 Q440 391 410 411 L410 378 L338 378 L338 416 L144 416 L144 167 Q144 143 153 137 Q162 130 193 130 L334 130 Q362 130 370 151 Q378 171 380 247 Q403 228 447 218 Q440 123 419 92 Q398 60 340 60 L186 60 Q119 60 97 81 Q73 103 73 166 L73 484 L338 484 L338 680 L73 680 L73 749 L410 749 L410 433 Q526 575 576 836 L653 822 Q635 734 608 655 L959 655 L959 584 L878 584 Z" /><glyph glyph-name="uni6548" unicode="&#x6548;" d="M544 634 L47 634 L47 702 L256 702 L256 833 L328 833 L328 702 L544 702 L544 634 ZM453 413 Q420 485 345 571 L401 602 Q480 517 512 449 L453 413 ZM237 583 Q183 454 96 363 Q69 387 38 406 Q118 482 168 601 L237 583 ZM416 21 Q382 78 315 154 Q229 14 101 -77 Q75 -44 46 -20 Q178 64 264 210 Q199 278 125 342 L179 385 Q251 325 299 276 Q330 341 354 422 L427 405 Q397 305 354 221 Q437 133 475 71 L416 21 ZM646 572 Q674 395 731 261 Q791 384 819 582 L649 582 L646 572 ZM893 582 Q856 333 770 182 Q847 46 962 -16 Q930 -41 911 -77 Q803 -13 727 115 Q637 -6 495 -78 Q475 -38 452 -15 Q603 56 689 186 Q637 298 602 454 Q571 387 536 335 Q509 366 477 386 Q585 532 634 837 L707 826 Q688 724 669 652 L957 652 L957 582 L893 582 Z" /><glyph glyph-name="uni6559" unicode="&#x6559;" d="M643 581 Q674 397 730 266 Q789 389 817 582 L643 581 ZM344 570 Q380 617 410 669 L285 669 L285 570 L344 570 ZM894 582 Q855 330 771 183 Q849 46 965 -14 Q931 -40 913 -77 Q802 -12 726 114 Q638 -3 493 -79 Q473 -37 449 -13 Q600 58 686 188 Q630 307 596 465 Q567 401 528 348 Q506 372 475 394 Q412 317 326 256 L326 215 L530 236 L530 172 L326 149 L326 3 Q326 -51 291 -65 Q260 -76 157 -76 Q152 -41 133 -11 Q183 -12 239 -12 Q256 -11 256 3 L256 142 Q194 135 49 120 L40 187 Q46 187 256 208 L256 297 L289 297 Q330 327 371 371 L256 371 Q174 298 78 243 Q63 264 25 299 Q87 331 142 371 L126 371 L126 430 L215 430 Q246 457 290 504 L45 504 L45 570 L217 570 L217 669 L85 669 L85 732 L217 732 L217 837 L285 837 L285 732 L410 732 L410 670 Q449 738 479 814 L549 794 Q500 673 430 570 L526 570 L526 504 L381 504 Q353 469 317 430 L426 430 L439 434 L475 408 Q582 555 630 837 L705 825 Q687 726 665 652 L957 652 L957 582 L894 582 Z" /><glyph glyph-name="uni2F42" unicode="&#x2f42;&#x6587;" d="M283 595 Q359 388 498 246 Q635 384 711 595 L283 595 ZM797 595 Q708 349 555 194 Q724 52 961 -4 Q931 -33 908 -76 Q663 -13 495 138 Q337 3 89 -77 Q75 -41 42 -6 Q283 64 439 192 Q288 351 201 595 L54 595 L54 668 L461 668 L461 837 L536 837 L536 668 L951 668 L951 595 L797 595 Z" /><glyph glyph-name="uni65AD" unicode="&#x65ad;" d="M523 752 Q469 619 446 576 L401 593 Q440 678 463 770 L523 752 ZM232 578 Q227 657 189 752 L238 768 Q277 676 284 596 L232 578 ZM320 374 Q258 242 191 179 Q180 205 159 239 Q250 322 310 473 L177 473 L177 537 L320 537 L320 829 L382 829 L382 537 L523 537 L523 473 L382 473 L382 435 Q436 390 519 311 L476 259 Q452 293 382 369 L382 124 L320 124 L320 374 ZM965 433 L853 433 L853 -76 L783 -76 L783 433 L634 433 L634 403 Q634 72 486 -85 Q468 -52 433 -34 Q462 -4 486 35 L150 35 L150 -40 L84 -40 L84 801 L150 801 L150 101 L513 101 L513 88 Q564 205 564 404 L564 752 L617 735 Q803 778 889 820 L949 767 Q839 716 634 675 L634 503 L965 503 L965 433 Z" /></font>
</defs>
</svg>
