<?xml version="1.0" standalone="no"?><!DOCTYPE svg PUBLIC "-//W3C//DTD SVG 1.1//EN" "http://www.w3.org/Graphics/SVG/1.1/DTD/svg11.dtd" ><svg xmlns="http://www.w3.org/2000/svg"><metadata></metadata><defs><font id="fonteditor" horiz-adv-x="1134"><font-face font-family="g,X¨m%Ñ" font-weight="400" font-stretch="normal" units-per-em="1000" panose-1="2 0 0 0 0 0 0 0 0 0" ascent="880" descent="-120" x-height="0" bbox="-18 -346 1113 873" underline-thickness="0" underline-position="0" unicode-range="U+0023-ff1a" /><missing-glyph horiz-adv-x="244"  /><glyph glyph-name="numbersign" unicode="#" d="M619 485 L571 485 L544 246 L564 246 L593 263 L615 137 L578 116 L529 116 L507 -77 L318 -77 L340 116 L269 116 L247 -77 L58 -77 L80 116 L55 116 L18 137 L40 263 L69 246 L95 246 L122 485 L95 485 L59 506 L81 632 L110 615 L137 615 L156 785 L345 785 L326 615 L397 615 L416 785 L605 785 L586 615 L605 615 L634 632 L656 506 L619 485 ZM355 246 L382 485 L311 485 L284 246 L355 246 Z" /><glyph glyph-name="percent" unicode="%" d="M633 786 L848 786 L400 -78 L185 -78 L633 786 ZM206 408 Q145 408 103 450 Q60 493 60 554 L60 641 Q60 703 103 744 Q144 787 206 787 L327 787 Q389 787 430 744 Q473 703 473 641 L473 554 Q473 493 430 450 Q388 408 327 408 L206 408 ZM216 564 Q216 549 227 540 Q236 529 251 529 L284 529 Q298 529 309 540 Q319 549 319 564 L319 630 Q319 645 309 655 Q299 665 284 665 L251 665 Q236 665 227 655 Q216 644 216 630 L216 564 ZM930 259 Q972 217 972 156 L972 69 Q972 9 930 -35 Q886 -77 826 -77 L705 -77 Q646 -77 602 -35 Q559 8 559 69 L559 156 Q559 218 602 259 Q645 302 705 302 L826 302 Q887 302 930 259 ZM818 145 Q818 160 808 170 Q799 180 783 180 L751 180 Q736 180 726 170 Q716 160 716 145 L716 79 Q716 64 726 55 Q736 45 751 45 L783 45 Q799 45 808 55 Q818 64 818 79 L818 145 Z" /><glyph glyph-name="parenleft" unicode="(" d="M397 787 Q244 626 244 352 Q244 83 394 -79 L177 -79 Q141 -25 114 38 Q52 183 52 352 Q52 522 114 667 Q140 730 179 787 L397 787 Z" /><glyph glyph-name="parenright" unicode=")" d="M335 670 Q397 525 397 355 Q397 186 335 41 Q310 -19 271 -79 L52 -79 Q205 82 205 355 Q205 625 55 787 L273 787 Q309 731 335 670 Z" /><glyph glyph-name="plus" unicode="+" d="M559 302 L523 281 L416 281 L416 101 L196 101 L196 281 L90 281 L54 302 L76 427 L105 410 L196 410 L196 599 L416 599 L416 410 L508 410 L537 427 L559 302 Z" /><glyph glyph-name="hyphen" unicode="-" d="M467 427 L489 302 L452 281 L74 281 L37 302 L59 427 L89 410 L438 410 L467 427 Z" /><glyph glyph-name="period" unicode="." d="M69 151 L269 151 L269 -39 L69 -39 L69 151 Z" /><glyph glyph-name="zero" unicode="0" d="M467 785 Q553 785 613 725 Q673 665 673 579 L673 129 Q673 44 613 -16 Q552 -77 467 -77 L266 -77 Q181 -77 120 -16 Q60 44 60 129 L60 579 Q60 665 120 725 Q181 785 266 785 L467 785 ZM463 549 Q463 594 437 624 Q410 655 367 655 Q324 655 296 624 Q270 594 270 549 L270 159 Q270 114 296 84 Q324 53 367 53 Q410 53 437 84 Q463 114 463 159 L463 549 Z" /><glyph glyph-name="one" unicode="1" d="M304 787 L304 -82 L84 -82 L84 658 L58 658 L21 679 L43 804 L72 787 L304 787 Z" /><glyph glyph-name="two" unicode="2" d="M600 69 L622 -57 L585 -78 L50 -78 L50 255 Q50 334 96 379 Q141 425 220 425 L309 425 Q360 425 375 442 Q390 457 390 497 L390 569 Q390 618 372 636 Q354 655 310 655 L68 655 L32 676 L54 802 L83 785 L420 785 Q507 785 554 735 Q600 688 600 599 L600 466 Q600 384 556 341 Q509 294 419 294 L330 294 Q292 294 276 278 Q260 260 260 224 L260 52 L571 52 L600 69 Z" /><glyph glyph-name="three" unicode="3" d="M558 348 Q612 291 612 208 L612 111 Q612 22 565 -27 Q516 -78 424 -78 L75 -78 L38 -57 L60 69 L90 52 L303 52 Q353 52 372 72 Q392 92 392 144 L392 191 Q392 236 365 265 Q332 300 270 300 L90 300 L54 321 L76 446 L105 429 L260 429 Q322 429 355 464 Q382 493 382 538 L382 563 Q382 613 362 635 Q342 655 293 655 L75 655 L38 676 L60 802 L90 785 L414 785 Q499 785 547 734 Q602 679 602 596 L602 523 Q602 440 548 383 L534 369 Q549 359 558 348 Z" /><glyph glyph-name="four" unicode="4" d="M659 177 L622 156 L587 156 L587 -82 L377 -82 L377 156 L28 156 L165 787 L370 787 L261 286 L377 286 L377 787 L587 787 L587 286 L608 286 L637 303 L659 177 Z" /><glyph glyph-name="five" unicode="5" d="M572 412 Q627 362 627 277 L627 110 Q627 26 571 -25 Q512 -78 413 -78 L70 -78 L33 -57 L55 69 L85 52 L293 52 Q348 52 379 78 Q407 100 407 144 L407 245 Q407 331 318 331 L54 331 L54 631 L274 631 L274 461 L438 461 Q520 461 572 412 ZM609 655 L75 655 L38 676 L60 801 L90 784 L595 784 L624 801 L646 676 L609 655 Z" /><glyph glyph-name="six" unicode="6" d="M488 440 Q571 440 618 392 Q665 343 665 257 L665 103 Q665 18 615 -29 Q563 -78 464 -78 L220 -78 Q129 -78 82 -28 Q41 16 41 98 L41 583 Q41 674 100 728 Q160 785 259 785 L614 785 L643 802 L665 676 L629 655 L369 655 Q251 655 251 553 L251 440 L488 440 ZM454 227 Q454 273 436 292 Q418 311 378 311 L251 311 L251 137 Q251 93 265 75 Q283 52 330 52 L353 52 Q414 52 435 73 Q454 91 454 132 L454 227 Z" /><glyph glyph-name="seven" unicode="7" d="M563 785 L563 707 Q434 350 346 -83 L115 -83 Q200 336 309 655 L45 655 L8 676 L30 802 L59 785 L563 785 Z" /><glyph glyph-name="eight" unicode="8" d="M669 366 Q728 312 728 225 L728 86 Q728 19 680 -30 Q632 -78 564 -78 L200 -78 Q133 -78 85 -30 Q37 18 37 86 L37 225 Q37 312 96 366 Q106 376 116 383 Q66 436 66 515 L66 624 Q66 692 114 739 Q162 787 229 787 L535 787 Q603 787 651 739 Q699 692 699 624 L699 515 Q699 437 648 383 Q655 378 669 366 ZM276 515 Q276 470 309 442 Q338 418 372 418 L393 418 Q427 418 456 442 Q489 470 489 515 L489 624 Q489 650 470 669 Q451 687 425 687 L339 687 Q313 687 294 669 Q276 650 276 624 L276 515 ZM518 225 Q518 267 491 293 Q465 318 422 318 L343 318 Q300 318 273 293 Q247 267 247 225 L247 86 Q247 60 265 41 Q284 22 310 22 L454 22 Q480 22 499 41 Q518 60 518 86 L518 225 Z" /><glyph glyph-name="nine" unicode="9" d="M622 735 Q663 691 663 610 L663 124 Q663 35 604 -21 Q545 -77 445 -77 L79 -77 L42 -56 L64 69 L94 52 L335 52 Q453 52 453 154 L453 267 L216 267 Q133 267 86 316 Q39 365 39 451 L39 605 Q39 690 89 737 Q142 785 240 785 L484 785 Q576 785 622 735 ZM453 396 L453 570 Q453 614 439 633 Q422 656 374 656 L351 656 Q291 656 269 634 Q250 618 250 575 L250 480 Q250 435 268 415 Q287 396 326 396 L453 396 Z" /><glyph glyph-name="colon" unicode=":" d="M72 -17 L72 173 L272 173 L272 -17 L72 -17 ZM72 584 L272 584 L272 394 L72 394 L72 584 Z" /><glyph glyph-name="at" unicode="@" d="M474 249 Q464 193 514 193 L520 193 Q601 193 616 266 L657 478 L803 478 L746 180 L802 180 Q846 180 858 227 L919 554 Q930 611 892 655 Q855 700 796 700 L492 700 Q421 700 367 655 Q313 609 301 540 L226 154 Q215 98 253 52 Q291 8 349 8 L1025 8 L1046 20 L1062 -70 L1036 -86 L278 -86 Q177 -86 110 -8 Q44 72 63 171 L138 557 Q157 659 236 726 Q316 794 421 794 L855 794 Q957 794 1022 716 Q1087 638 1070 537 L1008 210 Q998 156 957 122 Q916 87 861 87 L719 87 Q680 87 657 116 Q655 118 651 124 Q607 99 547 99 L474 99 Q406 99 365 149 Q323 198 336 266 L373 446 Q384 509 435 552 Q488 596 551 596 L799 596 L821 608 L837 518 L810 502 L592 502 Q564 500 542 481 Q516 459 511 429 L474 249 Z" /><glyph glyph-name="A" unicode="a" d="M617 -77 L550 113 L275 113 L209 -77 L-10 -77 L306 791 L518 791 L836 -77 L617 -77 ZM320 243 L504 243 L412 507 L320 243 Z" /><glyph glyph-name="B" unicode="b" d="M667 358 Q721 302 721 216 L721 105 Q721 30 667 -24 Q614 -77 538 -77 L56 -77 L56 632 L266 632 L266 431 L393 431 Q427 431 450 448 Q468 460 468 479 L468 594 Q468 621 450 637 Q434 655 407 655 L83 655 L46 676 L68 801 L97 784 L517 784 Q582 784 631 737 Q678 690 678 624 L678 466 Q678 416 645 378 Q653 372 667 358 ZM511 199 Q511 239 491 265 Q463 301 393 301 L266 301 L266 53 L428 53 Q463 53 487 77 Q511 101 511 135 L511 199 Z" /><glyph glyph-name="C" unicode="c" d="M610 52 L639 69 L661 -56 L624 -77 L268 -77 Q173 -77 105 -10 Q37 58 37 153 L37 554 Q37 649 105 717 Q173 785 268 785 L610 785 L639 801 L661 676 L624 655 L372 655 Q320 653 284 615 Q247 576 247 524 L247 183 Q247 129 286 91 Q324 53 378 52 L610 52 Z" /><glyph glyph-name="D" unicode="d" d="M493 785 Q588 785 656 717 Q723 649 723 554 L723 153 Q723 58 656 -10 Q588 -77 493 -77 L64 -77 L64 632 L274 632 L274 52 L383 52 Q437 52 475 91 Q513 129 513 183 L513 524 Q513 578 475 617 Q437 655 383 655 L87 655 L50 676 L72 801 L101 784 L493 785 Z" /><glyph glyph-name="E" unicode="e" d="M627 52 L656 69 L678 -56 L641 -77 L53 -77 L53 632 L268 632 L268 418 L619 418 L648 435 L670 310 L634 289 L268 289 L268 52 L627 52 ZM641 655 L74 655 L38 676 L60 801 L89 784 L627 784 L656 801 L678 676 L641 655 Z" /><glyph glyph-name="G" unicode="g" d="M767 418 L767 136 Q767 48 704 -14 Q641 -77 553 -77 L284 -77 Q189 -77 121 -10 Q53 58 53 153 L53 554 Q53 649 121 717 Q189 785 284 785 L708 784 L737 801 L759 676 L723 655 L394 655 Q340 655 302 617 Q263 578 263 524 L263 183 Q263 129 302 91 Q340 52 394 52 L443 52 Q490 52 524 85 Q557 119 557 166 L557 289 L423 289 L386 310 L408 435 L437 418 L767 418 Z" /><glyph glyph-name="I" unicode="i" d="M48 790 L268 790 L268 -82 L48 -82 L48 790 Z" /><glyph glyph-name="L" unicode="l" d="M573 69 L595 -56 L559 -77 L51 -77 L51 785 L271 785 L271 52 L544 52 L573 69 Z" /><glyph glyph-name="M" unicode="m" d="M758 793 L917 793 L917 -85 L717 -85 L717 328 L557 -77 L423 -77 L262 328 L262 -85 L62 -85 L62 793 L229 793 L460 269 L490 187 L522 271 L758 793 Z" /><glyph glyph-name="N" unicode="n" d="M553 790 L763 790 L763 -84 L627 -84 L272 384 L272 -84 L62 -84 L62 786 L198 786 L553 309 L553 790 Z" /><glyph glyph-name="O" unicode="o" d="M735 714 Q806 645 806 544 L806 164 Q806 64 735 -7 Q665 -77 565 -77 L302 -77 Q203 -77 131 -7 Q61 65 61 164 L61 544 Q61 644 131 714 Q202 785 302 785 L565 785 Q666 785 735 714 ZM596 514 Q596 572 554 614 Q513 655 455 655 L412 655 Q354 655 312 614 Q271 573 271 514 L271 194 Q271 136 312 94 Q354 53 412 53 L455 53 Q513 53 554 94 Q596 136 596 194 L596 514 Z" /><glyph glyph-name="P" unicode="p" d="M508 785 Q596 785 658 722 Q721 660 721 572 L721 404 Q721 316 658 254 Q596 191 508 191 L283 191 L283 -77 L73 -77 L73 632 L283 632 L283 321 L398 321 Q445 321 478 354 Q511 387 511 434 L511 542 Q511 589 478 622 Q445 655 398 655 L95 655 L59 676 L81 802 L110 785 L508 785 Z" /><glyph glyph-name="R" unicode="r" d="M532 -82 L430 219 L281 219 L281 -82 L71 -82 L71 632 L281 632 L281 348 L413 348 Q460 348 493 381 Q526 415 526 461 L526 542 Q526 589 493 622 Q460 655 413 655 L93 655 L57 676 L79 802 L108 785 L523 785 Q611 785 674 722 Q736 660 736 572 L736 432 Q736 312 633 249 L748 -82 L532 -82 Z" /><glyph glyph-name="S" unicode="s" d="M483 421 Q573 421 640 358 Q709 295 709 208 L709 135 Q709 47 646 -15 Q584 -78 496 -78 L108 -78 L71 -57 L93 69 L123 52 L386 52 Q433 52 466 85 Q499 119 499 165 L499 178 Q499 225 466 258 Q433 291 386 291 L277 291 Q188 291 118 354 Q47 418 47 505 L47 572 Q47 661 109 723 Q172 785 260 785 L640 785 L669 802 L691 677 L655 656 L370 656 Q324 656 290 623 Q257 590 257 543 L257 534 Q257 488 290 454 Q324 421 370 421 L483 421 Z" /><glyph glyph-name="T" unicode="t" d="M227 -82 L227 632 L447 632 L447 -82 L227 -82 ZM635 801 L657 676 L621 655 L54 655 L17 676 L39 801 L68 784 L606 784 L635 801 Z" /><glyph glyph-name="W" unicode="w" d="M908 792 L1113 792 L886 -80 L717 -80 L550 451 L547 464 L545 451 L378 -80 L209 -80 L-18 792 L187 792 L285 346 L296 269 L315 345 L462 785 L632 785 L780 345 L799 269 L810 346 L908 792 Z" /><glyph glyph-name="a" unicode="a" d="M591 137 Q591 18 649 -53 L457 -94 Q445 -84 430 -58 Q388 -77 328 -77 L193 -77 Q130 -77 89 -39 Q42 4 42 78 L42 165 Q42 232 87 275 Q131 316 192 316 L380 316 Q378 354 361 373 Q343 393 307 393 L84 393 L47 414 L69 540 L98 523 L417 523 Q495 523 542 473 Q591 422 591 337 L591 137 ZM328 53 Q360 53 387 63 Q381 96 381 137 L381 186 L302 186 Q252 186 252 135 L252 108 Q252 53 303 53 L328 53 Z" /><glyph glyph-name="c" unicode="c" d="M505 51 L534 68 L556 -58 L519 -79 L257 -79 Q165 -79 102 -14 Q37 49 37 141 L37 289 Q37 385 106 454 Q172 521 267 523 L505 523 L534 540 L556 414 L519 393 L382 393 Q327 393 288 354 Q248 316 248 259 L248 170 Q248 123 283 86 Q320 51 367 51 L505 51 Z" /><glyph glyph-name="d" unicode="d" d="M384 790 L594 790 L594 -79 L258 -79 Q166 -79 103 -14 Q38 49 38 141 L38 289 Q38 385 107 454 Q174 523 272 523 L384 523 L384 790 ZM384 51 L384 393 L356 393 Q249 393 249 287 L249 146 Q249 100 266 79 Q289 51 349 51 L384 51 Z" /><glyph glyph-name="e" unicode="e" d="M624 146 L247 146 Q263 52 352 52 L563 51 L592 68 L614 -58 L577 -79 L250 -79 Q157 -79 95 -12 Q35 52 35 141 L35 261 Q35 395 112 464 Q181 525 298 525 L360 525 Q479 525 547 467 Q623 402 624 273 L624 146 ZM330 364 Q298 364 275 340 Q250 314 246 273 L414 273 Q406 364 330 364 Z" /><glyph glyph-name="h" unicode="h" d="M535 454 Q603 386 603 289 L603 -82 L393 -82 L393 287 Q393 393 286 393 L258 393 L258 -82 L48 -82 L48 790 L258 790 L258 523 L369 523 Q468 523 535 454 Z" /><glyph glyph-name="i" unicode="i" d="M203 561 Q154 561 120 596 Q85 630 85 679 Q85 728 120 762 Q154 796 203 796 Q252 796 286 762 Q320 728 320 679 Q320 630 286 596 Q252 561 203 561 ZM313 519 L313 -82 L93 -82 L93 519 L313 519 Z" /><glyph glyph-name="k" unicode="k" d="M626 525 L429 295 L619 -82 L417 -82 L305 150 L274 114 L274 -82 L64 -82 L64 790 L274 790 L274 374 L402 525 L626 525 Z" /><glyph glyph-name="l" unicode="l" d="M93 790 L313 790 L313 -82 L93 -82 L93 790 Z" /><glyph glyph-name="m" unicode="m" d="M58 -80 L58 370 L258 370 L258 -80 L58 -80 ZM885 471 Q935 421 935 333 L935 -80 L735 -80 L735 303 Q735 393 670 393 L660 393 Q594 393 594 285 L594 -80 L399 -80 L399 303 Q399 355 380 374 Q361 393 321 393 L82 393 L45 414 L67 540 L97 523 L364 523 Q448 523 505 471 Q559 523 636 523 L746 523 Q835 523 885 471 Z" /><glyph glyph-name="n" unicode="n" d="M419 523 Q499 523 547 469 Q593 418 593 341 L593 -80 L383 -80 L383 303 Q383 356 364 374 Q346 393 306 393 L79 393 L42 414 L64 540 L94 523 L419 523 ZM52 -80 L52 370 L262 370 L262 -80 L52 -80 Z" /><glyph glyph-name="o" unicode="o" d="M447 523 Q524 523 579 468 Q634 413 634 336 L634 108 Q634 31 579 -24 Q524 -78 447 -78 L237 -78 Q160 -78 105 -24 Q51 31 51 108 L51 336 Q51 413 105 468 Q160 523 237 523 L447 523 ZM424 306 Q424 343 401 368 Q378 393 342 393 Q306 393 283 368 Q260 343 260 306 L260 138 Q260 102 283 77 Q306 52 342 52 Q378 52 401 77 Q424 102 424 138 L424 306 Z" /><glyph glyph-name="q" unicode="q" d="M387 51 L387 370 L597 370 L597 -346 L387 -346 L387 -79 L275 -79 Q179 -79 110 -10 Q41 59 41 155 L41 304 Q41 394 106 459 Q170 523 261 523 L566 523 L595 540 L617 414 L581 393 L352 393 Q292 393 269 365 Q252 344 252 298 L252 158 Q252 51 359 51 L387 51 Z" /><glyph glyph-name="s" unicode="s" d="M501 217 Q547 177 547 108 L547 74 Q547 10 503 -34 Q458 -77 394 -77 L79 -77 L42 -56 L64 69 L93 52 L284 52 Q337 52 337 105 Q337 138 289 159 Q302 153 188 194 Q110 223 91 238 Q42 278 42 345 L42 380 Q42 443 84 483 Q127 523 198 523 L492 523 L521 540 L543 414 L506 393 L307 393 Q257 393 252 356 Q248 322 273 311 Q285 306 335 292 Q391 276 399 273 Q464 252 501 217 Z" /><glyph glyph-name="z" unicode="z" d="M606 70 L628 -56 L592 -77 L38 -77 L38 18 L344 393 L82 393 L45 414 L67 540 L96 523 L608 523 L608 438 L299 53 L577 53 L606 70 Z" /><glyph glyph-name="quotedblleft" unicode="&#x201c;" d="M709 773 L795 773 L795 583 L595 583 L595 793 L614 825 L724 805 L709 780 L709 773 ZM452 780 L452 773 L538 773 L538 583 L338 583 L338 793 L357 825 L467 805 L452 780 Z" /><glyph glyph-name="quotedblright" unicode="&#x201d;" d="M215 595 L215 785 L415 785 L415 575 L396 543 L286 563 L301 588 L301 595 L215 595 ZM470 785 L670 785 L670 575 L651 543 L542 563 L556 588 L556 595 L470 595 L470 785 Z" /><glyph glyph-name="uni3001" unicode="&#x3001;" d="M215 -84 L151 131 L371 131 L435 -84 L215 -84 Z" /><glyph glyph-name="uni3002" unicode="&#x3002;" d="M444 188 L444 -54 L186 -54 L186 88 L306 88 L306 31 L324 31 L324 103 L200 103 L176 116 L190 199 L209 188 L444 188 Z" /><glyph glyph-name="uni300A" unicode="&#x300a;" d="M648 791 L448 355 L649 -83 L464 -83 L263 355 L464 791 L648 791 ZM724 355 L925 -83 L740 -83 L539 355 L740 791 L924 791 L724 355 Z" /><glyph glyph-name="uni300B" unicode="&#x300b;" d="M550 791 L750 355 L549 -83 L365 -83 L566 355 L365 791 L550 791 ZM274 791 L474 355 L273 -83 L89 -83 L290 355 L89 791 L274 791 Z" /><glyph glyph-name="uni4E00" unicode="&#x4e00;" d="M944 475 L966 350 L930 329 L70 329 L34 350 L56 475 L85 458 L915 458 L944 475 Z" /><glyph glyph-name="uni4E03" unicode="&#x4e03;" d="M904 43 L933 60 L955 -65 L918 -87 L340 -87 L340 402 L67 383 L29 402 L42 528 L72 513 L340 532 L340 815 L570 815 L570 547 L920 571 L948 590 L978 466 L943 443 L570 417 L570 43 L904 43 Z" /><glyph glyph-name="uni4E07" unicode="&#x4e07;" d="M943 663 L381 663 L363 500 L929 500 L929 -89 L544 -89 L508 -67 L530 58 L559 41 L709 41 L709 370 L349 370 L296 -107 L78 -86 L161 663 L57 663 L21 684 L43 810 L72 793 L928 793 L957 810 L979 684 L943 663 Z" /><glyph glyph-name="uni4E09" unicode="&#x4e09;" d="M952 61 L974 -64 L937 -86 L63 -86 L26 -64 L48 61 L77 44 L923 44 L952 61 ZM895 661 L105 661 L68 682 L90 808 L119 791 L881 791 L910 808 L932 682 L895 661 ZM129 424 L871 424 L900 441 L922 315 L885 294 L115 294 L78 315 L100 441 L129 424 Z" /><glyph glyph-name="uni4E0A" unicode="&#x4e0a;" d="M959 61 L981 -65 L945 -86 L55 -86 L19 -65 L41 61 L70 44 L351 44 L351 812 L571 812 L571 575 L912 575 L942 592 L964 467 L927 446 L571 446 L571 44 L930 44 L959 61 Z" /><glyph glyph-name="uni4E0B" unicode="&#x4e0b;" d="M953 809 L975 683 L939 662 L513 662 L513 -108 L293 -108 L293 662 L61 662 L25 683 L47 809 L76 792 L924 792 L953 809 ZM582 474 L758 555 L921 201 L745 120 L582 474 Z" /><glyph glyph-name="uni4E0D" unicode="&#x4e0d;" d="M996 118 L810 21 L602 419 L602 -103 L382 -103 L382 363 Q377 352 372 344 Q283 177 178 18 L2 134 Q176 396 290 652 L76 652 L40 673 L62 798 L91 781 L909 781 L938 798 L960 673 L924 652 L519 652 Q489 579 453 504 L602 504 L602 481 L764 564 L996 118 Z" /><glyph glyph-name="uni4E0E" unicode="&#x4e0e;" d="M959 730 L981 605 L945 584 L410 584 L373 605 L396 730 L425 714 L930 714 L959 730 ZM673 142 L636 121 L67 121 L31 142 L53 267 L82 251 L622 251 L651 267 L673 142 ZM367 808 L335 455 L938 455 L938 -88 L393 -88 L356 -67 L378 59 L407 42 L718 42 L718 325 L107 325 L151 820 L367 808 Z" /><glyph glyph-name="uni4E13" unicode="&#x4e13;" d="M388 398 L367 315 L680 315 L699 353 L913 306 L777 44 L890 44 L890 -86 L184 -86 L147 -65 L169 61 L198 44 L538 44 L612 185 L160 185 L122 204 L173 398 L67 398 L30 420 L52 545 L82 528 L206 528 L226 605 L96 605 L59 626 L81 751 L110 734 L260 734 L286 834 L492 805 L474 734 L890 734 L919 751 L941 626 L904 605 L441 605 L422 528 L918 528 L948 545 L970 420 L933 398 L388 398 Z" /><glyph glyph-name="uni4E16" unicode="&#x4e16;" d="M910 45 L939 62 L961 -63 L925 -84 L104 -84 L104 482 L53 482 L16 503 L38 628 L67 612 L104 612 L104 797 L314 797 L314 612 L408 612 L408 804 L618 804 L618 612 L688 612 L688 804 L898 804 L898 612 L930 612 L959 628 L981 503 L945 482 L898 482 L898 157 L861 136 L408 136 L408 482 L314 482 L314 45 L910 45 ZM688 482 L618 482 L618 266 L688 266 L688 482 Z" /><glyph glyph-name="uni4E1A" unicode="&#x4e1a;" d="M944 64 L966 -62 L930 -83 L70 -83 L34 -62 L56 64 L85 47 L253 47 L253 810 L453 810 L453 47 L547 47 L547 810 L747 810 L747 47 L915 47 L944 64 ZM217 203 L81 193 L46 693 L182 703 L217 203 ZM955 693 L919 193 L783 203 L819 703 L955 693 Z" /><glyph glyph-name="uni4E1C" unicode="&#x4e1c;" d="M914 290 L634 290 L634 -93 L364 -93 L331 -74 L351 54 L377 38 L424 38 L424 290 L119 290 L85 310 L152 610 L67 610 L34 629 L54 757 L80 741 L181 741 L200 827 L396 802 L382 741 L918 741 L944 757 L964 629 L931 610 L352 610 L309 422 L427 422 L427 551 L637 551 L637 422 L901 422 L928 437 L948 310 L914 290 ZM219 263 L356 169 L169 -101 L33 -7 L219 263 ZM781 263 L968 -7 L831 -101 L645 169 L781 263 Z" /><glyph glyph-name="uni4E24" unicode="&#x4e24;" d="M935 567 L935 -91 L684 -91 L652 -72 L671 37 L697 23 L735 23 L735 437 L675 437 L675 364 Q675 289 667 217 L728 181 L664 72 L641 86 Q631 48 613 4 L461 53 Q485 112 499 180 L460 114 L439 126 Q424 74 389 1 L265 48 L265 -91 L65 -91 L65 415 L265 415 L265 105 Q307 218 307 364 L307 437 L84 437 L48 458 L70 584 L99 567 L274 567 L274 662 L72 662 L35 683 L57 808 L86 792 L914 792 L943 808 L965 683 L928 662 L723 662 L723 567 L935 567 ZM464 662 L464 567 L533 567 L533 662 L464 662 ZM515 437 L467 437 L467 364 Q467 312 462 255 L507 229 Q515 295 515 364 L515 437 Z" /><glyph glyph-name="uni4E25" unicode="&#x4e25;" d="M75 317 L296 317 L296 114 Q296 -31 261 -112 L46 -85 Q81 -22 75 140 L75 317 ZM944 492 L966 366 L930 345 L85 345 L49 366 L71 492 L100 475 L253 475 L253 665 L86 665 L49 687 L71 812 L100 795 L906 795 L936 812 L958 687 L921 665 L747 665 L747 475 L915 475 L944 492 ZM463 665 L463 475 L537 475 L537 665 L463 665 ZM231 571 L147 487 L64 571 L147 655 L231 571 ZM769 571 L852 655 L936 571 L852 487 L769 571 Z" /><glyph glyph-name="uni4E2A" unicode="&#x4e2a;" d="M906 411 Q719 509 500 639 Q298 518 95 411 L11 570 Q263 705 454 821 L500 849 L547 821 Q749 698 990 570 L906 411 ZM384 -102 L384 514 L616 514 L616 -102 L384 -102 Z" /><glyph glyph-name="uni4E2D" unicode="&#x4e2d;" d="M940 653 L940 151 L903 130 L605 130 L605 -107 L395 -107 L395 130 L60 130 L60 496 L270 496 L270 260 L395 260 L395 524 L80 524 L43 545 L65 670 L94 653 L395 653 L395 815 L605 815 L605 653 L940 653 ZM605 524 L605 260 L730 260 L730 524 L605 524 Z" /><glyph glyph-name="uni4E30" unicode="&#x4e30;" d="M967 69 L931 47 L610 47 L610 -101 L390 -101 L390 47 L69 47 L33 69 L55 194 L84 177 L390 177 L390 314 L79 314 L43 335 L65 460 L94 443 L390 443 L390 580 L73 580 L36 601 L58 726 L87 710 L390 710 L390 808 L610 808 L610 710 L912 710 L942 726 L964 601 L927 580 L610 580 L610 443 L906 443 L935 460 L957 335 L921 314 L610 314 L610 177 L916 177 L945 194 L967 69 Z" /><glyph glyph-name="uni4E39" unicode="&#x4e39;" d="M971 232 L934 211 L879 211 L879 -90 L603 -90 L569 -70 L590 47 L617 31 L669 31 L669 211 L325 210 Q325 0 299 -95 L93 -71 Q115 -1 115 190 L115 211 L66 211 L29 232 L51 358 L80 341 L115 341 L115 629 L325 629 L325 341 L669 341 L669 656 L131 656 L95 677 L117 802 L146 785 L879 785 L879 341 L920 341 L949 358 L971 232 ZM490 609 L600 500 L490 390 L381 500 L490 609 Z" /><glyph glyph-name="uni4E3A" unicode="&#x4e3a;" d="M938 627 L938 -88 L570 -88 L533 -67 L555 58 L584 41 L728 41 L728 497 L478 497 Q395 179 301 -122 L104 -76 Q195 221 267 497 L70 497 L33 518 L55 644 L84 627 L301 627 L349 828 L550 795 Q524 683 510 627 L938 627 ZM278 733 L184 639 L90 733 L184 827 L278 733 ZM670 247 L562 139 L454 247 L562 355 L670 247 Z" /><glyph glyph-name="uni4E3B" unicode="&#x4e3b;" d="M944 62 L966 -63 L930 -84 L70 -84 L34 -63 L56 62 L85 45 L390 45 L390 221 L83 221 L46 242 L68 367 L98 350 L390 350 L390 502 L77 502 L40 523 L62 648 L91 632 L452 632 L362 722 L500 860 L638 722 L548 632 L909 632 L938 648 L960 523 L923 502 L610 502 L610 350 L902 350 L932 367 L954 242 L917 221 L610 221 L610 45 L915 45 L944 62 Z" /><glyph glyph-name="uni4E3D" unicode="&#x4e3d;" d="M484 612 L484 -90 L290 -90 L256 -70 L276 48 L304 32 L320 32 L320 482 L92 482 L55 503 L77 629 L106 612 L484 612 ZM68 -90 L68 454 L232 454 L232 -90 L68 -90 ZM939 612 L939 -90 L745 -90 L710 -70 L731 48 L758 32 L775 32 L775 482 L546 482 L510 503 L532 629 L561 612 L939 612 ZM523 -90 L523 454 L687 454 L687 -90 L523 -90 ZM929 660 L71 660 L34 681 L56 807 L85 790 L915 790 L944 807 L966 681 L929 660 ZM298 408 L307 110 L255 108 L246 406 L298 408 ZM752 408 L761 110 L709 108 L700 406 L752 408 Z" /><glyph glyph-name="uni4E3E" unicode="&#x4e3e;" d="M897 123 L926 140 L948 14 L911 -7 L605 -7 L605 -107 L395 -107 L395 -7 L89 -7 L52 14 L74 140 L103 123 L395 123 L395 181 L191 181 L155 202 L173 306 L84 254 L12 376 L166 468 L75 468 L38 489 L60 614 L89 597 L911 597 L940 614 L962 489 L925 468 L835 468 L989 376 L917 254 L827 307 L845 202 L809 181 L605 181 L605 123 L897 123 ZM206 311 L395 311 L395 388 L605 388 L605 311 L794 311 L807 319 L597 444 L611 468 L390 468 L404 444 L193 318 L206 311 ZM356 722 L239 606 L123 722 L239 838 L356 722 ZM616 722 L500 606 L384 722 L500 838 L616 722 ZM877 722 L761 606 L644 722 L761 838 L877 722 Z" /><glyph glyph-name="uni4E49" unicode="&#x4e49;" d="M819 -126 Q646 -63 500 41 Q356 -63 181 -126 L9 6 Q204 89 337 183 Q100 431 47 773 L273 803 Q322 522 500 326 Q678 521 728 803 L954 773 Q899 430 664 183 Q792 91 991 6 L819 -126 ZM640 706 L500 566 L360 706 L500 846 L640 706 Z" /><glyph glyph-name="uni4E4B" unicode="&#x4e4b;" d="M954 61 L976 -65 L940 -86 L56 -86 L56 -12 L611 481 L70 481 L33 502 L56 627 L85 610 L944 610 L944 536 L401 44 L925 44 L954 61 ZM625 748 L500 624 L375 748 L500 873 L625 748 Z" /><glyph glyph-name="uni4E50" unicode="&#x4e50;" d="M930 305 L617 305 L617 -94 L345 -94 L309 -73 L331 52 L360 36 L397 36 L397 305 L63 305 L63 635 L273 635 L273 435 L397 435 L397 618 L617 618 L617 435 L915 435 L944 452 L966 326 L930 305 ZM900 660 L93 660 L56 681 L78 806 L107 790 L886 790 L915 806 L937 681 L900 660 ZM149 268 L333 188 L213 -86 L30 -6 L149 268 ZM851 268 L971 -6 L788 -86 L668 188 L851 268 Z" /><glyph glyph-name="uni4E5D" unicode="&#x4e5d;" d="M963 57 L985 -68 L949 -89 L634 -89 L634 536 L412 536 Q349 203 274 -105 L66 -71 Q144 254 200 536 L66 536 L29 557 L51 683 L80 666 L225 666 Q239 741 252 819 L459 792 Q456 771 448 729 L437 666 L854 666 L854 40 L934 40 L963 57 Z" /><glyph glyph-name="uni4E5F" unicode="&#x4e5f;" d="M945 58 L967 -67 L930 -88 L104 -88 L104 415 L46 402 L20 530 L104 547 L104 751 L314 751 L314 592 L431 616 L431 814 L641 814 L641 661 L939 724 L939 170 L721 170 L684 191 L706 317 L729 303 L729 547 L641 528 L641 154 L431 154 L431 484 L314 459 L314 42 L915 42 L945 58 Z" /><glyph glyph-name="uni4E7E" unicode="&#x4e7e;" d="M534 38 L499 17 L384 17 L384 -100 L184 -100 L184 17 L76 17 L41 38 L62 159 L90 143 L184 143 L184 195 L60 195 L60 458 L250 458 L250 434 L317 434 L317 474 L75 474 L46 490 L63 587 L86 574 L184 574 L184 626 L76 626 L41 646 L62 768 L90 751 L184 751 L184 806 L384 806 L384 751 L485 751 L513 768 L534 646 L499 626 L384 626 L384 574 L507 574 L507 216 L471 195 L384 195 L384 143 L485 143 L513 159 L534 38 ZM317 335 L250 335 L250 295 L317 295 L317 335 ZM940 616 L586 616 L549 637 L549 806 L749 806 L749 746 L926 746 L955 762 L977 637 L940 616 ZM916 43 L945 60 L967 -66 L930 -87 L511 -87 L511 -30 L703 358 L566 358 L530 379 L552 505 L581 488 L945 488 L945 418 L768 43 L916 43 Z" /><glyph glyph-name="uni4E86" unicode="&#x4e86;" d="M919 733 L674 391 L674 -89 L302 -89 L266 -68 L288 57 L317 40 L454 40 L454 391 L633 656 L110 656 L74 678 L96 803 L125 786 L919 786 L919 733 Z" /><glyph glyph-name="uni4E89" unicode="&#x4e89;" d="M966 324 L929 302 L911 302 L911 125 L589 125 L589 -88 L238 -88 L201 -66 L223 59 L253 42 L379 42 L379 125 L104 125 L67 146 L89 272 L118 255 L379 255 L379 302 L65 302 L29 324 L51 449 L80 432 L379 432 L379 480 L104 480 L67 501 L89 627 L118 610 L597 610 L613 657 L122 657 L85 678 L136 831 L335 806 L323 777 L883 777 L825 610 L911 610 L911 432 L914 432 L943 449 L966 324 ZM589 480 L589 432 L701 432 L701 480 L589 480 ZM701 255 L701 302 L589 302 L589 255 L701 255 Z" /><glyph glyph-name="uni4E8B" unicode="&#x4e8b;" d="M925 253 L946 265 L962 173 L935 158 L901 158 L901 50 L864 29 L603 29 L603 -86 L265 -86 L242 -74 L256 4 L274 -7 L403 -7 L403 29 L99 29 L73 44 L89 136 L110 123 L403 123 L403 158 L57 158 L30 173 L46 265 L68 253 L403 253 L403 287 L99 287 L73 303 L89 394 L110 382 L403 382 L403 413 L102 413 L102 524 L312 524 L312 508 L403 508 L403 538 L114 538 L88 554 L104 645 L125 633 L403 633 L403 665 L57 665 L30 680 L46 772 L68 760 L403 760 L403 817 L603 817 L603 760 L925 760 L946 772 L962 680 L935 665 L603 665 L603 633 L893 633 L893 434 L856 413 L603 413 L603 382 L901 382 L901 253 L925 253 ZM603 538 L603 508 L693 508 L693 538 L603 538 ZM603 287 L603 253 L711 253 L711 287 L603 287 ZM711 123 L711 158 L603 158 L603 123 L711 123 Z" /><glyph glyph-name="uni4E8C" unicode="&#x4e8c;" d="M948 85 L970 -45 L933 -66 L67 -66 L30 -45 L52 85 L82 68 L918 68 L948 85 ZM894 625 L106 625 L68 646 L91 776 L121 759 L879 759 L909 776 L932 646 L894 625 Z" /><glyph glyph-name="uni4E8E" unicode="&#x4e8e;" d="M978 319 L942 298 L620 298 L620 -92 L254 -92 L217 -71 L239 55 L268 38 L400 38 L400 298 L58 298 L22 319 L44 444 L73 427 L400 427 L400 665 L83 665 L47 686 L69 811 L98 794 L902 794 L931 811 L953 686 L917 665 L620 665 L620 427 L927 427 L956 444 L978 319 Z" /><glyph glyph-name="uni4E94" unicode="&#x4e94;" d="M915 44 L944 61 L966 -64 L929 -85 L71 -85 L34 -64 L56 61 L85 44 L192 44 L217 353 L93 353 L56 374 L78 499 L107 482 L228 482 L243 664 L71 664 L34 686 L56 811 L85 794 L915 794 L944 811 L966 686 L929 664 L459 664 L444 482 L895 482 L895 44 L915 44 ZM433 353 L408 44 L685 44 L685 353 L433 353 Z" /><glyph glyph-name="uni4EA4" unicode="&#x4ea4;" d="M925 619 L75 619 L39 641 L61 766 L90 749 L390 749 L390 815 L610 815 L610 749 L910 749 L939 766 L961 641 L925 619 ZM807 311 Q759 251 662 170 Q804 86 968 27 L839 -110 Q682 -71 499 49 Q319 -70 159 -110 L31 27 Q193 85 337 170 Q238 251 192 311 L356 413 Q419 343 499 281 Q573 338 643 413 L807 311 ZM448 474 L69 306 L7 445 L387 612 L448 474 ZM551 474 L612 612 L991 445 L930 306 L551 474 Z" /><glyph glyph-name="uni4EA7" unicode="&#x4ea7;" d="M906 637 L92 637 L55 658 L77 783 L106 766 L390 766 L390 817 L610 817 L610 766 L891 766 L921 783 L943 658 L906 637 ZM943 491 L965 366 L929 345 L94 345 L57 366 L79 491 L108 474 L205 474 L187 584 L389 612 L412 474 L617 474 L640 612 L842 584 L824 474 L914 474 L943 491 ZM80 320 L270 320 L270 172 Q270 29 240 -123 L55 -88 Q82 20 80 205 L80 320 Z" /><glyph glyph-name="uni4EB2" unicode="&#x4eb2;" d="M900 300 L929 317 L951 192 L915 171 L619 171 L619 -96 L354 -96 L318 -74 L340 51 L369 34 L409 34 L409 171 L85 171 L49 192 L71 317 L100 300 L409 300 L409 374 L70 374 L34 396 L56 521 L85 504 L151 504 L129 594 L344 609 L370 504 L628 504 L653 609 L868 594 L846 504 L915 504 L944 521 L966 396 L930 374 L619 374 L619 300 L900 300 ZM915 632 L85 632 L49 653 L71 778 L100 762 L390 762 L390 812 L610 812 L610 762 L900 762 L929 778 L951 653 L915 632 ZM63 23 L180 139 L296 23 L180 -94 L63 23 ZM707 23 L824 139 L940 23 L824 -94 L707 23 Z" /><glyph glyph-name="uni4EBA" unicode="&#x4eba;" d="M998 18 L829 -123 L541 226 Q424 0 170 -116 L7 21 Q237 143 326 299 Q406 438 406 672 L406 812 L636 812 L636 672 Q636 568 620 475 L998 18 Z" /><glyph glyph-name="uni4EC5" unicode="&#x4ec5;" d="M318 778 Q286 617 238 460 L290 460 L290 -97 L80 -97 L80 398 L2 417 Q62 593 107 815 L318 778 ZM758 200 Q839 110 988 -12 L821 -113 Q719 -32 644 46 Q577 -34 490 -113 L315 -12 Q430 88 517 195 Q399 358 338 557 L526 609 Q565 475 632 366 Q707 504 733 650 L376 650 L339 671 L361 796 L390 780 L950 780 Q934 473 758 200 Z" /><glyph glyph-name="uni4EE3" unicode="&#x4ee3;" d="M340 775 Q302 604 254 460 L302 460 L302 -97 L92 -97 L92 397 L18 417 Q80 592 130 815 L340 775 ZM932 695 L842 605 L752 695 L842 785 L932 695 ZM813 35 L900 35 L929 52 L951 -74 L915 -95 L631 -95 L554 397 L401 383 L363 400 L373 527 L404 513 L533 525 L491 791 L688 822 L733 544 L925 561 L952 581 L986 458 L951 433 L753 415 L813 35 Z" /><glyph glyph-name="uni4EE5" unicode="&#x4ee5;" d="M309 44 L337 59 L357 -58 L323 -78 L62 -78 L62 795 L272 795 L272 44 L309 44 ZM501 797 L532 253 L360 245 L329 789 L501 797 ZM989 -78 L802 -112 L750 182 Q678 1 558 -119 L374 -37 Q528 149 585 341 Q638 517 640 820 L849 813 Q854 614 809 387 L902 404 L989 -78 Z" /><glyph glyph-name="uni4EEC" unicode="&#x4eec;" d="M303 775 Q268 602 223 460 L280 460 L280 -92 L80 -92 L80 395 L2 417 Q62 593 107 815 L303 775 ZM322 699 L443 821 L565 699 L443 577 L322 699 ZM338 -92 L338 550 L548 550 L548 -92 L338 -92 ZM941 796 L941 -92 L686 -92 L649 -71 L671 54 L700 37 L731 37 L731 666 L611 666 L574 687 L596 812 L625 796 L941 796 Z" /><glyph glyph-name="uni4EF6" unicode="&#x4ef6;" d="M306 775 Q274 616 226 460 L280 460 L280 -97 L80 -97 L80 396 L5 417 Q67 603 110 815 L306 775 ZM976 191 L939 170 L784 170 L784 -97 L574 -97 L574 170 L346 170 L310 191 L332 317 L361 300 L574 300 L574 488 L386 488 L349 509 L349 792 L529 792 L529 618 L587 618 L587 807 L784 807 L784 618 L909 618 L938 634 L960 509 L924 488 L784 488 L784 300 L925 300 L954 317 L976 191 Z" /><glyph glyph-name="uni4F01" unicode="&#x4f01;" d="M500 645 Q290 521 85 415 L6 566 Q243 689 457 817 L500 843 L544 817 Q743 697 994 566 L916 415 Q703 525 500 645 ZM911 44 L940 61 L962 -64 L926 -86 L74 -86 L38 -64 L60 61 L89 44 L123 44 L123 398 L325 398 L325 44 L423 44 L423 542 L633 542 L633 355 L876 355 L905 372 L927 246 L890 225 L633 225 L633 44 L911 44 Z" /><glyph glyph-name="uni4F0A" unicode="&#x4f0a;" d="M315 783 Q280 616 228 456 L284 456 L284 -102 L74 -102 L74 400 L2 417 Q63 588 112 815 L315 783 ZM987 438 L950 417 L932 417 L932 173 L612 173 Q577 7 525 -111 L334 -50 Q377 43 408 173 L374 173 L338 194 L360 319 L389 303 L433 303 Q440 345 449 417 L346 417 L309 438 L331 563 L360 546 L462 546 Q465 585 469 660 L374 660 L338 681 L360 807 L389 790 L932 790 L932 546 L935 546 L965 563 L987 438 ZM670 660 L663 546 L722 546 L722 660 L670 660 ZM722 303 L722 417 L650 417 Q644 357 635 303 L722 303 Z" /><glyph glyph-name="uni4F18" unicode="&#x4f18;" d="M320 783 Q285 618 233 460 L290 460 L290 -97 L80 -97 L80 399 L2 417 Q66 595 113 815 L320 783 ZM935 498 L585 498 L531 -106 L331 -89 L384 498 L332 498 L296 520 L318 645 L347 628 L395 628 L413 820 L612 802 L596 628 L920 628 L949 645 L972 520 L935 498 ZM914 42 L943 59 L965 -67 L928 -88 L616 -88 L616 454 L826 454 L826 42 L914 42 ZM891 732 L797 639 L703 732 L797 826 L891 732 Z" /><glyph glyph-name="uni4F1A" unicode="&#x4f1a;" d="M191 513 L82 460 L15 600 Q223 698 463 827 L500 848 L537 827 Q777 698 985 600 L918 460 L809 513 L826 414 L790 393 L210 393 L174 414 L191 513 ZM500 671 Q363 597 219 526 L225 523 L775 523 L781 526 Q637 597 500 671 ZM422 187 L358 46 L670 46 L639 133 L830 174 L920 -63 L884 -84 L123 -84 L88 -63 L193 187 L88 187 L52 208 L74 333 L103 317 L897 317 L926 333 L948 208 L912 187 L422 187 Z" /><glyph glyph-name="uni4F1F" unicode="&#x4f1f;" d="M303 783 Q268 613 221 460 L290 460 L290 -97 L80 -97 L80 398 L2 417 Q62 593 107 815 L303 783 ZM923 411 L671 411 L671 335 L941 335 L941 -14 L741 -14 L705 7 L727 133 L756 116 L758 116 L758 206 L671 206 L671 -98 L461 -98 L461 206 L359 206 L323 227 L345 352 L374 335 L461 335 L461 411 L378 411 L341 432 L363 558 L392 541 L461 541 L461 617 L368 617 L331 638 L353 763 L382 747 L461 747 L461 812 L671 812 L671 747 L919 747 L948 763 L970 638 L933 617 L671 617 L671 541 L909 541 L938 558 L960 432 L923 411 Z" /><glyph glyph-name="uni4F20" unicode="&#x4f20;" d="M318 775 Q283 613 234 460 L293 460 L293 -97 L83 -97 L83 395 L3 417 Q67 601 112 815 L318 775 ZM616 377 L605 303 L706 303 L716 336 L918 291 L843 44 L919 44 L919 -86 L417 -86 L381 -65 L403 61 L432 44 L628 44 L667 173 L409 173 L372 192 L403 377 L346 377 L309 399 L331 524 L361 507 L424 507 L437 584 L379 584 L342 605 L364 730 L393 713 L459 713 L476 817 L682 787 L670 713 L893 713 L922 730 L944 605 L907 584 L650 584 L637 507 L908 507 L937 524 L959 399 L922 377 L616 377 Z" /><glyph glyph-name="uni4F46" unicode="&#x4f46;" d="M739 655 L400 655 L363 676 L386 801 L415 784 L937 784 L937 150 L900 129 L381 129 L381 627 L579 627 L579 259 L739 259 L739 392 L606 392 L606 522 L739 522 L739 655 ZM952 64 L974 -62 L938 -83 L380 -83 L344 -62 L366 64 L395 47 L923 47 L952 64 ZM326 775 Q289 603 243 460 L300 460 L300 -97 L100 -97 L100 393 L12 417 Q73 588 122 815 L326 775 Z" /><glyph glyph-name="uni4F4D" unicode="&#x4f4d;" d="M319 783 Q285 623 233 460 L293 460 L293 -97 L83 -97 L83 399 L2 417 Q66 595 113 815 L319 783 ZM930 577 L374 577 L338 598 L360 723 L389 707 L547 707 L547 805 L757 805 L757 707 L915 707 L945 723 L967 598 L930 577 ZM951 62 L973 -64 L936 -85 L368 -85 L331 -64 L353 62 L383 45 L922 45 L951 62 ZM403 87 L370 528 L557 542 L591 101 L403 87 ZM717 101 L750 542 L938 528 L905 87 L717 101 Z" /><glyph glyph-name="uni4F4E" unicode="&#x4f4e;" d="M920 660 L369 660 L332 681 L354 806 L383 789 L906 789 L935 806 L957 681 L920 660 ZM934 300 L900 300 L959 -73 L773 -101 L710 300 L548 300 L548 37 L561 37 L590 54 L612 -72 L576 -93 L348 -93 L348 643 L548 643 L548 430 L690 430 L660 616 L845 644 L879 430 L920 430 L949 447 L971 321 L934 300 ZM595 183 L693 199 L739 -81 L641 -97 L595 183 ZM308 775 Q273 602 228 460 L285 460 L285 -97 L85 -97 L85 395 L7 417 Q67 593 112 815 L308 775 Z" /><glyph glyph-name="uni4F50" unicode="&#x4f50;" d="M311 783 Q277 617 227 460 L283 460 L283 -97 L78 -97 L78 399 L2 417 Q64 594 110 815 L311 783 ZM956 63 L978 -62 L942 -84 L414 -84 L377 -62 L399 63 L428 46 L595 46 L595 281 L557 281 Q513 170 476 101 L290 143 Q395 360 449 574 L348 574 L312 596 L334 721 L363 704 L477 704 Q486 760 492 816 L692 805 Q690 789 675 704 L915 704 L944 721 L966 596 L930 574 L647 574 Q626 489 602 411 L897 411 L926 427 L948 302 L912 281 L805 281 L805 46 L927 46 L956 63 Z" /><glyph glyph-name="uni4F51" unicode="&#x4f51;" d="M937 446 L937 -65 L900 -86 L427 -86 L427 112 L290 152 L290 -97 L80 -97 L80 399 L3 417 Q67 604 111 815 L314 783 Q278 614 229 460 L290 460 L290 165 Q390 370 448 564 L351 564 L315 585 L337 710 L366 693 L485 693 Q505 775 514 818 L706 794 Q692 726 684 693 L921 693 L950 710 L972 585 L936 564 L649 564 Q630 495 612 446 L937 446 ZM623 44 L742 44 L742 316 L565 316 L553 288 L623 288 L623 44 Z" /><glyph glyph-name="uni4F53" unicode="&#x4f53;" d="M303 783 Q268 613 221 460 L280 460 L280 -97 L80 -97 L80 398 L3 417 Q63 596 107 815 L303 783 ZM761 531 L909 543 L954 -83 L805 -95 L799 -11 L741 -11 L741 -101 L531 -101 L531 -11 L472 -11 L466 -95 L318 -83 L362 543 L511 531 L481 119 L531 119 L531 568 L341 568 L304 589 L326 714 L356 697 L531 697 L531 812 L741 812 L741 697 L916 697 L945 714 L967 589 L930 568 L741 568 L741 119 L790 119 L761 531 Z" /><glyph glyph-name="uni4F55" unicode="&#x4f55;" d="M322 780 Q288 622 236 460 L295 460 L295 -97 L85 -97 L85 401 L5 422 Q69 600 116 820 L322 780 ZM353 465 L506 465 L506 202 L543 202 L543 489 L372 489 L338 509 L358 625 L385 609 L696 609 L696 104 L659 82 L353 82 L353 465 ZM954 809 L976 683 L939 662 L368 662 L332 683 L354 809 L383 792 L925 792 L954 809 ZM738 26 L738 636 L935 636 L935 -93 L585 -93 L551 -74 L571 41 L598 26 L738 26 Z" /><glyph glyph-name="uni4F59" unicode="&#x4f59;" d="M912 332 L941 349 L963 223 L926 202 L619 202 L619 -101 L354 -101 L317 -80 L339 46 L368 29 L409 29 L409 202 L83 202 L47 223 L69 349 L98 332 L409 332 L409 418 L199 418 L162 439 L172 491 L80 448 L12 593 Q239 698 463 818 L500 838 L538 818 Q762 698 989 593 L921 448 Q890 462 828 492 L838 439 L801 418 L619 418 L619 332 L912 332 ZM500 657 Q417 613 288 548 L713 548 Q569 620 500 657 ZM54 45 L185 175 L315 45 L185 -86 L54 45 ZM683 45 L813 175 L944 45 L813 -86 L683 45 Z" /><glyph glyph-name="uni4F5C" unicode="&#x4f5c;" d="M919 316 L738 316 L738 198 L904 198 L933 215 L956 89 L919 68 L738 68 L738 -100 L528 -100 L528 563 L429 563 L392 584 L392 811 L612 811 L612 693 L926 693 L955 710 L977 584 L941 563 L738 563 L738 445 L904 445 L933 462 L956 337 L919 316 ZM361 773 Q314 610 250 460 L325 460 L325 -97 L115 -97 L115 396 L10 427 Q86 593 153 817 L361 773 Z" /><glyph glyph-name="uni4F60" unicode="&#x4f60;" d="M306 775 Q274 616 226 460 L283 460 L283 -97 L83 -97 L83 395 L5 417 Q67 603 110 815 L306 775 ZM549 35 L549 422 L749 422 L749 -95 L526 -95 L490 -74 L512 51 L541 35 L549 35 ZM747 622 L614 622 L578 643 L600 769 L629 752 L947 752 L947 442 L747 442 L747 622 ZM379 340 L524 321 L468 -88 L323 -69 L379 340 ZM577 794 L513 415 L326 443 L390 823 L577 794 ZM914 341 L975 -67 L830 -89 L770 319 L914 341 Z" /><glyph glyph-name="uni4F69" unicode="&#x4f69;" d="M754 501 L695 501 L695 439 L773 439 L773 -31 L736 -52 L706 -52 L706 322 L685 322 L685 -90 L542 -90 L542 322 L475 322 L442 341 L462 454 L488 439 L540 439 L540 501 L452 501 L452 617 L741 617 L767 632 L786 520 L754 501 ZM454 -52 L454 307 L521 307 L521 -52 L454 -52 ZM268 780 Q241 626 198 463 L245 463 L245 -95 L84 -95 L84 388 L10 405 Q65 589 102 803 L268 780 ZM289 641 L428 641 L428 227 Q428 -5 389 -106 L252 -79 Q289 39 289 307 L289 641 ZM961 36 L980 -75 L948 -93 L799 -93 L799 660 L320 660 L283 681 L305 806 L334 789 L938 789 L938 22 L961 36 Z" /><glyph glyph-name="uni4F9B" unicode="&#x4f9b;" d="M938 217 L343 217 L307 238 L329 363 L358 346 L405 346 L405 530 L356 530 L319 552 L341 677 L371 660 L405 660 L405 804 L605 804 L605 660 L687 660 L687 804 L887 804 L887 660 L911 660 L940 677 L962 552 L926 530 L887 530 L887 346 L924 346 L953 363 L975 238 L938 217 ZM605 530 L605 346 L687 346 L687 530 L605 530 ZM323 -35 L457 207 L621 128 L487 -114 L323 -35 ZM669 128 L832 207 L966 -35 L802 -114 L669 128 ZM308 775 Q273 602 228 460 L290 460 L290 -97 L80 -97 L80 397 L8 417 Q68 596 112 815 L308 775 Z" /><glyph glyph-name="uni4FCA" unicode="&#x4fca;" d="M325 775 Q287 604 239 460 L300 460 L300 -97 L86 -97 L86 395 L2 417 Q65 589 115 815 L325 775 ZM907 -101 Q749 -61 648 -25 Q559 -72 435 -107 L327 18 Q408 44 454 62 Q409 86 347 125 L464 225 Q551 177 619 147 Q671 182 705 228 L409 228 L372 249 L372 375 L347 368 L309 496 L590 578 L628 450 L405 385 L572 385 L572 358 L941 358 Q924 197 796 78 Q878 52 981 31 L907 -101 ZM370 586 L335 607 L412 819 L601 778 L577 716 L701 716 L684 768 L870 806 L935 607 L899 586 L370 586 ZM655 450 L692 578 L973 496 L936 368 L655 450 Z" /><glyph glyph-name="uni4FCF" unicode="&#x4fcf;" d="M313 775 Q264 579 226 460 L280 460 L280 -97 L80 -97 L80 396 L5 417 Q57 572 117 815 L313 775 ZM343 -89 L343 408 L543 408 L543 -89 L343 -89 ZM741 811 L741 560 L937 560 L937 -89 L665 -89 L631 -69 L652 47 L679 31 L737 31 L737 85 L568 85 L568 215 L737 215 L737 251 L568 251 L568 381 L737 381 L737 431 L360 431 L324 452 L346 577 L375 560 L541 560 L541 811 L741 811 ZM529 686 L417 574 L304 686 L417 799 L529 686 ZM978 686 L865 574 L753 686 L865 799 L978 686 Z" /><glyph glyph-name="uni4FDE" unicode="&#x4fde;" d="M244 563 Q163 529 68 491 L13 631 Q244 722 469 824 L500 838 L531 824 Q756 722 987 631 L932 491 Q829 532 741 569 L749 516 L720 499 L266 499 L236 516 L244 563 ZM500 673 L368 615 L632 615 L500 673 ZM70 -92 L70 326 L253 326 L253 -92 L70 -92 ZM727 441 L727 65 L585 65 L585 441 L727 441 ZM765 23 L765 474 L936 474 L936 -92 L644 -92 L612 -73 L631 37 L657 23 L765 23 ZM548 466 L548 -92 L315 -92 L289 -77 L305 13 L326 1 L365 1 L365 40 L275 40 L275 154 L365 154 L365 196 L275 196 L275 310 L365 310 L365 352 L87 352 L55 370 L74 481 L100 466 L548 466 Z" /><glyph glyph-name="uni4FEE" unicode="&#x4fee;" d="M283 -14 L283 675 L415 675 L415 -14 L283 -14 ZM276 788 Q240 612 192 460 L252 460 L252 -97 L80 -97 L80 397 L2 417 Q62 593 107 815 L276 788 ZM461 321 L784 379 Q731 395 674 420 Q600 378 494 341 L418 457 Q502 491 536 508 Q484 553 440 610 L577 662 Q613 621 666 587 Q714 624 743 666 L468 666 L439 685 L439 811 L629 811 L629 785 L944 785 Q932 638 809 519 Q846 507 900 493 L977 472 L904 345 L871 354 L884 280 L481 208 L461 321 ZM919 136 L484 58 L464 170 L899 248 L919 136 ZM467 8 L939 93 L959 -20 L487 -104 L467 8 Z" /><glyph glyph-name="uni501F" unicode="&#x501f;" d="M311 775 Q279 616 231 460 L290 460 L290 -92 L90 -92 L90 394 L10 417 Q72 603 115 815 L311 775 ZM937 386 L937 -66 L900 -87 L361 -87 L361 233 L561 233 L561 43 L737 43 L737 85 L590 85 L590 214 L737 214 L737 256 L383 256 L347 277 L369 403 L398 386 L937 386 ZM953 574 L975 449 L939 427 L354 427 L318 449 L340 574 L369 557 L418 557 L418 611 L377 611 L340 632 L362 758 L391 741 L418 741 L418 805 L608 805 L608 741 L691 741 L691 805 L881 805 L881 741 L902 741 L931 758 L953 632 L916 611 L881 611 L881 557 L924 557 L953 574 ZM608 611 L608 557 L691 557 L691 611 L608 611 Z" /><glyph glyph-name="uni5029" unicode="&#x5029;" d="M303 775 Q268 602 223 460 L280 460 L280 -97 L80 -97 L80 395 L2 417 Q62 593 107 815 L303 775 ZM334 -94 L334 255 L544 255 L544 -94 L334 -94 ZM933 374 L933 -94 L666 -94 L642 -80 L657 4 L676 -7 L723 -7 L723 22 L564 22 L564 120 L723 120 L723 147 L564 147 L564 245 L723 245 L723 272 L349 272 L320 288 L338 388 L361 374 L933 374 ZM951 519 L968 419 L939 402 L325 402 L296 419 L313 519 L336 506 L503 506 L503 533 L351 533 L322 550 L339 650 L362 637 L503 637 L503 664 L335 664 L306 681 L323 781 L347 768 L503 768 L503 810 L761 810 L761 768 L917 768 L941 781 L958 681 L929 664 L761 664 L761 637 L902 637 L925 650 L942 550 L913 533 L761 533 L761 506 L928 506 L951 519 Z" /><glyph glyph-name="uni5065" unicode="&#x5065;" d="M278 783 Q246 605 207 465 L251 465 L251 -92 L80 -92 L80 389 L18 405 Q71 579 112 815 L278 783 ZM923 28 L947 42 L966 -64 L935 -82 L302 -82 L302 655 L275 671 L297 796 L326 779 L472 779 L472 28 L923 28 ZM531 199 L603 199 L603 233 L530 233 L499 251 L518 356 L542 342 L603 342 L603 380 L526 380 L495 398 L513 504 L538 490 L603 490 L603 523 L521 523 L490 541 L509 646 L533 632 L603 632 L603 664 L526 664 L495 682 L513 789 L538 774 L603 774 L603 810 L773 810 L773 774 L932 774 L932 634 L951 646 L970 541 L939 523 L932 523 L932 380 L773 380 L773 342 L899 342 L924 356 L942 251 L912 233 L773 233 L773 199 L918 199 L943 213 L961 108 L930 91 L773 91 L773 49 L603 49 L603 91 L518 91 L488 108 L506 213 L531 199 ZM773 664 L773 632 L800 632 L800 664 L773 664 ZM773 523 L773 490 L800 490 L800 523 L773 523 Z" /><glyph glyph-name="uni50B2" unicode="&#x50b2;" d="M281 774 Q255 623 208 466 L259 466 L259 -91 L80 -91 L80 420 L14 437 Q74 621 105 807 L281 774 ZM879 -105 Q832 -45 802 4 Q767 -52 726 -105 L635 -36 L635 -90 L483 -90 L483 122 L464 122 L451 -94 L297 -84 L321 305 L310 305 L276 325 L296 442 L323 426 L375 426 L375 473 L320 473 L286 493 L306 611 L333 595 L375 595 L375 642 L315 642 L281 661 L301 779 L328 763 L375 763 L375 810 L555 810 L555 763 L597 763 L625 779 L645 661 L611 642 L555 642 L555 595 L592 595 L620 611 L640 493 L606 473 L555 473 L555 426 L607 426 L635 442 L655 325 L621 305 L475 305 L472 252 L635 252 L635 -1 Q692 74 729 150 Q676 289 654 548 L776 563 Q782 455 798 374 Q812 477 808 595 L694 595 L657 617 L657 810 L832 810 L832 725 L924 725 L953 742 L975 617 L939 595 L935 595 Q938 329 872 149 Q913 66 984 -23 L879 -105 Z" /><glyph glyph-name="uni50CF" unicode="&#x50cf;" d="M821 -80 L751 168 L735 162 L735 -94 L511 -94 L491 -83 L503 -16 L518 -25 L558 -25 L558 14 L354 -61 L318 37 L558 125 L558 153 L339 73 L302 170 L552 262 Q550 274 544 289 L341 214 L305 311 L471 373 L318 373 L318 519 L504 519 L504 484 L535 484 L535 535 L342 535 L311 553 L329 660 L354 646 L654 646 L665 672 L371 672 L341 689 L380 810 L584 790 L576 769 L901 769 L852 646 L931 646 L931 391 L900 373 L690 373 Q712 337 725 292 L903 357 L946 240 L896 222 L969 -38 L821 -80 ZM714 535 L714 484 L745 484 L745 535 L714 535 ZM303 783 Q268 613 221 460 L280 460 L280 -97 L80 -97 L80 398 L3 417 Q63 596 107 815 L303 783 Z" /><glyph glyph-name="uni5143" unicode="&#x5143;" d="M963 59 L985 -66 L948 -87 L568 -87 L568 321 L405 321 L318 -106 L109 -78 L190 321 L74 321 L38 342 L60 468 L89 451 L911 451 L940 468 L962 342 L926 321 L788 321 L788 42 L934 42 L963 59 ZM880 641 L120 641 L84 662 L106 788 L135 771 L865 771 L894 788 L916 662 L880 641 Z" /><glyph glyph-name="uni5149" unicode="&#x5149;" d="M338 510 L143 461 L70 752 L265 801 L338 510 ZM930 752 L858 461 L663 510 L735 801 L930 752 ZM907 39 L936 56 L958 -70 L921 -91 L572 -91 L572 301 L406 301 Q358 59 284 -107 L76 -60 Q156 171 186 301 L64 301 L28 322 L50 448 L79 431 L395 431 L395 808 L605 808 L605 431 L921 431 L950 448 L972 322 L936 301 L782 301 L782 39 L907 39 Z" /><glyph glyph-name="uni514B" unicode="&#x514b;" d="M953 54 L975 -71 L938 -92 L580 -92 L543 -71 L543 158 L388 158 L304 -128 L99 -89 L171 158 L93 158 L93 383 L293 383 L293 287 L697 287 L697 407 L119 407 L82 428 L104 553 L133 536 L390 536 L390 607 L70 607 L34 629 L56 754 L85 737 L390 737 L390 819 L610 819 L610 737 L915 737 L944 754 L966 629 L930 607 L610 607 L610 536 L907 536 L907 179 L870 158 L753 158 L753 37 L924 37 L953 54 Z" /><glyph glyph-name="uni5165" unicode="&#x5165;" d="M758 373 Q914 106 991 -3 L791 -101 Q719 5 568 262 L538 314 L189 -109 L7 18 L417 514 Q326 658 256 749 L459 842 Q577 685 758 373 Z" /><glyph glyph-name="uni5168" unicode="&#x5168;" d="M899 40 L928 57 L950 -68 L913 -90 L87 -90 L50 -68 L72 57 L101 40 L390 40 L390 150 L112 150 L75 171 L97 296 L126 279 L390 279 L390 375 L167 375 L130 396 L141 458 L81 429 L7 573 Q245 687 462 807 L501 828 L539 807 Q759 685 995 573 L920 429 L859 459 L870 396 L833 375 L610 375 L610 279 L874 279 L903 296 L925 171 L888 150 L610 150 L610 40 L899 40 ZM501 648 Q279 528 232 504 L769 504 Q675 553 501 648 Z" /><glyph glyph-name="uni516B" unicode="&#x516b;" d="M29 -29 L261 809 L473 750 L241 -88 L29 -29 ZM739 809 L971 -29 L759 -88 L527 750 L739 809 Z" /><glyph glyph-name="uni516C" unicode="&#x516c;" d="M532 277 L732 341 L922 -66 L887 -87 L100 -87 L65 -66 L331 459 L532 407 L355 43 L636 43 L532 277 ZM421 745 L190 312 L11 401 L242 835 L421 745 ZM984 401 L805 312 L572 745 L751 835 L984 401 Z" /><glyph glyph-name="uni516D" unicode="&#x516d;" d="M26 -20 L182 402 L381 328 L226 -94 L26 -20 ZM818 402 L973 -20 L774 -94 L618 328 L818 402 ZM934 433 L66 433 L30 454 L52 580 L81 563 L919 563 L948 580 L970 454 L934 433 ZM644 718 L500 574 L356 718 L500 862 L644 718 Z" /><glyph glyph-name="uni5170" unicode="&#x5170;" d="M938 64 L960 -61 L924 -82 L76 -82 L40 -61 L62 64 L91 47 L909 47 L938 64 ZM908 493 L92 493 L55 515 L77 640 L106 623 L184 623 L162 781 L374 806 L401 623 L587 623 L614 806 L827 781 L804 623 L894 623 L923 640 L945 515 L908 493 ZM118 335 L882 335 L911 352 L933 227 L897 205 L103 205 L67 227 L89 352 L118 335 Z" /><glyph glyph-name="uni5173" unicode="&#x5173;" d="M691 257 Q763 117 967 9 L796 -117 Q620 -36 505 157 Q392 -36 215 -117 L43 9 Q248 118 319 257 L75 257 L38 278 L60 403 L89 387 L366 387 Q381 450 387 531 L95 531 L59 552 L81 677 L110 661 L191 661 L160 773 L372 819 L419 661 L594 661 L641 819 L853 773 L822 661 L890 661 L919 677 L941 552 L905 531 L614 531 Q613 464 596 387 L911 387 L940 403 L962 278 L925 257 L691 257 Z" /><glyph glyph-name="uni5174" unicode="&#x5174;" d="M941 266 L59 266 L22 287 L44 413 L73 396 L927 396 L956 413 L978 287 L941 266 ZM323 482 L145 431 L54 749 L232 800 L323 482 ZM611 489 L432 437 L340 760 L519 811 L611 489 ZM947 736 L831 425 L656 490 L773 801 L947 736 ZM42 -4 L211 251 L371 144 L202 -110 L42 -4 ZM632 144 L792 251 L961 -4 L800 -110 L632 144 Z" /><glyph glyph-name="uni5175" unicode="&#x5175;" d="M930 170 L70 170 L34 191 L56 316 L85 299 L135 299 L135 636 L355 636 L355 549 L871 549 L901 566 L923 441 L886 420 L797 420 L797 299 L915 299 L944 316 L966 191 L930 170 ZM355 420 L355 299 L577 299 L577 420 L355 420 ZM883 662 L156 662 L119 683 L141 809 L171 792 L869 792 L898 809 L920 683 L883 662 ZM61 43 L358 154 L415 0 L118 -111 L61 43 ZM584 0 L641 154 L939 43 L882 -111 L584 0 Z" /><glyph glyph-name="uni5176" unicode="&#x5176;" d="M931 102 L704 102 L932 36 L888 -113 L556 -17 L591 102 L409 102 L443 -17 L111 -113 L68 36 L295 102 L69 102 L33 123 L55 248 L84 232 L147 232 L147 627 L77 627 L40 648 L62 773 L91 757 L147 757 L147 807 L357 807 L357 757 L643 757 L643 807 L853 807 L853 757 L909 757 L938 773 L960 648 L923 627 L853 627 L853 232 L916 232 L945 248 L967 123 L931 102 ZM357 627 L357 232 L643 232 L643 277 L387 277 L387 407 L643 407 L643 452 L387 452 L387 582 L643 582 L643 627 L357 627 Z" /><glyph glyph-name="uni5185" unicode="&#x5185;" d="M940 691 L940 -93 L644 -93 L608 -72 L630 54 L659 37 L740 37 L740 561 L592 561 Q588 478 575 402 L729 143 L574 51 L504 169 Q472 101 431 45 L260 123 Q330 231 350 282 Q392 390 395 561 L81 561 L44 582 L66 708 L96 691 L395 691 L395 817 L595 817 L595 691 L940 691 ZM60 -93 L60 536 L260 536 L260 -93 L60 -93 Z" /><glyph glyph-name="uni5199" unicode="&#x5199;" d="M925 418 L348 418 L344 373 L923 373 L923 -93 L472 -93 L438 -73 L458 44 L486 28 L703 28 L703 243 L116 243 L148 593 L55 593 L55 796 L947 796 L947 614 L910 593 L737 593 L737 666 L265 666 L265 612 L366 612 L360 548 L911 548 L940 565 L962 440 L925 418 ZM671 92 L635 71 L70 71 L34 92 L56 217 L85 201 L620 201 L649 217 L671 92 Z" /><glyph glyph-name="uni519B" unicode="&#x519b;" d="M967 32 L930 10 L638 10 L638 -101 L418 -101 L418 10 L70 10 L33 32 L55 157 L84 140 L418 140 L418 195 L120 195 L84 217 L132 400 L92 400 L55 422 L77 547 L106 530 L165 530 L177 576 L55 576 L55 789 L947 789 L947 597 L910 576 L737 576 L737 659 L265 659 L265 607 L398 591 L382 530 L894 530 L923 547 L945 422 L908 400 L349 400 L329 325 L428 325 L428 381 L638 381 L638 325 L858 325 L887 342 L909 217 L873 195 L638 195 L638 140 L916 140 L945 157 L967 32 Z" /><glyph glyph-name="uni51AF" unicode="&#x51af;" d="M694 129 L657 108 L305 108 L268 129 L290 255 L319 238 L643 238 L672 255 L694 129 ZM267 413 L90 385 L28 775 L206 803 L267 413 ZM28 -67 L89 366 L268 341 L206 -93 L28 -67 ZM910 441 L939 441 L939 -88 L541 -88 L505 -67 L527 59 L556 42 L719 42 L719 311 L309 311 L324 635 L537 627 L525 441 L700 441 L700 667 L339 667 L302 688 L324 814 L354 797 L910 797 L910 441 Z" /><glyph glyph-name="uni51C6" unicode="&#x51c6;" d="M913 41 L942 58 L964 -68 L927 -89 L356 -89 L356 418 L287 429 Q334 587 372 824 L568 798 Q555 711 538 635 L688 635 L611 712 L742 843 L873 712 L795 635 L915 635 L944 652 L966 526 L930 505 L847 505 L847 437 L908 437 L937 454 L959 328 L922 307 L847 307 L847 239 L908 239 L937 256 L959 130 L922 109 L847 109 L847 41 L913 41 ZM637 239 L637 307 L566 307 L566 239 L637 239 ZM637 437 L637 505 L566 505 L566 437 L637 437 ZM566 109 L566 41 L637 41 L637 109 L566 109 ZM282 412 L105 384 L43 767 L221 795 L282 412 ZM43 -59 L104 367 L283 341 L221 -85 L43 -59 Z" /><glyph glyph-name="uni51E0" unicode="&#x51e0;" d="M123 632 L343 632 L343 376 Q343 235 325 138 Q300 10 234 -117 L26 -54 Q123 109 123 376 L123 632 ZM963 61 L985 -65 L948 -86 L646 -86 L646 663 L143 663 L107 684 L129 810 L158 793 L866 793 L866 44 L934 44 L963 61 Z" /><glyph glyph-name="uni51E1" unicode="&#x51e1;" d="M953 59 L975 -66 L938 -87 L655 -87 L619 -66 L619 668 L168 668 L131 689 L153 814 L182 798 L844 798 L844 42 L924 42 L953 59 ZM141 644 L357 644 L357 407 Q357 90 210 -113 L9 -47 Q141 143 141 407 L141 644 ZM382 544 L539 558 L581 73 L425 60 L382 544 Z" /><glyph glyph-name="uni51E4" unicode="&#x51e4;" d="M583 169 Q641 90 732 2 L589 -82 Q538 -36 486 30 Q441 -26 393 -77 L248 0 Q332 81 396 170 Q331 290 286 420 L443 455 Q460 399 489 333 Q521 409 535 477 L308 477 L272 498 L294 623 L323 606 L714 606 Q707 475 676 377 Q647 280 593 185 Q591 183 583 169 ZM258 638 L258 268 Q258 -4 195 -117 L13 -74 Q63 29 63 279 L63 638 L258 638 ZM971 53 L993 -72 L957 -93 L743 -93 L743 665 L85 665 L48 686 L70 811 L99 794 L938 794 L938 36 L942 36 L971 53 Z" /><glyph glyph-name="uni51FA" unicode="&#x51fa;" d="M896 366 L610 366 L610 45 L732 45 L732 335 L932 335 L932 -64 L896 -85 L68 -85 L68 335 L268 335 L268 45 L390 45 L390 366 L68 366 L68 786 L268 786 L268 496 L390 496 L390 818 L610 818 L610 496 L732 496 L732 786 L932 786 L932 387 L896 366 Z" /><glyph glyph-name="uni51FB" unicode="&#x51fb;" d="M926 352 L610 352 L610 45 L721 45 L721 273 L921 273 L921 -64 L884 -85 L79 -85 L79 273 L279 273 L279 45 L390 45 L390 352 L74 352 L38 373 L60 498 L89 482 L390 482 L390 591 L105 591 L68 613 L90 738 L119 721 L390 721 L390 819 L610 819 L610 721 L881 721 L910 738 L932 613 L895 591 L610 591 L610 482 L911 482 L940 498 L962 373 L926 352 Z" /><glyph glyph-name="uni5206" unicode="&#x5206;" d="M876 402 L876 -92 L540 -92 L503 -71 L525 54 L554 38 L666 38 L666 272 L423 272 Q359 58 293 -121 L96 -76 Q160 97 214 272 L174 272 L137 293 L159 419 L188 402 L876 402 ZM495 685 L111 408 L6 554 L390 831 L495 685 ZM611 831 L996 554 L890 408 L506 685 L611 831 Z" /><glyph glyph-name="uni5217" unicode="&#x5217;" d="M749 804 L937 804 L937 -93 L630 -93 L593 -72 L615 54 L645 37 L749 37 L749 804 ZM698 744 L698 87 L536 87 L536 744 L698 744 ZM259 659 Q250 585 243 540 L500 540 Q497 61 140 -109 L31 7 Q145 66 217 156 L182 174 L245 297 L288 275 Q316 340 326 410 L223 410 Q200 265 188 201 L23 230 Q66 471 90 659 L69 659 L32 680 L54 806 L83 789 L459 789 L489 806 L511 680 L474 659 L259 659 Z" /><glyph glyph-name="uni5218" unicode="&#x5218;" d="M754 804 L937 804 L937 -88 L642 -88 L606 -67 L628 59 L657 42 L754 42 L754 804 ZM704 749 L704 92 L537 92 L537 749 L704 749 ZM374 164 Q429 93 539 -2 L404 -104 Q331 -42 276 23 Q222 -41 148 -104 L12 -2 Q120 89 177 166 Q88 328 57 556 L216 579 Q230 451 272 342 Q313 457 319 602 L66 602 L29 623 L51 749 L80 732 L170 732 L170 806 L380 806 L380 732 L470 732 L499 749 L521 623 L484 602 Q469 341 374 164 Z" /><glyph glyph-name="uni5219" unicode="&#x5219;" d="M417 665 L82 665 L45 686 L68 812 L97 795 L554 795 L554 164 L417 164 L417 665 ZM61 164 L61 637 L198 637 L198 164 L61 164 ZM384 616 L384 283 Q384 7 121 -108 L26 8 Q147 61 192 132 Q231 192 231 295 L231 616 L384 616 ZM333 17 L445 128 L560 13 L449 -98 L333 17 ZM773 804 L937 804 L937 -88 L681 -88 L645 -67 L667 59 L696 42 L773 42 L773 804 ZM739 749 L739 92 L588 92 L588 749 L739 749 Z" /><glyph glyph-name="uni521B" unicode="&#x521b;" d="M752 804 L937 804 L937 -88 L643 -88 L606 -67 L628 59 L657 42 L752 42 L752 804 ZM721 749 L721 111 L560 111 L560 749 L721 749 ZM313 249 L327 249 L327 323 L90 323 L54 344 L76 475 L105 453 L494 453 L494 126 L300 126 L265 146 L286 270 L313 249 ZM496 43 L525 60 L547 -65 L510 -86 L69 -86 L69 300 L242 300 L242 43 L496 43 ZM279 821 L338 762 Q436 664 551 562 L433 461 Q306 575 279 604 Q250 571 130 466 L7 562 Q111 653 220 762 L279 821 Z" /><glyph glyph-name="uni5229" unicode="&#x5229;" d="M749 804 L937 804 L937 -88 L612 -88 L576 -67 L598 59 L627 42 L749 42 L749 804 ZM711 749 L711 92 L537 92 L537 749 L711 749 ZM462 527 L491 544 L513 419 L477 398 L381 398 L381 -96 L171 -96 L171 398 L75 398 L38 419 L60 544 L90 527 L171 527 L171 666 L50 666 L50 796 L450 796 L479 812 L501 687 L465 666 L381 666 L381 527 L462 527 ZM52 -75 L71 364 L151 361 L132 -79 L52 -75 ZM400 361 L480 364 L500 -75 L420 -79 L400 361 Z" /><glyph glyph-name="uni522B" unicode="&#x522b;" d="M535 788 L535 414 L500 393 L80 393 L80 634 L265 634 L265 520 L351 520 L351 661 L99 661 L63 682 L85 805 L113 788 L535 788 ZM535 320 L535 -86 L317 -86 L281 -65 L303 60 L332 44 L350 44 L350 190 L277 190 Q258 25 239 -96 L65 -72 L98 190 L84 190 L47 211 L69 337 L98 320 L114 320 L121 378 L295 360 L293 340 Q291 326 291 320 L535 320 ZM758 804 L937 804 L937 -88 L664 -88 L627 -67 L649 59 L679 42 L758 42 L758 804 ZM721 728 L721 92 L570 92 L570 728 L721 728 Z" /><glyph glyph-name="uni5230" unicode="&#x5230;" d="M758 804 L940 804 L940 -88 L653 -88 L616 -67 L638 59 L667 42 L758 42 L758 804 ZM716 746 L716 112 L563 112 L563 746 L716 746 ZM104 662 L80 662 L43 683 L65 808 L95 791 L480 791 L510 808 L532 683 L495 662 L286 662 L253 498 L336 498 L314 599 L479 632 L535 389 L499 368 L85 368 L49 389 L104 662 ZM497 44 L527 61 L549 -64 L512 -85 L54 -85 L54 44 L183 44 L183 140 L84 140 L48 161 L70 286 L99 269 L183 269 L183 339 L403 339 L403 269 L487 269 L517 286 L539 161 L502 140 L403 140 L403 44 L497 44 Z" /><glyph glyph-name="uni524D" unicode="&#x524d;" d="M67 -88 L67 389 L249 389 L249 -88 L67 -88 ZM75 557 L104 541 L529 541 L529 -88 L309 -88 L276 -69 L296 42 L322 27 L347 27 L347 78 L274 78 L274 203 L347 203 L347 246 L274 246 L274 371 L347 371 L347 416 L89 416 L54 436 L75 557 ZM764 42 L764 559 L937 559 L937 -88 L645 -88 L608 -67 L630 59 L660 42 L764 42 ZM720 509 L720 92 L573 92 L573 509 L720 509 ZM929 590 L71 590 L34 611 L56 736 L85 719 L185 719 L170 797 L386 820 L405 719 L595 719 L614 820 L830 797 L815 719 L915 719 L944 736 L966 611 L929 590 Z" /><glyph glyph-name="uni529B" unicode="&#x529b;" d="M938 702 L938 -89 L537 -89 L500 -68 L522 57 L552 40 L718 40 L718 572 L394 572 L312 -111 L98 -88 L178 572 L66 572 L29 593 L51 719 L80 702 L193 702 L209 833 L423 811 L409 702 L938 702 Z" /><glyph glyph-name="uni529E" unicode="&#x529e;" d="M792 725 L792 -95 L493 -95 L457 -74 L479 51 L508 35 L592 35 L592 596 L493 596 L390 -104 L182 -86 L281 596 L102 596 L65 617 L87 742 L116 725 L300 725 L314 816 L522 799 L512 725 L792 725 ZM94 539 L227 520 L168 112 L34 132 L94 539 ZM934 579 L981 120 L847 107 L800 566 L934 579 Z" /><glyph glyph-name="uni529F" unicode="&#x529f;" d="M938 702 L938 -89 L708 -89 L671 -68 L693 57 L723 40 L738 40 L738 572 L678 572 L644 -101 L444 -91 L478 572 L471 572 L435 593 L457 719 L485 702 L491 826 L691 815 L685 702 L938 702 ZM389 645 L331 645 L331 54 L369 54 L399 70 L421 -55 L384 -76 L59 -76 L59 54 L121 54 L121 645 L63 645 L27 666 L49 791 L78 775 L374 775 L403 791 L425 666 L389 645 Z" /><glyph glyph-name="uni52A0" unicode="&#x52a0;" d="M516 741 L516 -89 L293 -89 L257 -68 L279 57 L308 40 L316 40 L316 611 L278 611 Q259 245 236 -97 L47 -85 Q73 315 87 611 L59 611 L23 632 L45 758 L74 741 L94 741 L97 815 L287 806 L284 741 L516 741 ZM943 780 L943 -80 L560 -80 L560 620 L728 620 L728 50 L775 50 L775 651 L575 651 L539 672 L561 797 L590 780 L943 780 Z" /><glyph glyph-name="uni52A8" unicode="&#x52a8;" d="M447 652 L95 652 L58 674 L80 799 L109 782 L432 782 L461 799 L483 674 L447 652 ZM277 325 L239 44 L311 44 L284 245 L450 268 L496 -64 L460 -86 L80 -86 L45 -64 L96 325 L65 325 L28 346 L50 471 L79 455 L446 455 L476 471 L498 346 L461 325 L277 325 ZM938 741 L938 -89 L733 -89 L696 -68 L718 57 L748 40 L748 611 L718 611 L688 -100 L508 -92 L538 611 L527 611 L490 632 L513 758 L543 741 L547 822 L727 814 L723 741 L938 741 Z" /><glyph glyph-name="uni52A9" unicode="&#x52a9;" d="M938 741 L938 -89 L741 -89 L707 -70 L727 46 L748 33 L748 611 L718 611 L699 -104 L522 -99 L523 -69 L492 -87 L45 -87 L45 43 L70 43 L70 638 L246 638 L246 43 L312 43 L312 163 L264 163 L264 293 L312 293 L312 413 L264 413 L264 543 L312 543 L312 663 L91 663 L55 684 L77 810 L106 793 L488 793 L488 49 L507 60 L524 -40 L542 611 L536 611 L499 632 L521 758 L546 743 L548 820 L724 816 L722 741 L938 741 Z" /><glyph glyph-name="uni52B1" unicode="&#x52b1;" d="M547 662 L88 662 L52 683 L74 808 L103 792 L532 792 L562 808 L584 683 L547 662 ZM537 488 L408 488 L404 425 L567 425 L567 -85 L418 -85 L385 -66 L405 46 L425 35 L425 295 L397 295 L375 -90 L238 -82 L270 488 L234 509 L256 635 L285 618 L522 618 L551 635 L573 509 L537 488 ZM64 643 L225 643 L225 185 Q225 68 201 -96 L42 -77 Q66 46 64 218 L64 643 ZM938 741 L938 -84 L783 -84 L747 -63 L769 62 L785 53 L785 611 L758 611 L736 -91 L590 -86 L613 612 L577 632 L599 758 L617 748 L619 811 L764 806 L762 741 L938 741 Z" /><glyph glyph-name="uni5305" unicode="&#x5305;" d="M727 623 L99 623 L62 644 L62 814 L282 814 L282 753 L927 753 L927 80 L538 80 L501 101 L523 226 L552 210 L727 210 L727 623 ZM953 58 L975 -67 L938 -88 L66 -88 L66 421 L276 421 L276 370 L458 370 L458 449 L77 449 L40 470 L62 595 L91 579 L658 579 L658 261 L621 240 L276 240 L276 42 L923 42 L953 58 Z" /><glyph glyph-name="uni5316" unicode="&#x5316;" d="M921 44 L950 61 L972 -65 L936 -86 L577 -86 L540 -65 L540 273 L445 229 L377 376 L540 451 L540 807 L750 807 L750 549 L910 624 L978 477 L750 370 L750 44 L921 44 ZM364 768 Q316 606 256 460 L329 460 L329 -97 L119 -97 L119 396 L19 427 Q95 596 159 817 L364 768 Z" /><glyph glyph-name="uni533A" unicode="&#x533a;" d="M931 663 L76 663 L40 685 L62 810 L91 793 L916 793 L946 810 L968 685 L931 663 ZM916 42 L946 59 L968 -66 L931 -87 L60 -87 L60 640 L280 640 L280 42 L916 42 ZM837 647 L942 531 L750 356 L942 181 L837 65 L633 250 L430 65 L325 181 L517 356 L325 531 L430 647 L633 462 L837 647 Z" /><glyph glyph-name="uni5341" unicode="&#x5341;" d="M966 404 L930 382 L610 382 L610 -104 L390 -104 L390 382 L70 382 L34 404 L56 529 L85 512 L390 512 L390 812 L610 812 L610 512 L915 512 L944 529 L966 404 Z" /><glyph glyph-name="uni5347" unicode="&#x5347;" d="M977 333 L941 312 L840 312 L840 -95 L630 -95 L630 312 L374 312 Q356 81 262 -106 L54 -55 Q145 127 163 312 L59 312 L23 333 L45 458 L74 442 L167 442 L167 664 L56 664 L56 794 L489 794 L519 811 L541 686 L504 664 L377 664 L377 442 L630 442 L630 811 L840 811 L840 442 L926 442 L955 458 L977 333 Z" /><glyph glyph-name="uni534E" unicode="&#x534e;" d="M915 186 L944 203 L966 78 L930 57 L610 57 L610 -108 L390 -108 L390 57 L70 57 L34 78 L56 203 L85 186 L390 186 L390 250 L610 250 L610 186 L915 186 ZM917 396 L947 413 L969 288 L932 266 L554 266 L554 438 L431 398 L383 545 L554 600 L554 804 L764 804 L764 669 L927 722 L975 575 L764 506 L764 396 L917 396 ZM123 265 L123 484 L21 522 Q97 654 165 825 L355 769 Q319 675 276 590 L333 590 L333 265 L123 265 Z" /><glyph glyph-name="uni534F" unicode="&#x534f;" d="M852 696 L852 -89 L647 -89 L610 -68 L632 57 L661 40 L672 40 L672 566 L622 566 L579 -100 L410 -90 L452 566 L377 566 L340 587 L363 713 L392 696 L460 696 L468 812 L637 802 L630 696 L852 696 ZM342 486 L306 465 L276 465 L276 -92 L96 -92 L96 465 L53 465 L17 486 L39 612 L68 595 L96 595 L96 800 L276 800 L276 595 L291 595 L320 612 L342 486 ZM332 452 L422 444 L396 132 L306 139 L332 452 ZM951 451 L970 164 L885 159 L866 446 L951 451 Z" /><glyph glyph-name="uni5353" unicode="&#x5353;" d="M970 0 L933 -21 L610 -21 L610 -106 L390 -106 L390 -21 L67 -21 L30 0 L52 125 L81 108 L390 108 L390 150 L95 150 L95 458 L295 458 L295 280 L705 280 L705 314 L328 314 L328 444 L705 444 L705 479 L122 479 L86 500 L108 625 L137 608 L373 608 L373 812 L593 812 L593 764 L898 764 L925 780 L946 662 L912 642 L593 642 L593 608 L905 608 L905 171 L868 150 L610 150 L610 108 L919 108 L948 125 L970 0 Z" /><glyph glyph-name="uni5355" unicode="&#x5355;" d="M954 29 L917 8 L605 8 L605 -103 L395 -103 L395 8 L83 8 L46 29 L68 154 L98 138 L395 138 L395 195 L82 195 L82 541 L285 541 L285 509 L395 509 L395 566 L109 566 L72 587 L94 712 L123 695 L192 695 L173 776 L384 817 L413 695 L587 695 L616 817 L827 776 L808 695 L918 695 L918 221 L873 195 L605 195 L605 138 L902 138 L932 154 L954 29 ZM605 326 L718 326 L718 381 L605 381 L605 326 ZM605 566 L605 509 L718 509 L718 566 L605 566 ZM285 326 L395 326 L395 381 L285 381 L285 326 Z" /><glyph glyph-name="uni535A" unicode="&#x535a;" d="M536 660 L332 660 L304 676 L321 772 L343 759 L536 759 L536 807 L736 807 L736 759 L769 759 L769 794 L912 794 L912 759 L929 759 L952 772 L968 676 L940 660 L736 660 L736 633 L937 633 L937 249 L762 249 L762 291 L724 291 L724 248 L548 248 L548 291 L510 291 L510 248 L335 248 L335 517 L510 517 L510 499 L548 499 L548 534 L347 534 L319 550 L336 645 L358 633 L536 633 L536 660 ZM510 381 L548 381 L548 410 L510 410 L510 381 ZM724 381 L762 381 L762 410 L724 410 L724 381 ZM762 499 L762 534 L724 534 L724 499 L762 499 ZM929 204 L952 217 L968 121 L940 105 L913 105 L913 -87 L638 -87 L610 -71 L627 24 L649 12 L723 12 L723 105 L332 105 L304 121 L321 217 L343 204 L723 204 L723 232 L913 232 L913 204 L929 204 ZM366 -4 L463 94 L561 -4 L463 -102 L366 -4 ZM313 473 L276 452 L260 452 L260 -87 L70 -87 L70 452 L55 452 L18 473 L40 599 L70 582 L70 803 L260 803 L260 582 L291 599 L313 473 Z" /><glyph glyph-name="uni5360" unicode="&#x5360;" d="M932 573 L610 573 L610 440 L928 440 L928 -66 L891 -87 L72 -87 L72 283 L277 283 L277 43 L723 43 L723 310 L94 310 L57 331 L79 457 L108 440 L390 440 L390 821 L610 821 L610 702 L918 702 L947 719 L969 594 L932 573 Z" /><glyph glyph-name="uni536B" unicode="&#x536b;" d="M940 63 L962 -63 L925 -84 L75 -84 L38 -63 L60 63 L89 46 L269 46 L269 663 L90 663 L54 684 L76 809 L105 792 L924 792 L924 198 L579 198 L542 219 L564 345 L594 328 L709 328 L709 663 L489 663 L489 46 L911 46 L940 63 Z" /><glyph glyph-name="uni5373" unicode="&#x5373;" d="M940 791 L940 17 L772 17 L734 38 L757 164 L778 153 L778 661 L565 661 L528 682 L550 807 L581 791 L940 791 ZM544 -102 L544 640 L720 640 L720 -102 L544 -102 ZM473 191 L504 -62 L463 -83 L56 -83 L56 641 L245 641 L245 353 L313 353 L313 448 L268 448 L268 568 L313 568 L313 663 L81 663 L43 685 L66 810 L96 793 L502 793 L502 244 L465 223 L251 223 L251 47 L325 47 L308 171 L473 191 Z" /><glyph glyph-name="uni539A" unicode="&#x539a;" d="M72 663 L262 663 L262 182 Q262 39 232 -113 L47 -78 Q74 30 72 215 L72 663 ZM923 685 L90 685 L59 703 L77 807 L102 793 L911 793 L935 807 L953 703 L923 685 ZM304 537 L494 537 L494 397 L738 397 L738 426 L517 426 L517 524 L738 524 L738 554 L319 554 L290 570 L308 665 L330 652 L928 652 L928 314 L900 298 L304 298 L304 537 ZM969 55 L941 39 L752 39 L752 -92 L442 -92 L415 -76 L431 19 L453 6 L552 6 L552 39 L303 39 L275 55 L292 150 L314 138 L591 138 L634 170 L319 170 L292 186 L308 281 L331 269 L927 269 L927 228 L809 138 L930 138 L952 150 L969 55 Z" /><glyph glyph-name="uni539F" unicode="&#x539f;" d="M68 643 L283 643 L283 182 Q283 32 249 -113 L39 -78 Q72 31 68 215 L68 643 ZM928 663 L86 663 L49 684 L71 810 L100 793 L914 793 L943 810 L965 684 L928 663 ZM900 179 L739 179 L739 -96 L519 -96 L486 -77 L506 37 L529 24 L529 179 L324 179 L324 455 L534 455 L534 305 L726 305 L726 335 L563 335 L563 448 L726 448 L726 477 L353 477 L318 498 L339 619 L368 603 L529 603 L529 642 L739 642 L739 603 L936 603 L936 200 L900 179 ZM398 159 L509 48 L398 -63 L288 48 L398 159 ZM868 159 L978 48 L868 -63 L757 48 L868 159 Z" /><glyph glyph-name="uni53BB" unicode="&#x53bb;" d="M602 208 L798 259 L930 -64 L894 -86 L109 -86 L74 -64 L237 316 L74 316 L38 337 L60 463 L89 446 L390 446 L390 577 L105 577 L68 598 L90 724 L119 707 L390 707 L390 818 L610 818 L610 707 L881 707 L910 724 L932 598 L895 577 L610 577 L610 446 L911 446 L940 463 L962 337 L926 316 L461 316 L344 44 L671 44 L602 208 Z" /><glyph glyph-name="uni53C2" unicode="&#x53c2;" d="M123 596 L88 617 L197 825 L393 772 L356 708 L646 708 L613 767 L801 818 L915 617 L879 596 L123 596 ZM171 195 L164 270 Q132 262 64 248 L20 368 Q140 391 249 428 L81 428 L46 448 L67 567 L95 551 L390 551 L390 585 L610 585 L610 551 L905 551 L933 567 L954 448 L919 428 L751 428 Q859 392 981 368 L937 248 Q859 264 782 284 L785 252 L171 195 ZM500 401 Q433 355 329 319 L606 345 Q548 369 500 401 ZM128 46 L118 154 L872 225 L882 117 L128 46 ZM85 3 L936 83 L946 -25 L95 -105 L85 3 Z" /><glyph glyph-name="uni53CA" unicode="&#x53ca;" d="M883 -117 Q778 -39 684 35 Q543 -60 344 -104 L268 42 Q429 91 534 152 Q368 285 296 346 L407 480 Q544 368 673 265 Q719 319 740 384 L594 384 L594 442 L709 662 L308 662 Q279 300 227 -101 L39 -77 Q83 263 118 662 L78 662 L41 683 L63 809 L92 792 L938 792 L938 725 L833 514 L951 514 Q951 312 817 153 Q931 65 988 23 L883 -117 Z" /><glyph glyph-name="uni53CC" unicode="&#x53cc;" d="M799 201 Q861 122 997 -9 L857 -113 Q766 -29 703 51 Q651 -21 570 -116 L422 -22 Q532 97 601 198 Q502 367 464 579 L622 614 Q653 467 699 366 Q764 502 782 650 L504 650 L467 671 L489 796 L519 780 L953 780 Q953 473 799 201 ZM346 -44 Q294 14 256 65 Q206 -24 153 -95 L14 -19 Q100 92 157 218 Q83 357 40 580 L185 608 Q205 523 232 439 Q256 541 265 650 L71 650 L35 671 L57 796 L86 780 L445 780 Q435 478 333 226 Q374 165 469 59 L346 -44 Z" /><glyph glyph-name="uni53D1" unicode="&#x53d1;" d="M957 417 Q954 236 806 93 Q868 58 975 10 L845 -111 Q753 -73 659 -15 Q553 -75 411 -113 L292 14 Q412 51 506 96 Q434 157 376 224 L538 281 Q586 232 652 186 Q710 234 739 287 L387 287 Q381 269 377 260 Q305 61 212 -132 L32 -45 Q152 204 243 484 L87 484 L50 505 L92 805 L293 791 L268 614 L283 614 Q313 713 343 831 L537 781 Q509 676 491 614 L925 614 L955 631 L977 505 L940 484 L453 484 L443 451 Q436 428 432 417 L957 417 ZM865 668 L640 634 L618 785 L843 819 L865 668 Z" /><glyph glyph-name="uni53D6" unicode="&#x53d6;" d="M526 16 L489 -5 L472 -5 L472 -101 L308 -101 L308 -5 L47 -5 L47 124 L65 124 L65 638 L229 638 L229 124 L308 124 L308 218 L249 218 L249 348 L308 348 L308 440 L249 440 L249 570 L308 570 L308 663 L70 663 L33 684 L55 810 L84 793 L467 793 L496 810 L518 684 L482 663 L472 663 L472 124 L475 124 L504 141 L526 16 ZM855 -108 Q796 -45 741 34 Q701 -34 646 -108 L501 -35 Q589 75 648 191 Q558 368 518 585 L665 609 Q685 488 726 380 Q767 508 780 650 L571 650 L534 671 L556 796 L585 780 L935 780 Q935 460 823 195 Q879 109 985 -12 L855 -108 Z" /><glyph glyph-name="uni53D7" unicode="&#x53d7;" d="M262 428 L262 369 L52 369 L52 558 L126 558 L114 632 L317 647 L331 558 L398 558 L387 632 L590 647 L604 558 L671 558 L685 647 L888 632 L876 558 L948 558 L948 390 L911 369 L738 369 L738 428 L262 428 ZM949 688 L914 668 L56 668 L56 791 L900 791 L928 807 L949 688 ZM891 -108 Q658 -72 483 -21 Q320 -80 122 -107 L37 27 Q154 46 241 67 Q191 89 119 128 L246 214 L134 214 L97 235 L119 360 L148 344 L940 344 Q909 210 710 87 Q860 55 972 43 L891 -108 ZM286 214 Q373 175 489 142 Q569 174 629 214 L286 214 Z" /><glyph glyph-name="uni53D8" unicode="&#x53d8;" d="M254 637 L84 637 L47 658 L70 783 L99 767 L390 767 L390 818 L610 818 L610 767 L901 767 L931 783 L953 658 L916 637 L746 637 L746 409 L556 409 L556 637 L444 637 L444 409 L254 409 L254 637 ZM238 512 L137 411 L36 512 L137 614 L238 512 ZM762 512 L863 614 L964 512 L863 411 L762 512 ZM928 372 Q890 222 670 82 Q756 60 964 16 L882 -118 Q583 -44 487 -13 Q330 -81 133 -118 L42 14 Q160 36 267 67 Q183 103 103 145 L222 241 Q340 187 471 142 Q561 185 632 243 L119 243 L83 264 L105 389 L134 372 L928 372 Z" /><glyph glyph-name="uni53E3" unicode="&#x53e3;" d="M916 761 L916 -32 L879 -53 L84 -53 L84 603 L294 603 L294 77 L706 77 L706 631 L109 631 L73 652 L95 778 L124 761 L916 761 Z" /><glyph glyph-name="uni53EA" unicode="&#x53ea;" d="M707 662 L104 662 L67 683 L89 809 L119 792 L917 792 L917 305 L881 284 L82 284 L82 634 L292 634 L292 414 L707 414 L707 662 ZM17 6 L280 270 L415 136 L151 -128 L17 6 ZM721 270 L984 6 L850 -128 L586 136 L721 270 Z" /><glyph glyph-name="uni53EF" unicode="&#x53ef;" d="M76 418 L276 418 L276 224 L414 224 L414 451 L92 451 L55 472 L77 598 L106 581 L616 581 L616 115 L579 94 L76 94 L76 418 ZM954 809 L976 683 L939 662 L66 662 L29 683 L51 809 L80 792 L925 792 L954 809 ZM699 31 L699 638 L909 638 L909 -88 L383 -88 L350 -69 L370 46 L397 31 L699 31 Z" /><glyph glyph-name="uni53F0" unicode="&#x53f0;" d="M806 761 L954 442 L919 421 L82 421 L47 442 L215 822 L412 769 L311 551 L690 551 L617 710 L806 761 ZM903 343 L903 -64 L866 -85 L97 -85 L97 183 L307 183 L307 44 L693 44 L693 214 L116 214 L79 235 L101 360 L130 343 L903 343 Z" /><glyph glyph-name="uni53F2" unicode="&#x53f2;" d="M915 -96 Q671 -51 434 21 Q334 -68 166 -108 L23 10 Q158 58 218 92 Q129 125 58 155 L146 291 Q228 256 346 214 Q370 259 382 320 L65 320 L65 559 L266 559 L266 450 L395 450 L395 589 L94 589 L57 610 L79 735 L108 718 L395 718 L395 817 L605 817 L605 718 L935 718 L935 341 L898 320 L592 320 Q575 225 538 155 Q747 96 978 54 L915 -96 ZM604 450 L734 450 L734 589 L605 589 L604 450 Z" /><glyph glyph-name="uni53F6" unicode="&#x53f6;" d="M986 424 L950 403 L822 403 L822 -101 L612 -101 L612 403 L484 403 L447 424 L469 550 L498 533 L612 533 L612 809 L822 809 L822 533 L935 533 L964 550 L986 424 ZM427 785 L427 -54 L390 -75 L66 -75 L66 623 L225 623 L225 55 L269 55 L269 655 L82 655 L45 677 L67 802 L97 785 L427 785 Z" /><glyph glyph-name="uni53F7" unicode="&#x53f7;" d="M656 666 L144 666 L107 687 L129 812 L158 795 L866 795 L866 482 L829 461 L121 461 L121 645 L321 645 L321 591 L656 591 L656 666 ZM943 289 L343 289 L343 240 L874 240 L874 -69 L837 -90 L353 -90 L316 -69 L338 57 L368 40 L664 40 L664 110 L133 110 L133 289 L66 289 L29 310 L51 435 L80 419 L928 419 L958 435 L980 310 L943 289 Z" /><glyph glyph-name="uni5408" unicode="&#x5408;" d="M542 830 Q759 699 989 579 L915 437 Q878 456 804 496 L815 432 L778 411 L222 411 L185 432 L196 496 L86 437 L12 579 Q242 699 459 830 L500 854 L542 830 ZM722 541 Q572 625 500 668 Q413 616 279 541 L722 541 ZM854 329 L854 -66 L817 -87 L146 -87 L146 172 L356 172 L356 42 L644 42 L644 200 L165 200 L128 221 L150 346 L179 329 L854 329 Z" /><glyph glyph-name="uni540C" unicode="&#x540c;" d="M673 482 L327 482 L290 503 L312 628 L341 611 L658 611 L688 628 L710 503 L673 482 ZM940 797 L940 -93 L599 -93 L563 -72 L585 54 L614 37 L740 37 L740 667 L81 667 L44 689 L66 814 L96 797 L940 797 ZM60 -93 L60 642 L260 642 L260 -93 L60 -93 ZM311 290 L484 290 L484 191 L516 191 L516 314 L329 314 L297 332 L316 441 L342 426 L689 426 L689 99 L652 78 L311 78 L311 290 Z" /><glyph glyph-name="uni540D" unicode="&#x540d;" d="M943 312 L943 -67 L906 -88 L165 -88 L165 158 L375 158 L375 42 L733 42 L733 183 L195 183 L159 204 L164 235 Q145 232 105 224 L17 376 Q210 407 349 457 L297 501 L408 612 L507 527 Q600 578 659 640 L372 640 Q295 532 219 473 L45 535 Q156 647 274 825 L460 785 L453 770 L941 770 Q941 675 839 560 Q703 408 444 312 L943 312 Z" /><glyph glyph-name="uni540E" unicode="&#x540e;" d="M940 385 L940 -64 L903 -85 L349 -85 L349 229 L550 229 L550 44 L741 44 L741 257 L373 257 L336 278 L358 402 L387 385 L940 385 ZM64 643 L267 643 L267 182 Q267 39 237 -113 L39 -78 Q68 32 64 215 L64 643 ZM921 663 L86 663 L49 684 L71 810 L100 793 L906 793 L935 810 L958 684 L921 663 ZM970 480 L934 459 L326 459 L289 480 L311 606 L340 589 L919 589 L948 606 L970 480 Z" /><glyph glyph-name="uni5410" unicode="&#x5410;" d="M406 789 L406 -52 L371 -72 L66 -72 L66 631 L215 631 L215 58 L257 58 L257 659 L89 659 L53 680 L75 805 L104 789 L406 789 ZM953 58 L975 -67 L938 -88 L454 -88 L417 -67 L439 58 L469 42 L586 42 L586 454 L473 454 L437 475 L459 601 L488 584 L586 584 L586 816 L806 816 L806 584 L904 584 L933 601 L955 475 L919 454 L806 454 L806 42 L923 42 L953 58 Z" /><glyph glyph-name="uni5411" unicode="&#x5411;" d="M61 -95 L61 601 L271 601 L271 -95 L61 -95 ZM940 -93 L587 -93 L550 -71 L572 54 L601 37 L730 37 L730 623 L86 623 L49 644 L71 770 L101 753 L391 753 L391 818 L611 818 L611 753 L940 753 L940 -93 ZM643 94 L321 94 L321 391 L481 391 L481 214 L521 214 L521 415 L343 415 L310 435 L330 551 L357 535 L680 535 L680 115 L643 94 Z" /><glyph glyph-name="uni5412" unicode="&#x5412;" d="M427 785 L427 -54 L390 -75 L66 -75 L66 630 L225 630 L225 55 L269 55 L269 655 L82 655 L45 677 L67 802 L97 785 L427 785 ZM941 265 L820 265 L820 40 L923 40 L952 57 L974 -69 L938 -90 L610 -90 L610 265 L483 265 L447 286 L469 412 L498 395 L610 395 L610 666 L471 666 L471 796 L926 796 L956 812 L978 687 L941 666 L820 666 L820 395 L926 395 L956 412 L978 286 L941 265 Z" /><glyph glyph-name="uni541B" unicode="&#x541b;" d="M359 315 Q355 304 354 296 L345 266 L932 266 L932 -65 L895 -86 L286 -86 L286 83 Q249 -19 211 -102 L11 -53 Q97 140 149 315 L99 315 L63 336 L85 462 L114 445 L183 445 Q188 463 193 489 L71 489 L34 510 L56 636 L85 619 L217 619 L223 663 L99 663 L63 684 L85 809 L114 792 L920 792 L920 619 L923 619 L953 636 L975 510 L938 489 L920 489 L920 336 L883 315 L359 315 ZM424 663 Q423 646 419 619 L710 619 L710 663 L424 663 ZM399 489 L390 445 L710 445 L710 489 L399 489 ZM323 136 L308 145 L297 114 L492 114 L492 44 L726 44 L726 136 L323 136 Z" /><glyph glyph-name="uni5434" unicode="&#x5434;" d="M931 109 L639 109 L961 17 L918 -110 L500 9 L83 -110 L40 17 L362 109 L71 109 L34 130 L56 255 L85 239 L391 239 L391 299 L96 299 L60 320 L82 445 L111 429 L891 429 L920 445 L942 320 L905 299 L611 299 L611 239 L916 239 L945 255 L967 130 L931 109 ZM701 662 L110 662 L73 683 L95 808 L124 792 L911 792 L911 502 L874 481 L89 481 L89 637 L299 637 L299 610 L701 610 L701 662 Z" /><glyph glyph-name="uni5458" unicode="&#x5458;" d="M689 666 L127 666 L90 687 L112 812 L141 795 L899 795 L899 483 L101 483 L101 646 L311 646 L311 612 L689 612 L689 666 ZM705 316 L108 316 L71 337 L93 463 L122 446 L915 446 L915 115 L705 115 L705 316 ZM957 23 L917 -111 L500 7 L85 -112 L44 22 L395 122 L395 283 L605 283 L605 122 L957 23 ZM83 105 L83 293 L293 293 L293 105 L83 105 Z" /><glyph glyph-name="uni5468" unicode="&#x5468;" d="M267 648 L267 241 Q267 -9 230 -110 L33 -84 Q67 36 67 222 L67 648 L267 648 ZM937 791 L937 -93 L618 -93 L586 -74 L605 34 L630 20 L727 20 L727 668 L81 668 L47 688 L67 806 L95 791 L937 791 ZM645 45 L318 45 L318 172 L485 172 L485 144 L515 144 L515 192 L333 192 L305 208 L322 304 L344 291 L682 291 L682 66 L645 45 ZM333 437 L405 437 L405 482 L336 482 L303 501 L323 613 L349 598 L405 598 L405 641 L595 641 L595 598 L651 598 L677 613 L697 501 L664 482 L595 482 L595 437 L667 437 L693 452 L713 340 L680 321 L320 321 L287 340 L307 452 L333 437 Z" /><glyph glyph-name="uni548C" unicode="&#x548c;" d="M457 527 L486 544 L508 419 L472 398 L378 398 L378 -96 L168 -96 L168 398 L73 398 L37 419 L59 544 L88 527 L168 527 L168 666 L53 666 L53 796 L447 796 L476 812 L498 687 L462 666 L378 666 L378 527 L457 527 ZM49 -78 L68 362 L148 358 L129 -82 L49 -78 ZM397 358 L477 362 L496 -78 L416 -82 L397 358 ZM939 785 L939 -54 L902 -75 L530 -75 L530 623 L710 623 L710 55 L760 55 L760 655 L554 655 L518 677 L540 802 L569 785 L939 785 Z" /><glyph glyph-name="uni54C1" unicode="&#x54c1;" d="M701 662 L114 662 L77 683 L99 808 L128 791 L911 791 L911 410 L874 389 L91 389 L91 638 L291 638 L291 518 L701 518 L701 662 ZM943 347 L943 -64 L906 -85 L524 -85 L524 194 L709 194 L709 44 L758 44 L758 218 L547 218 L510 239 L532 364 L561 347 L943 347 ZM479 347 L479 -64 L442 -85 L60 -85 L60 194 L245 194 L245 44 L294 44 L294 218 L83 218 L46 239 L68 364 L97 347 L479 347 Z" /><glyph glyph-name="uni54D2" unicode="&#x54d2;" d="M359 785 L359 -75 L66 -75 L66 623 L197 623 L197 55 L228 55 L228 655 L82 655 L45 677 L67 802 L97 785 L359 785 ZM601 697 L494 589 L386 697 L494 805 L601 697 ZM950 60 L972 -66 L936 -87 L437 -87 L400 -66 L400 446 L373 462 L395 587 L424 570 L567 570 L567 43 L921 43 L950 60 ZM625 526 L588 548 L610 673 L640 656 L674 656 L674 809 L840 809 L840 656 L909 656 L938 673 L960 548 L924 526 L837 526 L834 478 L872 488 L969 116 L835 80 L796 228 Q776 143 737 62 L577 108 Q659 298 671 526 L625 526 Z" /><glyph glyph-name="uni54EA" unicode="&#x54ea;" d="M303 785 L303 -54 L266 -75 L63 -75 L63 635 L171 635 L171 55 L196 55 L196 655 L87 655 L50 677 L72 802 L102 785 L303 785 ZM661 -92 L661 641 L794 641 L794 -92 L661 -92 ZM821 351 L942 351 L942 15 L884 -50 L799 43 L821 69 L821 351 ZM824 662 L682 662 L646 683 L668 809 L697 792 L942 792 L942 415 L824 360 L824 662 ZM338 809 L367 792 L634 792 L634 -84 L491 -84 L458 -65 L478 48 L502 34 L502 173 L474 173 Q462 31 431 -94 L313 -72 Q313 -79 329 0 Q346 86 353 173 L316 194 L338 320 L359 308 L359 411 L352 411 L316 432 L338 557 L359 545 L359 639 L479 639 L479 541 L502 541 L502 662 L352 662 L316 683 L338 809 ZM479 303 L502 303 L502 411 L479 411 L479 303 Z" /><glyph glyph-name="uni5510" unicode="&#x5510;" d="M64 626 L261 626 L261 194 Q261 43 231 -100 L39 -75 Q66 32 64 218 L64 626 ZM904 652 L85 652 L52 670 L72 794 L98 779 L433 779 L433 817 L653 817 L653 779 L891 779 L917 794 L937 670 L904 652 ZM951 378 L919 359 L909 359 L909 239 L873 219 L675 219 L675 183 L907 183 L907 -63 L870 -84 L303 -84 L303 58 L503 58 L503 27 L707 27 L707 71 L324 71 L293 90 L312 197 L337 183 L465 183 L465 219 L324 219 L293 237 L312 345 L337 330 L465 330 L465 359 L303 359 L271 378 L291 489 L316 474 L465 474 L465 503 L324 503 L293 521 L312 629 L337 614 L465 614 L465 633 L675 633 L675 614 L909 614 L909 475 L932 489 L951 378 ZM675 503 L675 474 L719 474 L719 503 L675 503 ZM719 330 L719 359 L675 359 L675 330 L719 330 Z" /><glyph glyph-name="uni552F" unicode="&#x552f;" d="M913 38 L942 55 L964 -70 L927 -91 L446 -91 L446 513 L402 518 L402 -75 L66 -75 L66 625 L214 625 L214 55 L255 55 L255 655 L87 655 L50 677 L72 802 L102 785 L402 785 L402 545 Q443 676 465 817 L654 798 Q642 722 619 632 L736 632 L663 705 L784 826 L905 705 L833 632 L915 632 L944 649 L966 524 L930 502 L879 502 L879 434 L908 434 L937 451 L959 326 L922 305 L879 305 L879 236 L908 236 L937 253 L959 128 L922 107 L879 107 L879 38 L913 38 ZM689 236 L689 305 L636 305 L636 236 L689 236 ZM689 434 L689 502 L636 502 L636 434 L689 434 ZM636 107 L636 38 L689 38 L689 107 L636 107 Z" /><glyph glyph-name="uni5546" unicode="&#x5546;" d="M948 782 L970 657 L934 636 L66 636 L30 657 L52 782 L81 766 L390 766 L390 825 L610 825 L610 766 L919 766 L948 782 ZM68 -95 L68 412 L263 412 L263 -95 L68 -95 ZM675 239 L675 -18 L638 -39 L323 -39 L323 110 L479 110 L479 67 L519 67 L519 132 L337 132 L307 149 L325 252 L349 238 L675 239 ZM710 293 L577 251 L518 380 L652 422 L710 293 ZM480 380 L422 251 L288 293 L347 422 L480 380 ZM825 606 L820 563 L930 563 L930 -93 L716 -93 L686 -76 L704 27 L728 13 L735 13 L735 434 L90 434 L53 455 L75 580 L104 563 L179 563 L175 606 L397 620 L403 563 L597 563 L603 620 L825 606 Z" /><glyph glyph-name="uni559C" unicode="&#x559c;" d="M67 678 L41 693 L57 784 L78 772 L390 772 L390 811 L610 811 L610 772 L922 772 L943 784 L959 693 L933 678 L610 678 L610 650 L910 650 L931 663 L947 572 L921 557 L79 557 L53 572 L69 663 L90 650 L390 650 L390 678 L67 678 ZM959 180 L933 165 L67 165 L41 180 L57 271 L78 259 L143 259 L135 297 L371 297 L380 259 L611 259 L620 290 L855 290 L848 259 L922 259 L943 271 L959 180 ZM297 422 L297 406 L704 406 L704 436 L102 436 L75 451 L91 541 L112 529 L914 529 L914 333 L877 312 L87 312 L87 422 L297 422 ZM112 136 L914 136 L914 -65 L877 -86 L87 -86 L87 26 L297 26 L297 7 L704 7 L704 42 L102 42 L75 57 L91 148 L112 136 Z" /><glyph glyph-name="uni5609" unicode="&#x5609;" d="M99 434 L309 434 L309 421 L686 421 L686 450 L115 450 L89 465 L105 554 L125 542 L896 542 L896 351 L859 330 L99 330 L99 434 ZM390 680 L74 680 L48 695 L64 784 L84 772 L390 772 L390 813 L610 813 L610 772 L915 772 L936 784 L952 695 L926 680 L610 680 L610 658 L894 658 L915 670 L930 581 L904 566 L96 566 L70 581 L85 670 L106 658 L390 658 L390 680 ZM915 281 L936 293 L952 204 L926 189 L74 189 L48 204 L64 293 L84 281 L162 281 L157 308 L377 313 L383 281 L598 281 L603 313 L823 308 L819 281 L915 281 ZM548 168 L569 155 L916 155 L916 -67 L879 -88 L537 -88 L537 43 L703 43 L703 6 L745 6 L745 62 L558 62 L532 77 L548 168 ZM280 162 L278 149 L508 149 L508 -88 L298 -88 L271 -72 L287 21 L309 9 L332 9 L332 52 L266 52 L247 -96 L93 -78 L109 52 L80 52 L53 68 L69 162 L91 149 L122 149 L126 180 L280 162 Z" /><glyph glyph-name="uni56DB" unicode="&#x56db;" d="M943 794 L943 -65 L907 -86 L57 -86 L57 637 L245 637 L245 44 L755 44 L755 197 L523 197 L523 664 L484 664 L467 182 L277 188 L294 664 L76 664 L39 685 L61 811 L90 794 L943 794 ZM713 327 L755 327 L755 664 L713 664 L713 327 Z" /><glyph glyph-name="uni56DE" unicode="&#x56de;" d="M943 794 L943 -65 L907 -86 L57 -86 L57 637 L245 637 L245 44 L755 44 L755 664 L76 664 L39 685 L61 811 L90 794 L943 794 ZM302 435 L471 435 L471 244 L527 244 L527 462 L318 462 L282 482 L304 603 L332 587 L698 587 L698 139 L662 119 L302 119 L302 435 Z" /><glyph glyph-name="uni56E2" unicode="&#x56e2;" d="M943 794 L943 -65 L907 -86 L57 -86 L57 637 L245 637 L245 44 L755 44 L755 664 L81 664 L44 685 L66 811 L95 794 L943 794 ZM490 627 L690 627 L690 567 L692 567 L721 584 L743 458 L707 437 L690 437 L690 87 L477 87 L440 108 L462 234 L490 218 L490 437 L293 437 L257 458 L279 584 L308 567 L490 567 L490 627 ZM261 110 L306 417 L459 396 L414 89 L261 110 Z" /><glyph glyph-name="uni56F4" unicode="&#x56f4;" d="M943 794 L943 -65 L907 -86 L57 -86 L57 654 L245 654 L245 34 L755 34 L755 676 L83 676 L49 695 L69 810 L96 794 L943 794 ZM345 650 L535 650 L535 611 L698 611 L721 624 L738 527 L709 510 L535 510 L535 472 L685 472 L708 485 L725 388 L696 372 L535 372 L535 331 L717 331 L717 116 L680 95 L576 95 L576 231 L535 231 L535 68 L345 68 L345 231 L291 231 L263 247 L280 344 L303 331 L345 331 L345 372 L304 372 L275 388 L292 485 L315 472 L345 472 L345 510 L290 510 L262 527 L279 624 L302 611 L345 611 L345 650 Z" /><glyph glyph-name="uni56FD" unicode="&#x56fd;" d="M943 794 L943 -65 L907 -86 L57 -86 L57 644 L245 644 L245 44 L755 44 L755 664 L76 664 L39 685 L61 811 L90 794 L943 794 ZM302 206 L405 206 L405 310 L302 310 L270 328 L289 438 L314 423 L405 423 L405 504 L297 504 L265 523 L284 632 L309 618 L690 618 L716 632 L735 523 L703 504 L595 504 L595 423 L685 423 L711 438 L730 328 L698 310 L595 310 L595 206 L698 206 L723 221 L743 111 L711 92 L289 92 L257 111 L276 221 L302 206 ZM619 256 L664 300 L709 256 L664 211 L619 256 Z" /><glyph glyph-name="uni56FE" unicode="&#x56fe;" d="M943 794 L943 -65 L907 -86 L57 -86 L57 654 L235 654 L235 34 L765 34 L765 675 L83 675 L49 694 L69 809 L96 794 L943 794 ZM240 372 Q296 386 350 404 Q308 435 275 469 L396 521 Q433 488 480 464 Q526 492 554 524 L326 524 L289 545 L289 653 L443 653 L443 622 L735 622 Q722 508 609 415 Q669 399 751 390 L685 281 Q553 308 481 335 Q442 318 395 301 L682 264 L670 172 L332 215 L341 285 Q326 280 301 275 L240 372 ZM287 101 L299 193 L704 141 L692 48 L287 101 Z" /><glyph glyph-name="uni5708" unicode="&#x5708;" d="M943 794 L943 -65 L907 -86 L57 -86 L57 670 L237 670 L237 21 L765 21 L765 688 L73 688 L43 705 L61 808 L85 794 L943 794 ZM302 256 L245 345 Q303 375 339 402 L275 402 L251 416 L265 501 L285 490 L412 490 Q418 502 421 515 L295 515 L270 529 L285 614 L305 602 L322 602 L307 648 L400 672 L421 602 L437 602 Q439 625 441 674 L568 668 Q568 634 565 602 L586 602 L607 672 L699 648 L684 602 L695 602 L715 614 L730 529 L705 515 L549 515 Q538 482 541 490 L715 490 L734 501 L749 416 L725 402 L662 402 Q679 388 758 345 L705 261 Q702 263 695 266 Q688 270 684 271 L684 156 L504 156 L480 170 L494 252 L513 241 L547 241 L547 273 L345 273 L302 256 ZM496 402 Q480 380 460 360 L558 360 Q542 376 523 402 L496 402 ZM304 253 L458 253 L458 133 L685 133 L705 144 L720 59 L695 45 L304 45 L304 253 Z" /><glyph glyph-name="uni5728" unicode="&#x5728;" d="M918 49 L947 66 L969 -59 L933 -80 L377 -80 L341 -59 L363 66 L392 49 L550 49 L550 247 L400 247 L363 268 L385 394 L415 377 L550 377 L550 507 L760 507 L760 377 L895 377 L924 394 L946 268 L910 247 L760 247 L760 49 L918 49 ZM419 590 Q378 490 328 406 L328 -91 L118 -91 L118 264 L4 303 Q115 434 190 590 L67 590 L31 611 L53 736 L82 719 L244 719 Q262 767 278 827 L486 795 Q474 749 464 719 L918 719 L947 736 L969 611 L933 590 L419 590 Z" /><glyph glyph-name="uni5730" unicode="&#x5730;" d="M945 61 L967 -65 L930 -86 L388 -86 L388 441 L372 437 L350 564 L388 573 L388 751 L563 751 L563 615 L594 623 L594 814 L750 814 L750 660 L937 705 L937 206 L903 185 L781 185 L781 531 L750 524 L750 159 L594 159 L594 488 L563 481 L563 44 L915 44 L945 61 ZM314 486 L288 486 L288 60 L297 60 L327 77 L349 -49 L312 -70 L52 -70 L52 60 L88 60 L88 486 L63 486 L26 507 L48 633 L77 616 L88 616 L88 806 L288 806 L288 616 L299 616 L328 633 L350 507 L314 486 Z" /><glyph glyph-name="uni573A" unicode="&#x573a;" d="M287 60 L316 77 L338 -49 L302 -70 L44 -70 L44 60 L84 60 L84 486 L63 486 L26 507 L48 633 L77 616 L84 616 L84 806 L284 806 L284 616 L291 616 L320 633 L342 507 L305 486 L284 486 L284 60 L287 60 ZM939 794 L939 727 L675 499 L938 499 L938 -90 L735 -90 L699 -69 L721 56 L750 39 L753 39 L753 369 L339 369 L339 426 L622 665 L367 665 L330 686 L352 811 L381 794 L939 794 ZM389 355 L548 338 L501 -94 L342 -76 L389 355 ZM576 355 L735 338 L688 -94 L529 -76 L576 355 Z" /><glyph glyph-name="uni5740" unicode="&#x5740;" d="M331 476 L302 476 L302 50 L312 50 L341 67 L363 -59 L326 -80 L52 -80 L52 50 L92 50 L92 476 L63 476 L26 497 L48 623 L77 606 L92 606 L92 796 L302 796 L302 606 L317 606 L346 623 L368 497 L331 476 ZM956 58 L978 -67 L941 -88 L407 -88 L370 -67 L392 58 L421 42 L430 42 L430 729 L620 729 L620 42 L672 42 L672 812 L872 812 L872 567 L912 567 L942 583 L964 458 L927 437 L872 437 L872 42 L927 42 L956 58 Z" /><glyph glyph-name="uni5747" unicode="&#x5747;" d="M312 60 L341 77 L363 -49 L326 -70 L44 -70 L44 60 L97 60 L97 486 L63 486 L26 507 L48 633 L77 616 L97 616 L97 806 L297 806 L297 616 L317 616 L346 633 L368 507 L331 486 L297 486 L297 60 L312 60 ZM942 745 L942 -90 L552 -90 L516 -69 L538 56 L567 40 L722 40 L722 615 L435 615 L398 636 L398 809 L618 809 L618 745 L942 745 ZM676 468 L614 322 L359 429 L421 575 L676 468 ZM650 312 L715 164 L424 38 L359 185 L650 312 Z" /><glyph glyph-name="uni575A" unicode="&#x575a;" d="M232 779 L232 323 L69 323 L69 779 L232 779 ZM460 811 L460 301 L277 301 L277 811 L460 811 ZM911 42 L940 58 L962 -67 L926 -88 L74 -88 L38 -67 L60 58 L89 42 L390 42 L390 98 L105 98 L68 119 L90 244 L119 227 L390 227 L390 281 L610 281 L610 227 L881 227 L910 244 L932 119 L895 98 L610 98 L610 42 L911 42 ZM474 363 Q557 417 611 464 Q553 522 495 591 L652 653 Q677 622 717 580 Q744 621 757 663 L531 663 L494 684 L516 810 L545 793 L948 793 Q946 614 835 474 Q887 431 963 379 L827 283 Q760 334 726 362 Q688 329 623 281 L474 363 Z" /><glyph glyph-name="uni5761" unicode="&#x5761;" d="M323 69 L345 -56 L309 -78 L52 -78 L52 52 L90 52 L90 479 L63 479 L26 500 L48 625 L77 608 L90 608 L90 798 L290 798 L290 608 L299 608 L328 625 L350 500 L314 479 L290 479 L290 52 L294 52 L323 69 ZM841 -100 L762 -24 Q723 -67 675 -108 L538 -11 Q600 36 652 95 Q597 162 555 239 L694 308 Q722 267 744 238 Q762 279 776 335 L546 335 L546 231 Q546 67 516 -101 L345 -84 Q375 59 375 246 L375 596 L546 596 L546 465 L579 465 L579 621 L400 621 L364 642 L386 767 L415 750 L561 750 L561 811 L763 811 L763 750 L948 750 L948 528 L911 507 L778 507 L778 621 L745 621 L745 465 L950 465 Q948 259 858 104 Q906 53 968 2 L841 -100 Z" /><glyph glyph-name="uni5764" unicode="&#x5764;" d="M307 60 L336 77 L358 -49 L321 -70 L47 -70 L47 60 L88 60 L88 486 L63 486 L26 507 L48 633 L77 616 L88 616 L88 800 L288 800 L288 616 L299 616 L328 633 L350 507 L314 486 L288 486 L288 60 L307 60 ZM945 712 L945 87 L909 66 L755 66 L755 -101 L555 -101 L555 66 L364 66 L364 557 L541 557 L541 425 L567 425 L567 582 L390 582 L353 603 L375 729 L404 712 L555 712 L555 809 L755 809 L755 712 L945 712 ZM742 582 L742 425 L768 425 L768 582 L742 582 ZM768 295 L742 295 L742 196 L768 196 L768 295 ZM567 295 L541 295 L541 196 L567 196 L567 295 Z" /><glyph glyph-name="uni578B" unicode="&#x578b;" d="M946 54 L967 -66 L932 -86 L68 -86 L33 -66 L54 54 L82 38 L395 38 L395 79 L109 79 L74 99 L95 218 L123 202 L395 202 L395 244 L605 244 L605 202 L877 202 L905 218 L925 99 L891 79 L605 79 L605 38 L918 38 L946 54 ZM92 541 Q93 570 93 662 L77 662 L41 683 L63 808 L92 792 L497 792 L526 808 L548 683 L512 662 L497 662 L497 541 L506 541 L535 558 L557 432 L520 411 L497 411 L497 267 L318 267 L318 411 L261 411 Q253 332 233 247 L59 271 Q76 344 83 411 L68 411 L32 432 L54 558 L83 541 L92 541 ZM318 662 L270 662 L270 637 Q270 570 269 541 L318 541 L318 662 ZM728 755 L728 408 L574 408 L574 755 L728 755 ZM714 373 L762 373 L762 804 L935 804 L935 264 L702 264 L671 282 L690 387 L714 373 Z" /><glyph glyph-name="uni57CE" unicode="&#x57ce;" d="M251 68 L267 77 L289 -49 L252 -70 L32 -70 L32 60 L70 60 L70 486 L61 486 L24 507 L46 633 L70 619 L70 806 L251 806 L251 619 L274 633 L296 507 L260 486 L251 486 L251 68 ZM492 530 L492 399 L681 399 L681 -65 L517 -65 L484 -45 L504 68 L520 59 L520 269 L492 269 L492 264 Q492 21 465 -96 L295 -74 Q314 54 312 219 L312 530 L492 530 ZM965 55 L987 -70 L951 -91 L759 -91 L739 67 L716 62 L689 198 L722 206 L679 556 L333 556 L296 577 L318 703 L348 686 L663 686 L650 795 L830 817 L838 754 L895 811 L952 754 L895 696 L838 753 L846 686 L921 686 L950 703 L972 577 L935 556 L862 556 L900 244 L940 253 L967 117 L918 106 L926 38 L936 38 L965 55 Z" /><glyph glyph-name="uni57F9" unicode="&#x57f9;" d="M312 60 L341 77 L363 -49 L326 -70 L52 -70 L52 60 L92 60 L92 486 L63 486 L26 507 L48 633 L77 616 L92 616 L92 806 L302 806 L302 616 L317 616 L346 633 L368 507 L331 486 L302 486 L302 60 L312 60 ZM934 322 L934 -65 L898 -86 L407 -86 L407 164 L610 164 L610 44 L731 44 L731 192 L426 192 L390 213 L412 339 L441 322 L934 322 ZM956 514 L978 389 L941 368 L392 368 L356 389 L378 514 L407 497 L437 497 L426 604 L623 621 L635 497 L698 497 L711 621 L908 604 L897 497 L927 497 L956 514 ZM925 638 L409 638 L372 659 L394 784 L423 767 L562 767 L562 812 L772 812 L772 767 L910 767 L939 784 L961 659 L925 638 Z" /><glyph glyph-name="uni57FA" unicode="&#x57fa;" d="M975 177 L921 72 L781 143 L792 80 L761 62 L605 62 L605 27 L868 27 L894 41 L913 -67 L881 -86 L119 -86 L87 -67 L106 41 L132 27 L395 27 L395 62 L239 62 L208 80 L218 142 L81 72 L27 177 L128 228 L78 228 L46 247 L65 355 L90 340 L150 340 L150 644 L87 644 L55 663 L74 771 L100 756 L150 756 L150 809 L334 809 L334 756 L666 756 L666 809 L850 809 L850 756 L900 756 L926 771 L945 663 L913 644 L850 644 L850 340 L909 340 L935 355 L954 247 L922 228 L874 228 L975 177 ZM334 644 L334 340 L666 340 L666 373 L363 373 L363 477 L666 477 L666 508 L363 508 L363 613 L666 613 L666 644 L334 644 ZM605 174 L720 174 L615 228 L386 228 L281 174 L395 174 L395 206 L605 206 L605 174 Z" /><glyph glyph-name="uni586B" unicode="&#x586b;" d="M297 50 L326 67 L348 -59 L311 -80 L52 -80 L52 50 L92 50 L92 476 L63 476 L26 497 L48 623 L77 606 L92 606 L92 796 L292 796 L292 606 L302 606 L331 623 L353 497 L316 476 L292 476 L292 50 L297 50 ZM941 49 L850 49 L956 8 L908 -108 L699 -28 L731 49 L600 49 L632 -28 L423 -108 L375 8 L481 49 L367 49 L338 65 L356 164 L380 150 L380 531 L570 531 L570 150 L740 150 L740 181 L594 181 L594 273 L740 273 L740 303 L594 303 L594 395 L740 395 L740 425 L594 425 L594 516 L740 516 L740 547 L398 547 L371 562 L387 654 L409 642 L550 642 L550 673 L383 673 L355 689 L372 788 L395 774 L550 774 L550 810 L760 810 L760 774 L921 774 L944 788 L961 689 L932 673 L760 673 L760 642 L930 642 L930 151 L953 164 L970 65 L941 49 Z" /><glyph glyph-name="uni589E" unicode="&#x589e;" d="M289 50 L318 67 L340 -59 L304 -80 L52 -80 L52 50 L81 50 L81 476 L63 476 L26 497 L48 623 L77 606 L81 606 L81 796 L281 796 L281 606 L284 606 L313 623 L335 497 L299 476 L281 476 L281 50 L289 50 ZM876 747 L940 747 L940 360 L908 341 L339 341 L339 615 L505 615 L505 456 L562 456 L562 632 L362 632 L330 650 L349 761 L375 747 L402 747 L382 798 L563 828 L592 747 L687 747 L715 828 L896 798 L876 747 ZM717 632 L717 456 L775 456 L775 632 L717 632 ZM931 305 L931 -66 L898 -85 L359 -85 L359 173 L551 173 L551 30 L738 30 L738 59 L576 59 L576 161 L738 161 L738 190 L378 190 L345 209 L365 320 L391 305 L931 305 ZM546 606 L553 485 L518 483 L511 604 L546 606 ZM733 606 L768 604 L761 483 L726 485 L733 606 Z" /><glyph glyph-name="uni58EB" unicode="&#x58eb;" d="M893 45 L922 62 L944 -64 L908 -85 L92 -85 L56 -64 L78 62 L107 45 L390 45 L390 469 L62 469 L25 490 L47 615 L76 599 L390 599 L390 808 L610 808 L610 599 L923 599 L953 615 L975 490 L938 469 L610 469 L610 45 L893 45 Z" /><glyph glyph-name="uni5904" unicode="&#x5904;" d="M958 62 L980 -63 L944 -84 L724 -84 Q464 -84 303 35 Q247 -33 167 -108 L8 -7 Q111 90 174 170 Q81 309 51 520 L227 545 Q243 433 279 346 Q325 459 329 595 L88 595 L51 616 L51 810 L251 810 L251 725 L517 725 Q528 392 401 174 Q552 45 785 45 L929 45 L958 62 ZM765 809 L765 123 L571 123 L571 809 L765 809 ZM967 233 L838 219 L787 716 L916 729 L967 233 Z" /><glyph glyph-name="uni5907" unicode="&#x5907;" d="M895 290 L872 296 L872 -67 L840 -85 L130 -85 L130 215 L317 215 L317 193 L408 193 L408 235 L147 235 L117 252 L123 290 L99 284 L30 423 Q159 447 274 478 Q193 512 113 554 L235 646 Q353 594 484 550 Q593 598 651 648 L156 648 L119 669 L148 815 L358 800 L353 778 L929 778 Q911 614 709 487 Q795 466 979 431 L895 290 ZM685 37 L685 79 L594 79 L594 37 L685 37 ZM508 392 Q460 376 379 353 L639 353 Q570 373 508 392 ZM594 235 L594 193 L685 193 L685 235 L594 235 ZM408 79 L317 79 L317 37 L408 37 L408 79 Z" /><glyph glyph-name="uni590D" unicode="&#x590d;" d="M892 -97 Q679 -73 522 -39 Q346 -92 114 -113 L58 24 Q162 36 225 46 Q160 69 100 97 L192 186 L131 186 L94 207 L94 304 L311 304 L311 284 L919 284 Q898 158 758 66 Q854 54 935 49 L892 -97 ZM274 186 Q368 143 498 111 Q585 143 638 186 L274 186 ZM680 565 L111 565 L85 580 L100 668 L121 656 L900 656 L900 344 L863 323 L94 323 L94 548 L314 548 L314 414 L680 414 L680 444 L338 444 L338 535 L680 535 L680 565 ZM117 692 L93 706 L93 815 L313 815 L313 779 L900 779 L919 791 L934 706 L909 692 L117 692 Z" /><glyph glyph-name="uni590F" unicode="&#x590f;" d="M925 -100 Q671 -74 502 -40 Q318 -87 85 -103 L40 13 Q144 19 228 31 Q175 48 112 72 L183 150 L120 150 L90 168 L90 253 L300 253 L300 237 L912 237 Q895 130 746 49 Q865 36 967 29 L925 -100 ZM289 150 Q391 113 512 87 Q595 112 654 150 L289 150 ZM390 704 L73 704 L47 719 L63 807 L83 795 L917 795 L937 807 L953 719 L927 704 L610 704 L610 673 L910 673 L910 286 L873 265 L90 265 L90 574 L300 574 L300 345 L700 345 L700 374 L319 374 L319 454 L700 454 L700 484 L319 484 L319 564 L700 564 L700 593 L95 593 L73 606 L86 684 L104 673 L390 673 L390 704 Z" /><glyph glyph-name="uni591A" unicode="&#x591a;" d="M964 365 Q940 159 718 28 Q492 -106 146 -109 L53 28 Q257 36 406 74 L374 117 L528 222 L586 144 Q650 180 700 235 L453 235 Q385 172 284 99 L126 179 Q226 250 305 335 Q215 314 136 307 L41 442 Q185 456 303 489 L280 519 L434 624 L485 556 Q571 599 633 650 L385 650 Q300 567 214 515 L54 594 Q189 693 296 834 L505 793 L496 780 L924 780 Q903 662 777 554 Q660 455 481 387 L577 369 L574 365 L964 365 Z" /><glyph glyph-name="uni5927" unicode="&#x5927;" d="M619 499 Q677 200 972 37 L841 -108 Q620 19 499 252 Q381 21 158 -108 L27 37 Q320 198 380 499 L84 499 L47 521 L70 646 L99 629 L390 629 L390 811 L610 811 L610 629 L901 629 L931 646 L953 521 L916 499 L619 499 Z" /><glyph glyph-name="uni5929" unicode="&#x5929;" d="M998 31 L864 -114 L527 192 Q426 -14 175 -103 L26 41 Q305 127 363 345 L63 345 L27 366 L49 491 L78 474 L390 474 L390 666 L80 666 L44 687 L66 812 L95 795 L905 795 L934 812 L956 687 L919 666 L610 666 L610 474 L922 474 L951 491 L973 366 L937 345 L651 345 L998 31 Z" /><glyph glyph-name="uni592A" unicode="&#x592a;" d="M519 278 Q492 209 461 156 L610 7 L504 -99 L371 34 Q292 -55 191 -113 L30 -9 Q321 201 362 489 L69 489 L32 510 L54 635 L83 618 L373 618 Q374 640 374 820 L579 820 L579 618 L917 618 L946 635 L968 510 L931 489 L571 489 Q567 454 555 396 L633 452 L1002 13 L845 -109 L519 278 Z" /></font>
</defs>
</svg>
