<?xml version="1.0" standalone="no"?><!DOCTYPE svg PUBLIC "-//W3C//DTD SVG 1.1//EN" "http://www.w3.org/Graphics/SVG/1.1/DTD/svg11.dtd" ><svg xmlns="http://www.w3.org/2000/svg"><metadata></metadata><defs><font id="fonteditor" horiz-adv-x="1033"><font-face font-family="g,X¨NÊ[" font-weight="400" font-stretch="normal" units-per-em="1000" panose-1="2 0 0 0 0 0 0 0 0 0" ascent="880" descent="-120" x-height="0" bbox="-15 -140 1021 922" underline-thickness="0" underline-position="0" unicode-range="U+0025-ff1a" /><missing-glyph horiz-adv-x="244"  /><glyph glyph-name="percent" unicode="%" d="M716 786 L867 786 L294 -78 L142 -78 L716 786 ZM297 418 Q221 418 168 472 Q114 525 114 601 Q114 677 168 730 Q221 783 297 783 Q373 783 426 730 Q480 677 480 601 Q480 525 426 472 Q373 418 297 418 ZM297 752 Q266 752 244 708 Q222 663 222 601 Q222 538 244 494 Q266 450 297 450 Q328 450 350 494 Q372 538 372 601 Q372 663 350 708 Q328 752 297 752 ZM712 289 Q788 289 841 235 Q895 182 895 106 Q895 30 841 -23 Q788 -76 712 -76 Q636 -76 583 -23 Q529 30 529 106 Q529 182 583 235 Q636 289 712 289 ZM712 -45 Q743 -45 765 -1 Q787 44 787 106 Q787 169 765 213 Q743 257 712 257 Q681 257 659 213 Q637 169 637 106 Q637 44 659 -1 Q681 -45 712 -45 Z" /><glyph glyph-name="parenleft" unicode="(" d="M371 784 Q211 608 211 354 Q211 99 371 -76 Q240 -20 161 94 Q79 212 79 354 Q79 496 161 613 Q240 728 371 784 Z" /><glyph glyph-name="parenright" unicode=")" d="M79 784 Q210 728 290 613 Q371 496 371 354 Q371 212 290 94 Q210 -20 79 -76 Q239 100 239 354 Q239 606 79 784 Z" /><glyph glyph-name="hyphen" unicode="-" d="M32 369 L488 369 L488 339 L32 339 L32 369 Z" /><glyph glyph-name="zero" unicode="0" d="M427 785 Q541 785 606 719 Q674 650 674 520 L674 181 Q674 52 606 -15 Q542 -78 427 -78 L301 -78 Q186 -78 122 -15 Q54 52 54 181 L54 520 Q54 650 122 719 Q187 785 301 785 L427 785 ZM503 610 Q503 755 365 755 L363 755 Q225 755 225 610 L225 91 Q225 34 254 -2 Q289 -48 363 -48 L365 -48 Q439 -48 475 -2 Q503 34 503 91 L503 610 Z" /><glyph glyph-name="one" unicode="1" d="M255 786 L255 -82 L85 -82 L85 756 L32 756 L32 786 L255 786 Z" /><glyph glyph-name="two" unicode="2" d="M219 -48 L605 -48 L605 -78 L49 -78 L49 43 Q49 218 226 353 L295 403 Q336 433 358 451 Q423 506 438 559 Q462 647 418 700 Q371 755 259 755 L53 755 L53 785 L380 785 Q481 785 545 741 Q622 687 622 576 Q622 489 545 411 Q497 363 365 276 Q293 227 271 202 Q219 142 219 51 L219 -48 Z" /><glyph glyph-name="three" unicode="3" d="M448 383 Q604 339 605 159 Q602 -79 333 -79 L44 -79 L44 -49 L264 -49 Q354 -49 400 16 Q435 65 435 129 L435 189 Q435 259 396 308 Q350 367 264 367 L67 367 L67 397 L242 397 Q332 397 378 462 Q413 511 413 575 L413 577 Q413 653 375 700 Q330 754 242 754 L44 754 L44 785 L311 785 Q469 785 534 719 Q583 669 583 575 Q583 423 448 383 Z" /><glyph glyph-name="five" unicode="5" d="M633 756 L220 756 L220 475 L350 475 Q623 475 623 233 L623 163 Q623 -80 350 -80 L50 -80 L50 -50 L274 -50 Q360 -50 407 9 Q446 58 446 128 L446 268 Q446 331 411 380 Q364 445 274 445 L50 445 L50 786 L633 786 L633 756 Z" /><glyph glyph-name="nine" unicode="9" d="M487 786 Q572 786 624 729 Q676 671 676 579 L676 176 Q676 67 612 -2 Q540 -78 412 -78 L68 -78 L68 -48 L343 -48 Q506 -48 506 150 L506 248 L247 248 Q162 248 110 305 Q58 362 58 455 L58 579 Q58 671 110 729 Q162 786 247 786 L487 786 ZM506 636 Q506 678 480 712 Q447 756 385 756 L348 756 Q285 756 253 712 Q229 679 229 636 L229 397 Q229 350 256 317 Q289 278 348 278 L506 278 L506 636 Z" /><glyph glyph-name="colon" unicode=":" d="M158 376 Q115 376 84 407 Q53 438 53 481 Q53 525 84 555 Q115 586 158 586 Q202 586 232 555 Q263 525 263 481 Q263 438 232 407 Q202 376 158 376 ZM158 271 Q202 271 232 240 Q263 210 263 166 Q263 123 232 92 Q202 61 158 61 Q115 61 84 92 Q53 123 53 166 Q53 210 84 240 Q115 271 158 271 Z" /><glyph glyph-name="C" unicode="c" d="M368 755 Q287 755 253 684 Q230 639 230 577 L230 130 Q230 68 253 23 Q287 -48 368 -48 L692 -48 L692 -78 L321 -78 Q199 -78 123 4 Q48 87 48 220 L48 487 Q48 620 123 703 Q199 785 321 785 L692 785 L692 755 L368 755 Z" /><glyph glyph-name="D" unicode="d" d="M465 785 Q587 785 662 703 Q737 621 737 487 L737 220 Q737 86 662 4 Q587 -78 465 -78 L50 -77 L50 785 L465 785 ZM567 577 Q567 647 528 696 Q482 755 396 755 L220 755 L220 -48 L396 -48 Q486 -48 532 17 Q567 66 567 130 L567 577 Z" /><glyph glyph-name="G" unicode="g" d="M375 755 Q294 755 260 684 Q237 639 237 577 L237 130 Q237 68 260 23 Q294 -48 375 -48 L568 -48 L568 354 L394 354 L394 384 L748 384 L748 -78 L328 -78 Q206 -78 130 4 Q55 87 55 220 L55 487 Q55 620 130 703 Q206 785 328 785 L755 785 L755 755 L375 755 Z" /><glyph glyph-name="quotedblleft" unicode="&#x201c;" d="M574 784 Q649 761 649 684 Q649 641 618 610 Q588 579 544 579 Q501 579 470 610 Q439 641 439 684 Q439 739 489 783 Q540 827 617 836 Q587 822 575 803 Q565 787 574 784 ZM834 784 Q909 761 909 684 Q909 641 878 610 Q848 579 804 579 Q761 579 730 610 Q699 641 699 684 Q699 739 749 783 Q800 827 877 836 Q847 822 835 803 Q825 787 834 784 Z" /><glyph glyph-name="quotedblright" unicode="&#x201d;" d="M473 793 Q517 793 547 762 Q578 732 578 688 Q578 633 528 589 Q477 545 400 536 Q430 550 442 569 Q453 585 444 588 Q411 597 390 625 Q368 653 368 688 Q368 732 399 762 Q430 793 473 793 ZM213 793 Q257 793 287 762 Q318 732 318 688 Q318 633 268 589 Q217 545 140 536 Q170 550 182 569 Q193 585 184 588 Q151 597 130 625 Q108 653 108 688 Q108 732 139 762 Q170 793 213 793 Z" /><glyph glyph-name="uni3001" unicode="&#x3001;" d="M150 131 L320 131 Q342 41 356 7 Q387 -66 436 -84 Q353 -109 284 -82 Q208 -52 180 32 L150 131 Z" /><glyph glyph-name="uni3002" unicode="&#x3002;" d="M328 274 Q404 274 457 226 Q511 178 511 111 Q511 43 457 -5 Q404 -53 328 -53 Q252 -53 199 -5 Q146 43 146 111 Q146 179 199 226 Q252 274 328 274 ZM328 -18 Q359 -18 381 20 Q403 58 403 111 Q403 164 381 201 Q359 239 328 239 Q297 239 276 201 Q254 164 254 111 Q254 58 276 20 Q297 -18 328 -18 Z" /><glyph glyph-name="uni4E07" unicode="&#x4e07;" d="M962 755 L373 755 Q367 608 353 508 L909 508 L909 120 Q909 19 865 -41 Q807 -121 679 -112 Q567 -106 485 -19 Q602 -59 667 -27 Q733 5 733 106 L733 478 L349 478 Q279 -19 13 -109 Q170 186 194 755 L38 755 L38 785 L962 785 L962 755 Z" /><glyph glyph-name="uni4E0D" unicode="&#x4e0d;" d="M554 753 Q533 648 478 539 L590 539 L590 -100 L410 -100 L410 424 Q224 154 5 114 Q147 257 247 446 Q337 618 356 753 L28 753 L28 783 L972 783 L972 753 L554 753 ZM650 617 Q769 354 988 133 Q959 113 917 101 Q835 76 777 114 Q698 165 666 331 Q638 467 650 617 Z" /><glyph glyph-name="uni4E0E" unicode="&#x4e0e;" d="M974 629 L307 629 L280 439 L925 439 L925 126 Q925 17 865 -45 Q804 -108 692 -108 Q510 -108 409 6 Q547 -42 642 -19 Q751 8 751 124 L751 409 L101 409 L155 821 L333 808 L311 659 L974 659 L974 629 ZM704 223 L704 193 L28 193 L28 223 L704 223 Z" /><glyph glyph-name="uni4E13" unicode="&#x4e13;" d="M978 463 L380 463 Q344 383 312 322 L922 322 Q827 160 745 32 Q792 -20 771 -79 Q761 -108 741 -127 Q491 33 240 106 Q399 163 623 98 Q677 220 710 292 L132 292 L199 463 L22 463 L22 493 L210 493 Q250 599 268 653 L46 653 L46 683 L279 683 Q309 775 322 822 L517 796 L473 683 L954 683 L954 653 L461 653 Q424 562 393 493 L978 493 L978 463 Z" /><glyph glyph-name="uni4E1A" unicode="&#x4e1a;" d="M720 -53 L980 -53 L980 -83 L20 -83 L20 -53 L280 -53 L280 805 L450 805 L450 -53 L550 -53 L550 805 L720 805 L720 -53 ZM974 633 L762 132 Q779 420 808 680 L974 633 ZM247 296 Q255 177 189 155 Q156 144 121 157 Q84 436 18 663 Q94 623 164 516 Q241 401 247 296 Z" /><glyph glyph-name="uni4E24" unicode="&#x4e24;" d="M972 759 L719 759 Q717 666 712 592 L931 592 L931 71 Q931 -93 794 -99 Q682 -102 611 -17 Q678 -38 719 -20 Q764 0 764 60 L764 562 L710 562 Q699 429 670 319 Q728 236 739 156 Q747 87 697 53 Q673 37 646 34 Q642 143 633 210 Q571 67 469 9 Q538 111 555 562 L482 562 Q470 405 441 296 Q494 230 497 177 Q501 129 461 103 Q442 90 421 87 L413 209 Q356 68 254 9 Q310 95 320 562 L261 562 L261 592 L320 592 Q322 673 320 759 L26 759 L26 789 L972 789 L972 759 ZM556 592 Q559 664 557 759 L488 759 Q488 667 484 592 L556 592 ZM69 -98 L69 592 L239 592 L239 -98 L69 -98 Z" /><glyph glyph-name="uni4E2A" unicode="&#x4e2a;" d="M489 851 Q711 635 998 526 Q972 475 915 450 Q842 418 755 455 Q636 505 546 655 Q456 566 312 499 Q152 425 2 418 Q308 608 489 851 ZM410 -106 L410 495 L590 495 L590 -106 L410 -106 Z" /><glyph glyph-name="uni4E2D" unicode="&#x4e2d;" d="M940 645 L940 157 L585 157 L585 -106 L415 -106 L415 157 L60 157 L60 645 L220 645 L220 187 L415 187 L415 615 L235 615 L235 645 L415 645 L415 816 L585 816 L585 645 L940 645 ZM585 187 L780 187 L780 615 L585 615 L585 187 Z" /><glyph glyph-name="uni4E30" unicode="&#x4e30;" d="M974 152 L974 122 L590 122 L590 -102 L410 -102 L410 122 L26 122 L26 152 L410 152 L410 374 L49 374 L49 404 L410 404 L410 626 L34 626 L34 656 L410 656 L410 810 L590 810 L590 656 L966 656 L966 626 L590 626 L590 404 L951 404 L951 374 L590 374 L590 152 L974 152 Z" /><glyph glyph-name="uni4E3A" unicode="&#x4e3a;" d="M936 552 L936 68 Q936 -94 797 -108 Q742 -114 685 -91 Q628 -69 598 -31 Q766 -83 766 57 L766 522 L496 522 Q447 247 313 75 Q186 -88 8 -127 Q242 72 317 522 L32 522 L32 552 L322 552 Q341 678 343 818 L520 813 Q520 675 500 552 L936 552 ZM295 693 Q305 636 246 603 Q216 587 184 582 Q143 708 86 796 Q146 806 214 776 Q286 744 295 693 ZM716 199 Q727 130 668 100 Q638 85 606 84 Q563 243 498 365 Q578 351 639 308 Q706 261 716 199 Z" /><glyph glyph-name="uni4E3B" unicode="&#x4e3b;" d="M590 -52 L977 -52 L977 -82 L22 -82 L22 -52 L410 -52 L410 255 L45 255 L45 285 L410 285 L410 591 L35 591 L35 621 L965 621 L965 591 L590 591 L590 285 L955 285 L955 255 L590 255 L590 -52 ZM496 643 Q370 652 354 869 Q443 783 630 771 Q630 741 607 702 Q570 639 496 643 Z" /><glyph glyph-name="uni4E5F" unicode="&#x4e5f;" d="M267 -51 L981 -51 L981 -81 L107 -81 L107 450 L34 430 L26 459 L107 481 L107 769 L267 769 L267 524 L442 571 L442 814 L602 814 L602 614 L937 704 L937 277 Q937 138 839 110 Q751 84 687 151 Q722 143 745 157 Q777 177 777 234 L777 630 L602 583 L602 81 L442 81 L442 540 L267 493 L267 -51 Z" /><glyph glyph-name="uni4E86" unicode="&#x4e86;" d="M630 109 Q630 8 581 -47 Q538 -96 467 -103 Q401 -109 335 -80 Q269 -52 234 -3 Q322 -39 386 -21 Q458 0 458 83 L458 490 L731 758 L53 758 L53 788 L938 788 L938 758 L630 467 L630 109 Z" /><glyph glyph-name="uni4EA4" unicode="&#x4ea4;" d="M973 664 L973 634 L27 634 L27 664 L973 664 ZM517 680 Q455 686 410 747 Q370 801 361 870 Q447 793 647 790 Q644 760 626 731 Q590 673 517 680 ZM799 360 Q669 402 593 624 Q764 504 997 446 Q984 401 943 372 Q884 332 799 360 ZM638 123 Q817 48 997 15 Q984 -53 919 -82 Q866 -105 793 -100 Q653 -89 503 20 Q282 -117 9 -97 Q224 -24 391 116 Q276 229 218 352 Q101 281 -3 254 Q167 447 262 623 L432 526 Q347 435 241 366 Q355 270 481 200 Q567 293 633 407 L799 339 Q748 226 638 123 Z" /><glyph glyph-name="uni4EC5" unicode="&#x4ec5;" d="M120 -94 L120 436 L290 436 L290 -94 L120 -94 ZM337 780 Q304 626 219 528 Q130 425 2 404 Q126 579 168 811 L337 780 ZM751 176 Q862 56 995 -20 Q960 -83 882 -95 Q806 -107 743 -64 Q686 -24 633 46 Q489 -80 324 -119 Q474 22 565 151 Q428 398 409 715 Q514 480 652 296 Q749 489 780 746 L373 746 L373 776 L954 776 Q954 445 751 176 Z" /><glyph glyph-name="uni4EE5" unicode="&#x4ee5;" d="M768 395 Q861 154 996 -70 Q952 -114 893 -108 Q835 -103 798 -54 Q729 36 724 266 Q594 -54 362 -129 Q465 8 544 233 Q645 521 648 816 L820 812 Q820 584 768 395 ZM237 104 Q350 132 445 151 L61 -76 L13 41 L40 49 Q58 55 67 57 L67 783 L237 783 L237 104 ZM519 430 Q523 341 453 310 Q417 295 381 297 Q364 577 318 800 Q387 754 448 648 Q514 534 519 430 Z" /><glyph glyph-name="uni4F18" unicode="&#x4f18;" d="M120 -94 L120 436 L290 436 L290 -94 L120 -94 ZM337 780 Q304 626 219 528 Q130 425 2 404 Q126 579 168 811 L337 780 ZM971 520 L643 520 Q634 461 627 427 L776 427 L776 -57 L967 -57 L967 -87 L606 -87 L606 329 Q511 -40 312 -117 Q431 125 474 520 L322 520 L322 550 L478 550 Q491 679 495 809 L667 799 Q663 671 647 550 L971 550 L971 520 ZM830 603 Q781 619 758 677 Q736 734 746 808 Q812 721 965 694 Q959 651 932 622 Q893 581 830 603 Z" /><glyph glyph-name="uni4F1A" unicode="&#x4f1a;" d="M489 856 Q717 634 1015 522 Q986 470 928 444 Q853 411 763 449 Q642 500 547 654 Q454 563 306 494 Q141 418 -14 411 Q300 605 489 856 ZM139 404 L861 404 L861 374 L139 374 L139 404 ZM32 208 L32 238 L968 238 L968 208 L464 208 Q392 63 309 -54 L725 -54 Q698 -11 688 63 Q679 131 689 172 Q804 48 977 -33 Q962 -71 910 -97 Q838 -133 757 -87 Q757 -86 755 -85 Q754 -84 753 -84 L93 -84 Q191 91 241 208 L32 208 Z" /><glyph glyph-name="uni4F20" unicode="&#x4f20;" d="M120 -94 L120 436 L290 436 L290 -94 L120 -94 ZM350 780 Q257 446 2 404 Q113 561 180 811 L350 780 ZM977 463 L607 463 Q583 387 560 322 L943 322 Q876 195 808 74 Q829 64 841 54 Q900 2 868 -58 Q853 -88 825 -107 Q632 27 414 94 Q510 131 672 110 Q720 230 746 292 L391 292 L436 463 L347 463 L347 493 L444 493 Q455 533 484 653 L386 653 L386 683 L490 683 Q500 726 518 812 L697 786 Q679 712 671 683 L968 683 L968 653 L663 653 Q647 592 617 493 L977 493 L977 463 Z" /><glyph glyph-name="uni4F4D" unicode="&#x4f4d;" d="M120 -94 L120 436 L290 436 L290 -94 L120 -94 ZM2 404 Q126 579 168 811 L337 780 Q304 626 219 528 Q130 425 2 404 ZM351 497 Q425 465 505 369 Q587 269 603 184 Q620 92 551 51 Q516 31 478 29 Q418 327 351 497 ZM964 592 L964 562 L344 562 L344 592 L964 592 ZM989 -42 L989 -72 L345 -72 L345 -42 L668 -42 Q730 326 761 518 L956 483 Q893 327 750 -42 L989 -42 ZM640 619 Q589 628 557 692 Q528 749 522 825 Q615 750 799 730 Q790 674 755 643 Q711 605 640 619 Z" /><glyph glyph-name="uni4F4E" unicode="&#x4f4e;" d="M891 374 Q910 73 997 -113 Q770 -102 722 374 L539 374 L539 19 Q539 -73 644 -51 Q574 -124 477 -103 Q369 -79 369 60 L369 762 Q771 784 936 813 L966 711 Q935 708 884 705 Q884 504 889 404 L974 404 L974 374 L891 374 ZM539 404 L719 404 Q708 533 706 698 Q621 695 539 695 L539 404 ZM580 227 Q753 119 773 3 Q784 -67 729 -93 Q701 -106 671 -105 Q631 79 580 227 ZM120 -94 L120 436 L290 436 L290 -94 L120 -94 ZM2 404 Q126 579 168 811 L337 780 Q304 626 219 528 Q130 425 2 404 Z" /><glyph glyph-name="uni4F5C" unicode="&#x4f5c;" d="M975 595 L722 595 L722 380 L962 380 L962 350 L722 350 L722 135 L962 135 L962 105 L722 105 L722 -101 L552 -101 L552 495 Q456 395 340 374 Q465 552 524 811 L700 778 Q683 701 644 625 L975 625 L975 595 ZM148 -94 L148 436 L318 436 L318 -94 L148 -94 ZM345 781 Q310 622 222 513 Q128 396 2 374 Q127 564 168 811 L345 781 Z" /><glyph glyph-name="uni4F60" unicode="&#x4f60;" d="M117 -96 L117 444 L287 444 L287 -96 L117 -96 ZM573 704 Q505 435 327 375 Q411 541 422 815 L592 797 Q589 776 581 734 L990 734 Q914 518 790 408 Q798 516 802 704 L573 704 ZM542 328 Q529 195 470 77 Q404 -53 322 -78 Q380 57 401 345 L542 328 ZM352 780 Q319 637 229 539 Q135 437 8 416 Q117 539 173 811 L352 780 ZM816 405 Q841 281 902 145 Q959 14 1000 -20 Q975 -42 941 -54 Q873 -79 828 -32 Q787 11 782 157 Q778 304 816 405 ZM574 575 L744 575 L744 67 Q744 -73 618 -97 Q567 -107 517 -91 Q468 -75 444 -41 Q489 -65 529 -47 Q574 -26 574 42 L574 575 Z" /><glyph glyph-name="uni4F9B" unicode="&#x4f9b;" d="M882 300 L979 300 L979 270 L323 270 L323 300 L419 300 L419 606 L338 606 L338 636 L419 636 L419 801 L589 801 L589 636 L712 636 L712 801 L882 801 L882 636 L964 636 L964 606 L882 606 L882 300 ZM589 606 L589 300 L712 300 L712 606 L589 606 ZM716 245 Q810 217 884 150 Q961 79 965 7 Q969 -71 897 -98 Q861 -112 824 -110 Q786 89 716 245 ZM326 -118 Q395 41 458 251 L633 210 Q598 118 517 25 Q424 -82 326 -118 ZM120 -94 L120 436 L290 436 L290 -94 L120 -94 ZM337 780 Q304 626 219 528 Q130 425 2 404 Q126 579 168 811 L337 780 Z" /><glyph glyph-name="uni5143" unicode="&#x5143;" d="M765 -54 L977 -54 L977 -84 L585 -84 L585 391 L415 391 Q402 166 302 35 Q195 -106 6 -111 Q207 64 226 391 L32 391 L32 421 L968 421 L968 391 L765 391 L765 -54 ZM921 787 L921 757 L79 757 L79 787 L921 787 Z" /><glyph glyph-name="uni5168" unicode="&#x5168;" d="M481 851 Q710 634 1016 522 Q988 471 930 446 Q854 413 764 450 Q641 501 547 653 Q455 563 306 496 Q140 420 -15 414 Q286 597 481 851 ZM590 144 L590 -54 L959 -54 L959 -84 L41 -84 L41 -54 L410 -54 L410 144 L88 144 L88 174 L410 174 L410 372 L108 372 L108 402 L892 402 L892 372 L590 372 L590 174 L912 174 L912 144 L590 144 Z" /><glyph glyph-name="uni516C" unicode="&#x516c;" d="M485 738 Q390 577 247 459 Q118 352 4 323 Q214 606 300 829 L485 738 ZM617 828 Q745 650 970 456 Q944 421 901 401 Q814 363 727 444 Q660 506 630 624 Q605 728 617 828 ZM595 339 Q731 151 949 -33 Q928 -62 892 -82 Q821 -122 750 -80 L70 -80 Q268 273 328 434 L528 386 Q420 158 278 -50 L710 -50 Q707 -47 705 -46 Q646 11 616 135 Q590 240 595 339 Z" /><glyph glyph-name="uni5185" unicode="&#x5185;" d="M940 649 L940 104 Q940 -10 895 -59 Q854 -104 766 -104 Q667 -104 613 -34 Q686 -54 727 -32 Q770 -9 770 57 L770 619 L587 619 Q557 379 459 226 Q368 83 239 46 Q370 205 415 619 L253 619 L253 649 L418 649 Q427 748 428 825 L600 816 Q600 743 591 649 L940 649 ZM58 -98 L58 649 L228 649 L228 -98 L58 -98 ZM754 137 Q732 110 687 97 Q619 78 573 135 Q538 178 541 268 Q544 348 571 403 Q630 279 754 137 Z" /><glyph glyph-name="uni5206" unicode="&#x5206;" d="M495 782 Q426 608 291 496 Q155 383 4 376 Q102 446 196 571 Q296 705 327 820 L495 782 ZM560 834 Q724 600 996 502 Q983 471 953 445 Q892 392 803 414 Q716 436 640 567 Q563 699 560 834 ZM833 366 L833 71 Q833 -7 790 -55 Q752 -97 689 -106 Q628 -115 568 -89 Q506 -62 470 -8 Q531 -48 594 -32 Q663 -15 663 63 L663 336 L434 336 Q368 -86 48 -109 Q210 19 262 336 L107 336 L107 366 L833 366 Z" /><glyph glyph-name="uni5217" unicode="&#x5217;" d="M767 809 L937 809 L937 115 Q937 -80 801 -106 Q748 -116 693 -95 Q641 -75 616 -39 Q679 -61 720 -34 Q767 -3 767 89 L767 809 ZM716 718 L716 71 L566 71 L566 718 L716 718 ZM45 756 L45 786 L523 786 L523 756 L294 756 Q290 663 272 574 L520 574 Q520 274 398 91 Q277 -90 60 -119 Q208 -10 284 175 Q242 244 187 292 Q272 320 325 296 Q355 412 359 544 L265 544 Q226 372 141 253 Q75 161 5 128 Q105 372 122 756 L45 756 Z" /><glyph glyph-name="uni5219" unicode="&#x5219;" d="M395 188 L395 759 L211 759 L211 789 L530 789 L530 188 L395 188 ZM195 789 L195 188 L61 188 L61 789 L195 789 ZM361 716 Q370 320 311 142 Q229 -103 27 -109 Q144 -12 193 160 Q232 297 232 716 L361 716 ZM342 221 Q439 49 602 -39 Q588 -71 547 -90 Q492 -115 431 -81 Q384 -54 359 22 Q333 105 342 221 ZM772 809 L937 809 L937 115 Q937 -81 814 -106 Q766 -116 716 -95 Q668 -75 644 -39 Q772 -85 772 89 L772 809 ZM724 736 L724 88 L578 88 L578 736 L724 736 Z" /><glyph glyph-name="uni521B" unicode="&#x521b;" d="M775 809 L937 809 L937 115 Q937 -80 799 -106 Q746 -116 691 -95 Q639 -75 615 -39 Q677 -61 722 -34 Q775 -2 775 89 L775 809 ZM723 736 L723 88 L573 88 L573 736 L723 736 ZM243 419 L243 -55 L522 -55 L522 -85 L83 -85 L83 419 L243 419 ZM274 135 Q352 103 352 210 L352 389 L261 389 L261 419 L497 419 L497 236 Q497 109 409 90 Q331 74 274 135 ZM273 823 Q421 617 559 490 Q540 450 486 441 Q428 430 387 469 Q335 517 298 628 Q166 437 5 424 Q184 617 273 823 Z" /><glyph glyph-name="uni522B" unicode="&#x522b;" d="M68 420 L68 788 L228 788 L228 450 L338 450 L338 758 L248 758 L248 788 L498 788 L498 420 L68 420 ZM503 300 L503 71 Q503 -75 401 -96 Q315 -115 253 -54 Q342 -76 342 33 L342 270 L276 270 Q253 141 196 43 Q123 -84 14 -106 Q86 41 107 270 L29 270 L29 300 L109 300 Q112 346 112 375 L285 366 Q285 336 281 300 L503 300 ZM767 809 L937 809 L937 115 Q937 -73 798 -103 Q744 -115 683 -93 Q625 -73 601 -39 Q666 -61 712 -34 Q767 -2 767 89 L767 809 ZM715 736 L715 88 L560 88 L560 736 L715 736 Z" /><glyph glyph-name="uni524D" unicode="&#x524d;" d="M522 528 L522 40 Q522 -78 429 -97 Q340 -115 288 -38 Q314 -46 334 -36 Q356 -25 356 7 L356 135 L228 135 L228 -95 L62 -95 L62 528 L228 528 L228 335 L356 335 L356 498 L251 498 L251 528 L522 528 ZM228 165 L356 165 L356 305 L228 305 L228 165 ZM775 530 L937 530 L937 115 Q937 -74 817 -100 Q770 -111 718 -91 Q669 -73 638 -39 Q775 -70 775 89 L775 530 ZM725 485 L725 66 L572 66 L572 485 L725 485 ZM711 639 L978 639 L978 609 L22 609 L22 639 L279 639 Q231 742 178 809 Q253 819 325 793 Q403 765 414 714 Q423 672 392 639 L618 639 L662 815 L876 790 L711 639 Z" /><glyph glyph-name="uni529B" unicode="&#x529b;" d="M936 638 L936 143 Q936 32 884 -30 Q839 -84 762 -95 Q592 -118 497 8 Q574 -29 638 -25 Q699 -22 731 16 Q762 53 762 106 L762 608 L395 608 L395 519 Q395 239 295 73 Q199 -86 25 -121 Q218 53 218 531 L218 608 L7 608 L7 638 L218 638 L218 810 L395 810 L395 638 L936 638 Z" /><glyph glyph-name="uni529E" unicode="&#x529e;" d="M454 813 Q454 730 451 656 L780 656 L780 81 Q780 2 741 -48 Q694 -108 601 -108 Q476 -108 419 -6 Q483 -46 543 -26 Q610 -4 610 87 L610 626 L450 626 Q438 390 391 239 Q340 75 221 -24 Q129 -101 39 -113 Q248 101 270 626 L44 626 L44 656 L272 656 Q274 756 274 813 L454 813 ZM849 540 Q903 348 998 210 Q970 191 934 184 Q862 170 823 232 Q794 280 801 372 Q809 465 849 540 ZM177 225 Q137 167 66 181 Q31 188 3 207 Q113 345 164 537 Q198 458 202 363 Q206 269 177 225 Z" /><glyph glyph-name="uni529F" unicode="&#x529f;" d="M939 693 L939 78 Q939 -71 824 -93 Q721 -113 655 -36 Q713 -47 738 -35 Q769 -19 769 41 L769 663 L674 663 L674 355 Q674 164 616 40 Q553 -94 432 -119 Q502 -8 502 302 L502 663 L434 663 L434 693 L502 693 L502 810 L674 810 L674 693 L939 693 ZM304 24 Q386 27 450 26 L42 -113 L23 -3 Q60 3 134 11 L134 741 L18 741 L18 771 L421 771 L421 741 L304 741 L304 24 Z" /><glyph glyph-name="uni52A8" unicode="&#x52a8;" d="M448 788 L448 758 L44 758 L44 788 L448 788 ZM939 693 L939 78 Q939 -71 818 -93 Q770 -101 719 -85 Q670 -68 642 -36 Q703 -47 731 -35 Q769 -19 769 41 L769 663 L703 663 L703 441 Q703 -21 503 -119 Q531 21 531 297 L531 663 L479 663 L479 693 L531 693 L531 812 L703 812 L703 693 L939 693 ZM308 292 Q378 253 430 183 Q490 104 495 24 Q500 -67 433 -90 Q400 -101 365 -94 Q363 -70 361 -56 L35 -78 L111 376 L22 376 L22 406 L470 406 L470 376 L283 376 L208 -36 L358 -26 Q336 175 308 292 Z" /><glyph glyph-name="uni5347" unicode="&#x5347;" d="M972 364 L972 334 L818 334 L818 -105 L648 -105 L648 334 L365 334 Q354 135 288 31 Q207 -95 30 -110 Q190 16 194 334 L7 334 L7 364 L195 364 L195 660 Q72 657 9 675 Q255 718 491 817 L548 705 Q494 686 368 672 L368 442 Q368 389 367 364 L648 364 L648 810 L818 810 L818 364 L972 364 Z" /><glyph glyph-name="uni534E" unicode="&#x534e;" d="M590 247 L590 142 L967 142 L967 112 L590 112 L590 -102 L410 -102 L410 112 L33 112 L33 142 L410 142 L410 247 L590 247 ZM758 323 L972 323 L972 293 L588 293 L588 451 Q469 416 384 416 Q477 459 588 529 L588 810 L758 810 L758 645 Q829 697 874 741 L973 625 Q893 568 758 512 L758 323 ZM167 267 L167 521 Q86 474 9 468 Q149 638 230 827 L390 772 Q348 666 261 589 L337 589 L337 267 L167 267 Z" /><glyph glyph-name="uni539A" unicode="&#x539a;" d="M962 762 L239 762 L239 281 Q239 112 202 28 Q149 -95 5 -111 Q66 -17 66 229 L66 792 L962 792 L962 762 ZM285 679 L455 679 L455 546 L766 546 L766 649 L476 649 L476 679 L936 679 L936 383 L285 383 L285 679 ZM766 516 L455 516 L455 413 L766 413 L766 516 ZM973 131 L973 101 L754 101 L754 77 Q754 -10 708 -58 Q669 -99 604 -104 Q545 -109 489 -86 Q433 -63 413 -27 Q466 -48 514 -39 Q582 -26 582 52 L582 101 L267 101 L267 131 L582 131 L582 168 L723 270 L297 270 L297 300 L938 300 L938 270 L754 142 L754 131 L973 131 Z" /><glyph glyph-name="uni539F" unicode="&#x539f;" d="M239 762 L239 281 Q239 112 202 28 Q149 -95 5 -111 Q66 -17 66 229 L66 792 L962 792 L962 762 L239 762 ZM711 254 L711 63 Q711 -76 600 -104 Q500 -128 426 -61 Q472 -68 503 -48 Q541 -24 541 35 L541 254 L299 254 L299 564 L469 564 L469 424 L768 424 L768 534 L490 534 L490 564 L938 564 L938 254 L711 254 ZM469 394 L469 284 L768 284 L768 394 L469 394 ZM622 588 Q534 605 510 747 Q580 703 751 687 Q750 650 723 619 Q686 577 622 588 ZM770 206 Q861 78 995 -15 Q980 -43 937 -64 Q875 -94 818 -54 Q783 -30 767 46 Q751 126 770 206 ZM512 122 Q374 -52 231 -89 Q305 52 347 186 L512 122 Z" /><glyph glyph-name="uni53BB" unicode="&#x53bb;" d="M480 323 Q339 49 276 -53 L706 -53 Q665 -4 645 93 Q626 183 636 261 Q783 79 966 -9 Q950 -59 899 -88 Q831 -125 744 -83 L78 -83 Q199 127 270 323 L32 323 L32 353 L410 353 L410 608 L79 608 L79 638 L410 638 L410 806 L590 806 L590 638 L921 638 L921 608 L590 608 L590 353 L968 353 L968 323 L480 323 Z" /><glyph glyph-name="uni53C2" unicode="&#x53c2;" d="M99 611 Q192 715 256 824 L457 800 Q408 730 315 641 L679 641 Q615 716 613 819 Q760 733 913 687 Q911 646 871 615 Q821 575 745 596 Q727 601 712 611 L99 611 ZM648 287 Q581 238 410 209 Q234 179 129 204 Q410 263 560 370 L648 287 ZM767 172 Q686 112 501 71 Q281 23 115 61 Q463 118 677 257 L767 172 ZM82 -76 Q263 -62 491 5 Q706 68 795 127 L893 41 Q812 -29 567 -75 Q288 -127 82 -76 ZM618 464 Q802 374 997 360 Q994 323 960 284 Q911 229 833 239 Q655 262 559 464 L500 464 Q417 361 286 295 Q142 222 5 230 Q198 347 289 464 L35 464 L35 494 L311 494 Q342 540 364 585 L562 569 Q547 530 523 494 L965 494 L965 464 L618 464 Z" /><glyph glyph-name="uni53D1" unicode="&#x53d1;" d="M760 95 Q862 44 996 1 Q977 -66 896 -91 Q820 -115 753 -87 Q691 -62 625 -3 Q470 -94 285 -105 Q410 -48 551 79 Q463 197 437 351 Q521 246 639 165 Q752 290 784 411 L452 411 Q379 210 260 69 Q141 -74 14 -112 Q235 178 317 562 L57 562 L91 810 L258 799 L228 592 L323 592 Q344 701 350 819 L532 808 Q528 703 504 592 L967 592 L967 562 L498 562 Q483 502 463 441 L966 441 Q938 257 760 95 ZM846 616 Q710 623 708 816 Q805 730 957 723 Q953 695 937 668 Q905 613 846 616 Z" /><glyph glyph-name="uni53E3" unicode="&#x53e3;" d="M909 729 L909 -21 L91 -21 L91 729 L261 729 L261 9 L739 9 L739 699 L284 699 L284 729 L909 729 Z" /><glyph glyph-name="uni53EA" unicode="&#x53ea;" d="M79 310 L79 790 L258 790 L258 340 L741 340 L741 760 L278 760 L278 790 L921 790 L921 310 L79 310 ZM7 -116 Q188 93 276 284 L479 204 Q399 86 276 -1 Q141 -98 7 -116 ZM585 289 Q755 124 990 -1 Q974 -38 935 -67 Q871 -113 781 -94 Q693 -76 637 39 Q583 149 585 289 Z" /><glyph glyph-name="uni53F0" unicode="&#x53f0;" d="M701 703 Q790 599 974 464 Q955 407 894 391 Q834 375 777 406 L65 406 Q253 731 285 826 L476 798 Q384 616 251 436 L747 436 Q674 537 701 703 ZM889 302 L889 -81 L111 -81 L111 302 L281 302 L281 -51 L719 -51 L719 272 L299 272 L299 302 L889 302 Z" /><glyph glyph-name="uni53F7" unicode="&#x53f7;" d="M109 529 L109 787 L279 787 L279 559 L721 559 L721 757 L302 757 L302 787 L891 787 L891 529 L109 529 ZM964 385 L327 385 L327 236 L903 236 L903 95 Q903 11 847 -47 Q785 -109 682 -109 Q518 -109 443 -12 Q546 -55 625 -35 Q720 -11 720 99 L720 206 L147 206 L147 385 L36 385 L36 415 L964 415 L964 385 Z" /><glyph glyph-name="uni5408" unicode="&#x5408;" d="M489 851 Q711 629 998 517 Q971 465 915 439 Q842 406 755 444 Q636 496 546 649 Q456 558 312 489 Q152 413 2 406 Q307 600 489 851 ZM100 336 L100 366 L900 366 L900 336 L100 336 ZM890 212 L890 -81 L110 -81 L110 212 L290 212 L290 -51 L711 -51 L711 182 L315 182 L315 212 L890 212 Z" /><glyph glyph-name="uni540D" unicode="&#x540d;" d="M910 273 L910 -81 L177 -81 L177 223 Q94 210 9 209 Q245 308 363 383 Q587 524 672 703 L366 703 Q234 504 18 496 Q166 645 236 822 L415 803 Q404 768 385 733 L893 733 Q856 598 730 478 Q590 343 383 273 L910 273 ZM347 -51 L740 -51 L740 243 L347 243 L347 -51 ZM478 560 Q504 517 459 475 Q431 448 398 436 Q315 546 268 583 Q339 605 396 600 Q457 594 478 560 Z" /><glyph glyph-name="uni5411" unicode="&#x5411;" d="M938 665 L938 63 Q938 -86 820 -99 Q773 -104 725 -83 Q676 -61 650 -23 Q768 -61 768 36 L768 635 L252 635 L252 665 L410 665 Q415 743 410 821 L647 805 Q572 729 444 665 L938 665 ZM62 -100 L62 665 L232 665 L232 -100 L62 -100 ZM698 511 L698 65 L302 65 L302 511 L462 511 L462 95 L538 95 L538 481 L478 481 L478 511 L698 511 Z" /><glyph glyph-name="uni548C" unicode="&#x548c;" d="M504 466 L357 466 L357 -98 L187 -98 L187 280 Q143 -3 11 -92 Q52 42 84 425 L187 414 L187 466 L13 466 L13 496 L187 496 L187 709 Q73 707 8 711 Q297 769 460 824 L495 727 Q423 720 357 716 L357 496 L504 496 L504 466 ZM396 81 Q361 177 406 422 Q457 196 535 22 Q511 8 481 8 Q422 9 396 81 ZM941 762 L941 -48 L544 -48 L544 762 L704 762 L704 -18 L781 -18 L781 732 L721 732 L721 762 L941 762 Z" /><glyph glyph-name="uni54C1" unicode="&#x54c1;" d="M132 422 L132 786 L302 786 L302 452 L698 452 L698 756 L322 756 L322 786 L868 786 L868 422 L132 422 ZM456 310 L456 -83 L51 -83 L51 310 L204 310 L204 -53 L303 -53 L303 280 L223 280 L223 310 L456 310 ZM949 310 L949 -83 L544 -83 L544 310 L697 310 L697 -53 L796 -53 L796 280 L716 280 L716 310 L949 310 Z" /><glyph glyph-name="uni56FD" unicode="&#x56fd;" d="M943 796 L943 -87 L59 -87 L59 796 L229 796 L229 -57 L773 -57 L773 766 L252 766 L252 796 L943 796 ZM276 108 L415 108 L415 354 L299 354 L299 384 L415 384 L415 600 L290 600 L290 630 L709 630 L709 600 L585 600 L585 384 L701 384 L701 354 L585 354 L585 108 L724 108 L724 78 L276 78 L276 108 ZM630 167 Q605 190 607 242 Q610 288 632 329 Q681 233 738 184 Q731 168 699 156 Q659 141 630 167 Z" /><glyph glyph-name="uni5728" unicode="&#x5728;" d="M745 302 L745 -50 L975 -50 L975 -80 L345 -80 L345 -50 L575 -50 L575 302 L382 302 L382 332 L575 332 L575 518 L745 518 L745 332 L938 332 L938 302 L745 302 ZM978 669 L978 639 L414 639 Q358 520 271 429 L307 429 L307 -95 L137 -95 L137 320 Q71 283 3 273 Q157 431 231 639 L22 639 L22 669 L241 669 Q267 750 278 828 L470 813 Q461 746 427 669 L978 669 Z" /><glyph glyph-name="uni5747" unicode="&#x5747;" d="M268 47 Q338 47 375 46 Q176 -30 68 -78 L40 36 L98 39 L98 529 L37 529 L37 559 L98 559 L98 798 L268 798 L268 559 L330 559 L330 529 L268 529 L268 47 ZM937 735 L937 154 Q937 41 887 -28 Q836 -99 744 -106 Q627 -114 547 1 Q624 -42 689 -18 Q771 13 771 149 L771 234 L429 22 L348 161 Q556 232 771 285 L771 705 L573 705 Q493 492 313 416 Q381 554 409 825 L599 800 Q594 770 584 735 L937 735 ZM703 465 Q746 415 718 358 Q704 329 681 310 Q550 432 459 484 Q514 514 586 512 Q664 509 703 465 Z" /><glyph glyph-name="uni575A" unicode="&#x575a;" d="M590 91 L590 -54 L968 -54 L968 -84 L32 -84 L32 -54 L410 -54 L410 91 L65 91 L65 121 L410 121 L410 208 L590 208 L590 121 L935 121 L935 91 L590 91 ZM226 747 L226 290 L66 290 L66 747 L226 747 ZM460 804 L460 249 L290 249 L290 804 L460 804 ZM819 432 Q883 385 989 320 Q935 255 854 259 Q780 264 709 324 Q610 253 481 231 Q573 303 640 402 Q538 545 543 722 Q611 614 708 524 Q762 647 767 753 L523 753 L523 783 L943 783 Q932 581 819 432 Z" /><glyph glyph-name="uni578B" unicode="&#x578b;" d="M590 -54 L968 -54 L968 -84 L32 -84 L32 -54 L410 -54 L410 70 L79 70 L79 100 L410 100 L410 198 L590 198 L590 100 L921 100 L921 70 L590 70 L590 -54 ZM16 186 Q76 277 76 474 L76 495 L11 495 L11 525 L76 525 L76 760 L29 760 L29 790 L532 790 L532 760 L482 760 L482 525 L542 525 L542 495 L482 495 L482 228 L312 228 L312 495 L249 495 Q246 377 203 300 Q144 194 16 186 ZM249 760 L249 525 L312 525 L312 760 L249 760 ZM632 286 Q692 264 730 291 Q773 322 773 414 L773 809 L937 809 L937 440 Q937 244 808 219 Q758 209 706 230 Q656 250 632 286 ZM720 756 L720 371 L570 371 L570 756 L720 756 Z" /><glyph glyph-name="uni57FA" unicode="&#x57fa;" d="M590 57 L590 -54 L968 -54 L968 -84 L32 -84 L32 -54 L410 -54 L410 57 L195 57 L195 87 L410 87 L410 212 L590 212 L590 87 L805 87 L805 57 L590 57 ZM717 290 Q830 222 995 165 Q968 108 906 93 Q846 77 780 104 Q672 147 623 290 L432 290 Q375 205 260 138 Q128 61 4 63 Q169 199 224 290 L32 290 L32 320 L158 320 L158 686 L46 686 L46 716 L158 716 L158 804 L318 804 L318 716 L682 716 L682 804 L842 804 L842 716 L954 716 L954 686 L842 686 L842 320 L968 320 L968 290 L717 290 ZM318 554 L318 452 L682 452 L682 554 L318 554 ZM682 686 L318 686 L318 584 L682 584 L682 686 ZM318 422 L318 320 L682 320 L682 422 L318 422 Z" /><glyph glyph-name="uni590F" unicode="&#x590f;" d="M421 646 L414 759 L32 759 L32 789 L968 789 L968 759 L592 759 L421 646 L907 646 L907 288 L93 288 L93 646 L263 646 L263 537 L737 537 L737 616 L281 616 L281 646 L421 646 ZM737 507 L263 507 L263 427 L737 427 L737 507 ZM263 318 L737 318 L737 397 L263 397 L263 318 ZM680 31 Q759 17 990 -6 Q941 -132 738 -107 Q637 -95 518 -38 Q289 -113 27 -107 Q243 -66 423 17 Q334 79 282 152 Q391 102 518 67 Q629 134 669 196 L302 196 Q190 32 4 2 Q87 80 159 278 L336 256 Q333 247 321 226 L885 226 Q846 120 680 31 Z" /><glyph glyph-name="uni591A" unicode="&#x591a;" d="M957 348 Q892 133 668 11 Q425 -123 85 -90 Q382 -16 526 73 Q463 136 417 164 Q577 223 624 165 Q630 157 632 153 Q710 225 756 318 L534 318 Q381 127 119 112 Q228 194 329 326 Q183 295 30 310 Q285 386 444 479 Q366 559 315 591 Q476 649 522 591 Q541 566 533 539 Q648 626 700 730 L413 730 Q278 538 45 509 Q194 647 267 828 L448 791 Q443 778 433 760 L901 760 Q827 515 513 383 L567 368 Q562 357 555 348 L957 348 Z" /><glyph glyph-name="uni5927" unicode="&#x5927;" d="M563 515 Q718 181 997 -20 Q970 -63 915 -82 Q846 -105 770 -71 Q691 -35 622 119 Q556 264 535 426 Q471 192 320 52 Q191 -68 20 -102 Q163 27 238 147 Q336 302 375 515 L30 515 L30 545 L380 545 Q400 670 403 817 L578 807 Q579 663 560 545 L970 545 L970 515 L563 515 Z" /><glyph glyph-name="uni5956" unicode="&#x5956;" d="M972 179 L539 179 Q492 40 350 -36 Q202 -115 14 -94 Q286 1 358 179 L28 179 L28 209 L368 209 Q379 244 382 279 L557 271 Q555 239 548 209 L972 209 L972 179 ZM551 178 Q768 53 986 2 Q976 -25 950 -51 Q900 -105 826 -105 Q735 -105 657 -17 Q587 61 551 178 ZM675 723 Q582 536 416 528 Q505 657 533 818 L705 801 Q698 775 689 753 L963 753 Q951 569 815 435 Q663 285 445 303 Q571 359 663 462 Q605 531 566 559 Q688 603 723 552 L726 547 Q777 633 791 723 L675 723 ZM209 640 Q215 578 156 555 Q126 543 95 544 Q70 713 41 789 Q104 771 154 727 Q205 682 209 640 ZM233 464 L83 322 L12 433 L233 532 L233 806 L403 806 L403 296 L233 296 L233 464 Z" /><glyph glyph-name="uni597D" unicode="&#x597d;" d="M220 796 L220 670 L441 670 L441 421 Q441 274 363 145 Q411 110 426 75 Q452 19 424 -25 Q410 -47 391 -58 Q311 14 280 39 Q161 -80 7 -103 Q113 -33 195 107 Q166 130 64 207 L64 640 L24 640 L24 670 L64 670 L64 796 L220 796 ZM285 640 L220 640 L220 216 Q229 214 243 208 Q285 315 285 431 L285 640 ZM982 403 L982 373 L804 373 L804 119 Q804 -81 654 -103 Q596 -112 539 -89 Q484 -66 463 -29 Q520 -51 564 -39 Q632 -21 632 80 L632 373 L477 373 L477 403 L632 403 L632 490 L748 752 L475 752 L475 782 L948 782 L804 502 L804 403 L982 403 Z" /><glyph glyph-name="uni5982" unicode="&#x5982;" d="M374 142 Q438 98 456 57 Q482 1 454 -55 Q440 -82 421 -99 Q331 -15 283 27 Q162 -93 5 -108 Q111 -37 198 101 Q125 162 66 207 L66 650 L21 650 L21 680 L66 680 L66 809 L221 809 L221 680 L458 680 L458 444 Q458 280 374 142 ZM221 221 Q235 216 255 207 Q302 321 302 431 L302 650 L221 650 L221 221 ZM936 732 L936 -78 L533 -78 L533 732 L693 732 L693 -48 L776 -48 L776 702 L712 702 L712 732 L936 732 Z" /><glyph glyph-name="uni59CB" unicode="&#x59cb;" d="M208 796 L208 670 L412 670 L412 444 Q412 287 336 148 Q380 114 397 75 Q420 19 395 -25 Q382 -47 365 -58 Q317 -9 261 42 Q147 -85 5 -108 Q111 -31 186 107 L66 207 L66 640 L26 640 L26 670 L66 670 L66 796 L208 796 ZM269 640 L208 640 L208 216 Q217 213 231 207 Q269 316 269 431 L269 640 ZM930 314 L930 -82 L446 -82 L446 314 L616 314 L616 -52 L760 -52 L760 284 L636 284 L636 314 L930 314 ZM779 743 Q843 603 974 457 Q953 434 922 419 Q860 388 811 427 L436 427 Q504 641 548 819 L736 794 Q623 486 610 457 L783 457 Q748 509 750 600 Q751 682 779 743 Z" /><glyph glyph-name="uni59D4" unicode="&#x59d4;" d="M415 335 L415 582 L38 582 L38 612 L415 612 L415 715 Q212 713 67 727 Q674 783 866 812 L905 739 Q721 724 585 719 L585 612 L962 612 L962 582 L585 582 L585 335 L415 335 ZM404 493 Q337 420 220 370 Q101 320 5 328 Q163 448 246 567 L404 493 ZM838 308 Q764 311 698 390 Q638 463 611 566 Q798 445 986 421 Q981 391 960 362 Q917 304 838 308 ZM464 296 L423 229 L966 229 L966 199 L865 199 Q832 131 746 67 Q825 56 862 42 Q936 11 943 -55 Q946 -88 934 -115 Q834 -82 566 -27 Q340 -111 14 -100 Q241 -58 390 6 Q249 32 143 46 Q177 105 217 199 L34 199 L34 229 L230 229 L267 321 L464 296 ZM403 199 Q362 140 331 101 Q435 98 540 89 Q608 138 657 199 L403 199 Z" /><glyph glyph-name="uni5B57" unicode="&#x5b57;" d="M622 238 L622 207 L973 207 L973 177 L622 177 L622 65 Q622 -22 576 -70 Q537 -111 472 -117 Q414 -122 358 -99 Q302 -76 282 -40 Q336 -61 383 -52 Q451 -39 451 39 L451 177 L27 177 L27 207 L451 207 L451 254 L657 416 L111 416 L111 446 L856 446 L856 416 L622 238 ZM196 521 Q169 466 105 464 Q61 462 17 482 Q73 624 81 732 Q128 705 163 658 L785 658 L786 695 L993 673 Q890 559 779 460 L784 628 L183 628 Q219 565 196 521 ZM522 676 Q456 676 401 742 Q353 802 337 882 Q448 800 642 805 Q643 773 629 741 Q600 676 522 676 Z" /><glyph glyph-name="uni5B63" unicode="&#x5b63;" d="M415 355 L415 582 L45 582 L45 612 L415 612 L415 696 Q185 693 63 708 Q534 753 863 803 L889 726 Q755 710 585 702 L585 612 L955 612 L955 582 L585 582 L585 355 L415 355 ZM391 508 Q339 440 227 389 Q106 333 4 342 Q153 451 239 571 L391 508 ZM844 352 Q699 358 618 573 Q782 493 991 449 Q986 424 965 399 Q923 349 844 352 ZM650 152 L650 131 L960 131 L960 101 L650 101 L650 65 Q650 -22 604 -70 Q565 -111 500 -117 Q442 -122 385 -99 Q330 -76 310 -40 Q364 -61 411 -52 Q478 -39 478 39 L478 101 L40 101 L40 131 L478 131 L478 168 L638 277 L153 277 L153 307 L843 307 L843 277 L650 152 Z" /><glyph glyph-name="uni5B9E" unicode="&#x5b9e;" d="M113 411 Q173 444 245 438 Q318 432 352 389 Q390 340 361 292 Q346 268 324 254 Q219 353 113 411 ZM466 520 Q504 472 474 424 Q459 400 437 385 Q334 483 227 542 Q286 576 359 570 Q432 564 466 520 ZM196 518 Q169 461 105 459 Q61 457 17 478 Q73 626 81 738 Q123 713 157 670 L786 670 L786 695 L993 671 L779 432 L785 640 L177 640 Q220 569 196 518 ZM517 684 Q455 688 409 755 Q367 816 358 897 Q455 796 638 801 Q637 770 621 740 Q590 680 517 684 ZM986 197 L591 197 Q384 -127 9 -106 Q268 -3 403 197 L27 197 L27 227 L422 227 Q510 370 548 587 L723 571 Q696 378 609 227 L986 227 L986 197 ZM836 -104 Q651 -96 582 161 Q732 69 992 14 Q983 -17 958 -47 Q910 -107 836 -104 Z" /><glyph glyph-name="uni5BA1" unicode="&#x5ba1;" d="M892 456 L892 35 L585 35 L585 -109 L415 -109 L415 35 L108 35 L108 456 L278 456 L278 260 L415 260 L415 426 L300 426 L300 456 L415 456 L415 570 L585 570 L585 456 L892 456 ZM585 426 L585 260 L722 260 L722 426 L585 426 ZM278 65 L415 65 L415 230 L278 230 L278 65 ZM585 65 L722 65 L722 230 L585 230 L585 65 ZM196 528 Q169 475 105 472 Q60 471 17 490 Q73 633 81 737 Q126 711 163 665 L796 665 L797 703 L994 681 Q899 566 790 468 L795 635 L183 635 Q219 572 196 528 ZM513 683 Q453 685 407 748 Q365 805 354 882 Q450 789 627 799 Q627 769 612 740 Q584 681 513 683 Z" /><glyph glyph-name="uni5BB6" unicode="&#x5bb6;" d="M196 506 Q169 449 105 447 Q61 445 17 466 Q73 614 81 726 Q118 704 147 670 L787 670 L786 695 L993 673 Q911 511 779 460 Q787 552 787 640 L170 640 Q223 561 196 506 ZM512 687 Q452 689 405 749 Q363 803 352 876 Q454 800 625 796 Q625 768 611 740 Q583 685 512 687 ZM693 268 Q835 85 981 -29 Q962 -66 891 -80 Q810 -97 760 -45 Q672 46 662 260 L602 245 L602 119 Q602 -77 465 -102 Q413 -112 360 -93 Q310 -74 291 -44 Q429 -85 432 63 Q219 -40 35 -16 Q278 66 432 195 L432 229 Q216 123 30 147 Q284 250 411 351 Q403 369 393 383 Q184 274 31 295 Q258 399 377 515 L219 515 L219 545 L767 545 L767 515 L603 515 Q571 491 520 457 Q587 393 600 281 L843 464 L941 330 L693 268 Z" /><glyph glyph-name="uni5BFC" unicode="&#x5bfc;" d="M947 389 L947 359 L83 359 L83 789 L253 789 L253 571 L725 571 L725 759 L272 759 L272 789 L895 789 L895 541 L253 541 L253 389 L947 389 ZM970 224 L970 194 L903 194 L903 68 Q903 -72 777 -96 Q727 -105 677 -89 Q628 -73 604 -39 Q649 -63 689 -45 Q734 -24 734 43 L734 194 L30 194 L30 224 L734 224 L734 313 L903 313 L903 224 L970 224 ZM184 149 Q281 86 500 41 Q502 -1 472 -38 Q430 -89 349 -69 Q298 -57 251 2 Q199 66 184 149 Z" /><glyph glyph-name="uni5C06" unicode="&#x5c06;" d="M706 73 Q693 39 663 19 Q618 -11 562 20 Q524 41 508 104 Q493 163 504 220 Q580 140 706 73 ZM917 388 L917 276 L960 276 L960 246 L917 246 L917 68 Q917 -72 791 -96 Q741 -105 691 -89 Q641 -73 617 -39 Q662 -63 702 -45 Q747 -24 747 43 L747 246 L400 246 L400 276 L747 276 L747 388 L917 388 ZM190 550 Q196 469 134 439 Q103 424 71 425 Q46 636 14 742 Q80 719 133 662 Q186 604 190 550 ZM212 327 L212 803 L382 803 L382 -101 L212 -101 L212 199 L76 12 L6 171 L212 327 ZM978 738 Q940 574 811 461 Q648 319 409 339 Q540 377 659 492 Q615 569 585 601 Q699 617 727 573 Q772 635 794 708 L653 708 Q612 631 548 578 Q475 519 398 515 Q465 607 514 807 L684 789 Q679 769 667 738 L978 738 Z" /><glyph glyph-name="uni5C31" unicode="&#x5c31;" d="M537 665 L537 635 L35 635 L35 665 L537 665 ZM370 279 L370 38 Q370 -101 267 -111 Q176 -120 120 -51 Q152 -64 174 -54 Q203 -42 203 8 L203 279 L57 279 L57 544 L217 544 L217 309 L357 309 L357 514 L232 514 L232 544 L517 544 L517 279 L370 279 ZM304 676 Q247 679 211 732 Q176 782 167 864 Q253 779 415 784 Q413 756 398 728 Q368 672 304 676 ZM188 193 Q167 99 116 13 Q67 -71 19 -98 Q57 63 73 215 L188 193 ZM390 216 Q439 195 478 142 Q520 83 515 31 Q510 -28 463 -38 Q439 -43 416 -36 Q414 110 390 216 ZM874 -54 L981 -54 L981 -84 L714 -84 L714 282 Q641 -48 503 -117 Q574 140 597 602 L546 602 L546 632 L599 632 Q605 805 605 820 L772 810 Q771 718 763 632 L971 632 L971 602 L761 602 Q754 521 748 476 L874 476 L874 -54 ZM860 659 Q824 679 815 732 Q808 780 824 829 Q876 760 981 715 Q973 688 946 666 Q907 633 860 659 Z" /><glyph glyph-name="uni5C55" unicode="&#x5c55;" d="M239 595 L239 359 Q239 185 196 69 Q136 -92 2 -114 Q66 3 66 307 L66 791 L239 791 L239 625 L771 625 L771 761 L261 761 L261 791 L941 791 L941 595 L239 595 ZM745 94 Q876 15 985 -19 Q967 -65 921 -90 Q856 -125 767 -90 Q610 -28 562 236 Q629 168 718 111 Q763 167 799 237 L946 182 Q873 111 745 94 ZM508 44 Q508 -24 527 -48 Q552 -79 621 -59 Q530 -129 440 -109 Q338 -86 338 51 L338 257 L272 257 L272 287 L384 287 L384 438 L292 438 L292 468 L384 468 L384 548 L554 548 L554 468 L679 468 L679 548 L849 548 L849 468 L941 468 L941 438 L849 438 L849 287 L962 287 L962 257 L508 257 L508 44 ZM554 438 L554 287 L679 287 L679 438 L554 438 Z" /><glyph glyph-name="uni5E73" unicode="&#x5e73;" d="M947 622 Q829 418 677 327 Q723 504 758 672 L947 622 ZM291 464 Q301 385 233 355 Q198 340 162 341 Q117 523 47 662 Q126 651 201 595 Q282 534 291 464 ZM961 789 L961 759 L585 759 L585 261 L961 261 L961 231 L585 231 L585 -99 L415 -99 L415 231 L39 231 L39 261 L415 261 L415 759 L39 759 L39 789 L961 789 Z" /><glyph glyph-name="uni5E74" unicode="&#x5e74;" d="M985 174 L985 144 L690 144 L690 -106 L510 -106 L510 144 L15 144 L15 174 L154 174 L154 457 L510 457 L510 649 L265 649 Q170 518 16 479 Q97 610 143 813 L332 781 Q313 725 285 679 L977 679 L977 649 L690 649 L690 457 L946 457 L946 427 L690 427 L690 174 L985 174 ZM334 174 L510 174 L510 427 L334 427 L334 174 Z" /><glyph glyph-name="uni5E7F" unicode="&#x5e7f;" d="M962 637 L962 607 L241 607 L241 278 Q241 111 203 26 Q149 -97 5 -113 Q68 -42 68 227 L68 637 L962 637 ZM562 650 Q500 654 459 715 Q420 772 412 864 Q499 777 680 767 Q679 736 663 706 Q632 645 562 650 Z" /><glyph glyph-name="uni5E8F" unicode="&#x5e8f;" d="M962 649 L241 649 L241 278 Q241 111 203 26 Q149 -97 5 -113 Q68 -42 68 227 L68 679 L962 679 L962 649 ZM574 693 Q510 690 457 748 Q408 800 390 875 Q498 791 683 815 Q685 786 673 756 Q648 696 574 693 ZM810 258 L698 258 L698 55 Q698 -97 575 -111 Q526 -117 476 -95 Q427 -74 402 -37 Q454 -51 488 -37 Q528 -21 528 29 L528 258 L283 258 L283 288 L550 288 Q436 388 352 433 Q483 467 608 407 L732 535 L306 535 L306 565 L942 565 L942 540 L685 311 Q683 298 679 288 L809 288 L808 319 L984 303 Q909 204 814 101 L810 258 Z" /><glyph glyph-name="uni5EA7" unicode="&#x5ea7;" d="M962 629 L241 629 L241 278 Q241 111 203 26 Q149 -97 5 -113 Q68 -42 68 227 L68 659 L962 659 L962 629 ZM558 679 Q490 678 435 741 Q385 799 369 878 Q495 786 680 802 Q681 771 667 741 Q637 679 558 679 ZM709 -50 L974 -50 L974 -80 L274 -80 L274 -50 L539 -50 L539 114 L295 114 L295 144 L539 144 L539 571 L709 571 L709 144 L954 144 L954 114 L709 114 L709 -50 ZM409 307 Q347 218 266 195 Q323 315 350 556 L493 541 Q488 470 453 387 Q511 338 515 287 Q521 233 477 217 Q456 209 433 212 Q427 243 409 307 ZM915 546 Q912 487 886 411 Q959 347 956 285 Q954 234 909 225 Q886 220 864 226 Q860 280 851 334 Q797 238 723 214 Q771 329 794 560 L915 546 Z" /><glyph glyph-name="uni5F00" unicode="&#x5f00;" d="M973 364 L973 334 L833 334 L833 -98 L663 -98 L663 334 L377 334 Q358 154 286 40 Q201 -93 59 -105 Q187 35 207 334 L27 334 L27 364 L209 364 Q210 387 210 433 L210 760 L44 760 L44 790 L956 790 L956 760 L833 760 L833 364 L973 364 ZM663 364 L663 760 L384 760 L384 451 Q384 422 380 364 L663 364 Z" /><glyph glyph-name="uni5F53" unicode="&#x5f53;" d="M592 811 L592 475 L934 475 L934 -83 L56 -83 L56 -53 L754 -53 L754 181 L66 181 L66 211 L754 211 L754 445 L56 445 L56 475 L412 475 L412 811 L592 811 ZM940 679 Q813 575 639 527 Q722 658 793 783 L940 679 ZM238 521 Q131 672 56 742 Q134 758 209 739 Q292 718 316 665 Q342 606 293 558 Q268 534 238 521 Z" /><glyph glyph-name="uni5F81" unicode="&#x5f81;" d="M330 510 Q301 399 217 327 L290 327 L290 -99 L120 -99 L120 268 Q71 247 5 239 Q109 345 155 540 L330 510 ZM5 514 Q109 627 155 814 L330 784 Q301 674 218 602 Q130 526 5 514 ZM809 -51 L989 -51 L989 -81 L331 -81 L331 -51 L388 -51 L388 616 L548 616 L548 -51 L639 -51 L639 753 L358 753 L358 783 L984 783 L984 753 L809 753 L809 401 L962 401 L962 371 L809 371 L809 -51 Z" /><glyph glyph-name="uni6027" unicode="&#x6027;" d="M136 -97 L136 803 L306 803 L306 -97 L136 -97 ZM2 271 Q66 430 89 617 Q152 429 114 331 Q92 272 45 266 Q21 263 2 271 ZM315 562 Q351 543 378 496 Q404 450 402 412 Q398 355 361 343 Q343 337 325 343 Q331 476 315 562 ZM825 -50 L989 -50 L989 -80 L409 -80 L409 -50 L645 -50 L645 259 L459 259 L459 289 L645 289 L645 597 L575 597 Q513 397 412 326 Q446 539 460 796 L613 775 Q605 705 584 627 L645 627 L645 806 L825 806 L825 627 L978 627 L978 597 L825 597 L825 289 L966 289 L966 259 L825 259 L825 -50 Z" /><glyph glyph-name="uni6210" unicode="&#x6210;" d="M78 664 L251 664 L251 281 Q251 118 208 30 Q150 -90 5 -106 Q78 -34 78 229 L78 664 ZM997 -117 Q832 -108 739 41 Q585 -78 450 -110 Q566 -6 689 140 Q616 318 584 634 L274 634 L274 664 L581 664 Q573 754 570 813 L745 824 L752 743 Q756 692 759 664 L972 664 L972 634 L762 634 Q776 497 792 411 Q805 340 814 301 Q844 342 883 403 L995 299 Q929 218 857 146 Q916 -29 997 -117 ZM511 151 Q511 3 408 -26 Q319 -51 257 11 Q348 -7 348 104 L348 364 L274 364 L274 394 L511 394 L511 151 ZM867 683 Q786 709 796 843 Q845 794 976 753 Q970 724 943 700 Q909 670 867 683 Z" /><glyph glyph-name="uni6211" unicode="&#x6211;" d="M824 113 Q883 -53 995 -91 Q773 -135 680 45 Q543 -12 419 -22 Q496 1 650 116 Q613 232 613 401 L613 477 L375 477 L375 376 Q482 386 507 294 Q451 293 375 276 L375 167 Q375 47 325 -24 Q274 -97 181 -97 Q129 -97 96 -56 Q62 -14 65 50 Q77 -6 110 -26 Q139 -44 168 -30 Q191 -19 199 10 Q205 37 205 107 L205 213 Q127 170 65 105 Q117 228 205 300 L205 477 L28 477 L28 507 L205 507 L205 671 Q116 662 30 675 Q274 720 413 828 L485 735 Q443 719 375 700 L375 507 L613 507 L613 803 L783 803 L783 507 L972 507 L972 477 L783 477 L783 365 Q783 300 794 231 Q858 287 886 320 L981 211 Q909 159 824 113 ZM857 568 Q782 616 852 781 Q905 669 988 607 Q973 586 949 570 Q901 539 857 568 Z" /><glyph glyph-name="uni624B" unicode="&#x624b;" d="M977 238 L977 208 L598 208 L598 96 Q598 7 556 -47 Q507 -110 409 -109 Q309 -106 250 -18 Q332 -48 377 -27 Q426 -4 426 77 L426 208 L23 208 L23 238 L426 238 L426 457 L68 457 L68 487 L426 487 L426 703 Q210 701 56 715 Q522 752 873 819 L921 726 Q756 713 598 707 L598 487 L932 487 L932 457 L598 457 L598 238 L977 238 Z" /><glyph glyph-name="uni6280" unicode="&#x6280;" d="M290 260 L290 69 Q290 -83 179 -102 Q86 -118 20 -55 Q58 -63 85 -43 Q120 -16 120 53 L120 194 L52 169 L21 261 Q110 274 120 275 L120 591 L22 591 L22 621 L120 621 L120 804 L290 804 L290 621 L378 621 L378 591 L290 591 L290 297 Q366 305 410 308 L290 260 ZM776 112 Q887 27 995 -31 Q957 -85 885 -93 Q820 -100 751 -69 Q702 -46 652 4 Q516 -90 347 -111 Q472 -37 581 88 Q468 247 444 439 Q545 310 667 202 Q751 335 766 468 L420 468 L420 498 L601 498 L601 662 L397 662 L397 692 L601 692 L601 807 L771 807 L771 692 L964 692 L964 662 L771 662 L771 498 L945 498 Q936 293 776 112 Z" /><glyph glyph-name="uni62FF" unicode="&#x62ff;" d="M489 851 Q713 711 998 640 Q980 599 929 579 Q864 553 776 577 Q768 579 752 585 L752 571 L236 571 L236 589 Q119 559 2 555 Q309 686 489 851 ZM716 601 Q621 648 550 720 Q447 649 279 601 L716 601 ZM142 507 L312 507 L312 391 L688 391 L688 477 L329 477 L329 507 L858 507 L858 361 L142 361 L142 507 ZM611 157 L611 87 L950 87 L950 57 L611 57 Q603 -105 422 -105 Q304 -105 238 -9 Q322 -44 376 -29 Q432 -13 438 57 L50 57 L50 87 L439 87 L439 157 L86 157 L86 187 L439 187 L439 243 Q216 240 52 255 Q703 306 876 333 L917 266 Q758 252 611 247 L611 187 L914 187 L914 157 L611 157 Z" /><glyph glyph-name="uni6301" unicode="&#x6301;" d="M268 297 Q331 297 364 296 Q323 281 268 262 L268 69 Q268 -68 170 -92 Q86 -114 24 -55 Q99 -70 99 41 L99 205 L52 190 L24 287 Q63 289 99 290 L99 591 L22 591 L22 621 L99 621 L99 804 L268 804 L268 621 L347 621 L347 591 L268 591 L268 297 ZM890 374 L890 292 L962 292 L962 262 L890 262 L890 85 Q890 -78 752 -99 Q697 -107 644 -86 Q590 -65 565 -26 Q619 -56 669 -36 Q720 -16 720 40 L720 262 L377 262 L377 292 L720 292 L720 374 L890 374 ZM768 485 L978 485 L978 455 L378 455 L378 485 L588 485 L588 660 L395 660 L395 690 L588 690 L588 811 L768 811 L768 690 L962 690 L962 660 L768 660 L768 485 ZM606 110 Q619 54 560 18 Q530 0 498 -7 Q451 116 381 204 Q452 213 521 187 Q595 160 606 110 Z" /><glyph glyph-name="uni6307" unicode="&#x6307;" d="M253 297 Q304 297 330 296 Q298 283 253 266 L253 69 Q253 -68 161 -92 Q82 -114 21 -55 Q84 -68 84 41 L84 202 Q71 198 49 190 L24 287 L84 290 L84 591 L22 591 L22 621 L84 621 L84 804 L253 804 L253 621 L315 621 L315 591 L253 591 L253 297 ZM934 325 L934 -83 L369 -83 L369 325 L539 325 L539 136 L764 136 L764 295 L558 295 L558 325 L934 325 ZM539 -53 L764 -53 L764 106 L539 106 L539 -53 ZM539 448 L964 448 L964 418 L369 418 L369 805 L539 805 L539 651 Q789 717 924 763 L969 636 Q759 598 539 583 L539 448 Z" /><glyph glyph-name="uni6389" unicode="&#x6389;" d="M971 80 L971 50 L744 50 L744 -99 L574 -99 L574 50 L369 50 L369 80 L574 80 L574 200 L379 200 L379 573 L561 573 L561 810 L731 810 L731 723 L955 723 L955 693 L731 693 L731 573 L938 573 L938 200 L744 200 L744 80 L971 80 ZM768 543 L549 543 L549 402 L768 402 L768 543 ZM549 372 L549 230 L768 230 L768 372 L549 372 ZM266 297 Q322 297 350 296 Q315 283 266 266 L266 69 Q266 -68 174 -92 Q95 -114 34 -55 Q65 -61 80 -42 Q96 -20 96 41 L96 206 Q88 203 71 198 Q56 193 49 190 L24 287 Q74 289 96 291 L96 591 L22 591 L22 621 L96 621 L96 804 L266 804 L266 621 L335 621 L335 591 L266 591 L266 297 Z" /><glyph glyph-name="uni63A8" unicode="&#x63a8;" d="M253 297 Q304 297 330 296 Q298 283 253 266 L253 69 Q253 -68 161 -92 Q82 -114 21 -55 Q84 -68 84 41 L84 202 Q71 198 49 190 L24 287 L84 290 L84 591 L22 591 L22 621 L84 621 L84 804 L253 804 L253 621 L315 621 L315 591 L253 591 L253 297 ZM838 -51 L976 -51 L976 -81 L370 -81 L370 503 Q327 475 280 458 Q354 593 409 829 L575 781 Q549 700 495 626 L966 626 L966 596 L838 596 L838 400 L959 400 L959 370 L838 370 L838 174 L959 174 L959 144 L838 144 L838 -51 ZM668 174 L668 370 L540 370 L540 174 L668 174 ZM668 400 L668 596 L540 596 L540 400 L668 400 ZM540 144 L540 -51 L668 -51 L668 144 L540 144 ZM754 647 Q699 655 666 722 Q636 783 636 862 Q711 759 870 752 Q866 722 850 694 Q817 638 754 647 Z" /><glyph glyph-name="uni63D0" unicode="&#x63d0;" d="M330 296 Q298 283 253 266 L253 69 Q253 -68 161 -92 Q82 -114 21 -55 Q84 -68 84 41 L84 202 Q71 198 49 190 L24 287 L84 290 L84 591 L22 591 L22 621 L84 621 L84 804 L253 804 L253 621 L315 621 L315 591 L253 591 L253 297 Q304 297 330 296 ZM364 432 L364 791 L534 791 L534 627 L757 627 L757 761 L551 761 L551 791 L927 791 L927 432 L364 432 ZM757 597 L534 597 L534 462 L757 462 L757 597 ZM788 39 Q859 21 993 9 Q980 -108 850 -108 Q763 -108 682 -63 Q584 -9 523 99 Q447 -96 292 -117 Q345 -14 386 269 L560 246 Q554 195 539 144 Q584 117 618 101 L618 306 L332 306 L332 336 L971 336 L971 306 L788 306 L788 175 L948 175 L948 145 L788 145 L788 39 Z" /><glyph glyph-name="uni6536" unicode="&#x6536;" d="M286 73 L286 806 L452 806 L452 -100 L286 -100 L286 42 L63 16 L63 781 L229 781 L229 67 L286 73 ZM805 141 Q895 37 997 -43 Q951 -93 879 -93 Q808 -94 752 -48 Q722 -23 694 16 Q597 -67 458 -109 Q557 -32 640 117 Q576 273 579 491 Q640 364 709 266 Q716 286 725 315 Q766 451 776 646 L675 646 Q605 482 474 436 Q524 591 543 810 L716 796 Q708 737 687 676 L973 676 L973 646 L936 646 Q932 333 805 141 Z" /><glyph glyph-name="uni6539" unicode="&#x6539;" d="M797 141 Q886 41 996 -41 Q956 -96 889 -99 Q823 -103 769 -56 Q735 -26 698 26 Q574 -86 403 -109 Q548 -3 639 138 Q577 286 565 483 Q520 438 463 416 Q521 567 532 819 L705 804 Q698 743 676 676 L975 676 L975 646 L945 646 Q940 353 797 141 ZM567 486 Q630 358 703 258 Q777 427 786 646 L666 646 Q625 544 567 486 ZM241 16 L465 48 L78 -108 L43 -12 L71 -8 L71 384 L285 384 L285 759 L43 759 L43 789 L455 789 L455 354 L241 354 L241 16 Z" /><glyph glyph-name="uni6559" unicode="&#x6559;" d="M815 155 Q897 48 997 -40 Q955 -93 887 -93 Q821 -93 770 -44 Q740 -16 714 25 Q615 -69 471 -102 Q581 -10 658 141 Q605 289 608 480 Q556 414 495 390 Q555 563 575 819 L745 805 Q737 746 713 676 L970 676 L970 646 L924 646 Q922 345 815 155 ZM622 498 Q666 389 721 294 L724 303 Q755 404 773 646 L702 646 Q667 561 622 498 ZM395 147 L395 62 Q395 -84 270 -97 Q221 -103 173 -82 Q125 -61 105 -25 Q155 -44 181 -37 Q224 -25 224 54 L224 92 L59 40 L30 126 Q123 144 224 159 L224 208 L309 350 L303 350 Q165 219 4 204 Q72 245 165 350 L42 350 L42 380 L190 380 Q232 433 263 479 L32 479 L32 509 L126 509 L126 662 L61 662 L61 692 L126 692 L126 802 L286 802 L286 692 L346 692 L346 662 L286 662 L286 514 Q354 626 398 752 L534 714 Q500 614 434 509 L491 509 L491 479 L414 479 Q374 422 333 380 L482 380 L482 355 L395 210 L395 182 Q475 191 551 197 L395 147 Z" /><glyph glyph-name="uni6570" unicode="&#x6570;" d="M540 776 Q491 681 396 606 Q410 704 417 796 L540 776 ZM196 516 Q137 360 19 302 Q65 441 81 548 L196 516 ZM191 718 Q199 671 156 638 Q134 622 111 615 Q77 722 30 793 Q81 803 130 782 Q184 760 191 718 ZM434 365 Q395 389 392 452 Q389 502 406 554 Q468 474 564 399 Q550 379 527 365 Q481 337 434 365 ZM205 358 L205 570 L21 570 L21 600 L205 600 L205 808 L365 808 L365 600 L552 600 L552 570 L365 570 L365 358 L205 358 ZM443 67 Q474 52 487 37 Q529 -10 521 -66 Q517 -93 504 -112 Q431 -72 339 -30 Q203 -117 5 -103 Q138 -54 226 19 Q140 54 51 83 Q89 161 123 243 L24 243 L24 273 L136 273 L162 343 L315 318 Q309 301 295 273 L552 273 L552 243 L522 243 Q504 148 443 67 ZM281 243 Q247 179 215 129 Q258 122 312 109 Q357 174 370 243 L281 243 ZM830 155 Q903 45 994 -51 Q957 -98 897 -97 Q838 -96 792 -47 Q764 -19 737 26 Q653 -64 531 -109 Q619 -23 692 125 Q629 300 641 529 Q691 400 753 284 L764 323 Q796 453 804 667 L728 667 Q663 513 542 472 Q595 602 606 819 L766 806 Q758 752 739 697 L975 697 L975 667 L942 667 Q939 357 830 155 Z" /><glyph glyph-name="uni6574" unicode="&#x6574;" d="M648 61 L648 -54 L968 -54 L968 -84 L32 -84 L32 -54 L150 -54 L150 159 L330 159 L330 -54 L468 -54 L468 207 L49 207 L49 237 L951 237 L951 207 L648 207 L648 91 L943 91 L943 61 L648 61 ZM700 699 Q634 576 525 540 Q572 654 593 817 L743 806 Q731 765 714 729 L964 729 L964 699 L927 699 Q921 523 835 413 Q894 371 975 332 Q938 285 872 281 Q809 276 756 313 Q750 317 738 327 Q651 274 528 261 Q619 314 684 394 Q635 480 633 601 Q695 530 743 486 Q747 493 753 509 Q778 567 788 699 L700 699 ZM211 637 L211 715 L56 715 L56 745 L211 745 L211 799 L361 799 L361 745 L520 745 L520 715 L361 715 L361 637 L512 637 L512 467 L361 467 L361 270 L211 270 L211 467 L61 467 L61 637 L177 637 L177 497 L211 497 L211 607 L192 607 L192 637 L211 637 ZM395 607 L361 607 L361 497 L395 497 L395 607 ZM206 418 Q188 364 135 314 Q75 258 4 247 Q54 320 90 442 L206 418 ZM398 453 Q444 394 551 319 Q536 283 495 270 Q448 256 414 293 Q391 318 388 372 Q385 421 398 453 Z" /><glyph glyph-name="uni6587" unicode="&#x6587;" d="M621 138 Q794 52 989 9 Q958 -63 902 -91 Q844 -119 746 -110 Q616 -98 469 16 Q254 -123 4 -119 Q218 -23 367 107 Q181 302 112 544 Q275 348 478 218 Q614 378 667 574 L18 574 L18 604 L981 604 L981 574 L869 574 Q808 324 621 138 ZM509 629 Q446 639 407 717 Q372 788 373 878 Q459 759 647 747 Q642 713 622 681 Q583 617 509 629 Z" /><glyph glyph-name="uni65B0" unicode="&#x65b0;" d="M171 166 Q133 2 23 -92 Q47 48 52 184 L171 166 ZM380 192 Q428 177 464 134 Q503 87 497 40 Q489 -12 442 -25 Q418 -31 396 -27 Q398 100 380 192 ZM499 241 L356 241 L356 63 Q356 -73 271 -97 Q199 -117 134 -60 Q164 -66 175 -47 Q186 -28 186 35 L186 241 L24 241 L24 271 L186 271 L186 399 L16 399 L16 429 L126 429 Q92 552 48 626 Q111 627 169 596 Q232 562 236 514 Q242 456 179 429 L302 429 Q311 497 322 622 L487 595 Q448 516 367 429 L508 429 L508 399 L356 399 L356 271 L499 271 L499 241 ZM499 685 L499 655 L24 655 L24 685 L499 685 ZM269 700 Q217 706 181 764 Q148 817 143 886 Q220 798 377 793 Q375 767 360 742 Q331 693 269 700 ZM972 436 L972 406 L924 406 L924 -101 L765 -101 L765 406 L709 406 L709 278 Q709 -85 488 -113 Q547 -17 547 271 L547 751 Q779 769 946 812 L967 697 Q870 687 709 685 L709 436 L972 436 Z" /><glyph glyph-name="uni65E5" unicode="&#x65e5;" d="M917 795 L917 -89 L83 -89 L83 795 L263 795 L263 368 L737 368 L737 765 L287 765 L287 795 L917 795 ZM263 -59 L737 -59 L737 338 L263 338 L263 -59 Z" /><glyph glyph-name="uni660E" unicode="&#x660e;" d="M431 765 L431 -19 L57 -19 L57 765 L210 765 L210 388 L279 388 L279 735 L228 735 L228 765 L431 765 ZM210 11 L279 11 L279 358 L210 358 L210 11 ZM934 796 L934 73 Q934 -64 835 -90 Q750 -113 685 -56 Q765 -72 765 30 L765 215 L657 215 Q631 -87 431 -107 Q492 -23 492 299 L492 796 L661 796 L661 521 L765 521 L765 766 L680 766 L680 796 L934 796 ZM765 245 L765 491 L661 491 L661 305 Q661 283 659 245 L765 245 Z" /><glyph glyph-name="uni6625" unicode="&#x6625;" d="M696 425 Q809 345 995 328 Q983 279 946 249 Q906 217 850 220 L850 -75 L150 -75 L150 235 Q89 214 8 203 Q172 311 258 425 L33 425 L33 455 L279 455 Q317 509 344 570 L72 570 L72 600 L357 600 Q379 654 396 715 L55 715 L55 745 L404 745 Q416 790 424 828 L597 813 Q595 794 586 745 L945 745 L945 715 L579 715 Q563 654 540 600 L928 600 L928 570 L527 570 Q497 508 457 455 L967 455 L967 425 L696 425 ZM434 425 Q372 351 288 298 L320 298 L320 127 L680 127 L680 268 L341 268 L341 298 L674 298 Q616 348 573 425 L434 425 ZM320 -45 L680 -45 L680 97 L320 97 L320 -45 Z" /><glyph glyph-name="uni662F" unicode="&#x662f;" d="M94 452 L94 793 L264 793 L264 638 L736 638 L736 763 L285 763 L285 793 L906 793 L906 452 L94 452 ZM736 608 L264 608 L264 482 L736 482 L736 608 ZM611 63 Q737 39 995 19 Q963 -102 795 -99 Q506 -92 273 119 Q155 -71 7 -102 Q114 84 157 284 L339 253 Q319 199 294 154 Q360 128 441 104 L441 324 L29 324 L29 354 L971 354 L971 324 L611 324 L611 205 L948 205 L948 175 L611 175 L611 63 Z" /><glyph glyph-name="uni666F" unicode="&#x666f;" d="M94 540 L94 793 L264 793 L264 682 L736 682 L736 763 L285 763 L285 793 L906 793 L906 540 L94 540 ZM736 652 L264 652 L264 570 L736 570 L736 652 ZM36 401 L964 401 L964 371 L36 371 L36 401 ZM585 142 L585 49 Q585 -81 475 -103 Q430 -112 388 -95 Q344 -77 324 -39 Q373 -52 394 -30 Q416 -9 416 50 L416 142 L94 142 L94 300 L264 300 L264 172 L736 172 L736 270 L285 270 L285 300 L906 300 L906 142 L585 142 ZM369 30 Q311 -28 200 -63 Q87 -99 12 -81 Q169 7 261 118 L369 30 ZM813 -92 Q676 -77 638 109 Q748 50 963 9 Q947 -39 940 -49 Q900 -102 813 -92 ZM357 534 Q438 493 608 495 Q609 473 598 451 Q574 407 509 410 Q401 415 357 534 Z" /><glyph glyph-name="uni6700" unicode="&#x6700;" d="M94 525 L94 793 L264 793 L264 674 L736 674 L736 763 L285 763 L285 793 L906 793 L906 525 L94 525 ZM736 644 L264 644 L264 555 L736 555 L736 644 ZM612 46 L534 32 L534 -103 L374 -103 L374 1 L38 -61 L22 13 L65 16 L65 415 L30 415 L30 445 L970 445 L970 415 L534 415 L534 43 L612 46 ZM225 272 L225 159 L374 159 L374 272 L225 272 ZM374 415 L225 415 L225 302 L374 302 L374 415 ZM225 26 L374 35 L374 129 L225 129 L225 26 ZM822 48 Q894 -9 971 -52 Q932 -106 860 -105 Q789 -104 737 -51 Q732 -47 724 -37 Q643 -87 545 -100 Q621 -46 677 31 Q611 150 598 280 Q664 194 734 125 Q773 206 791 300 L584 300 L584 330 L945 330 Q926 167 822 48 Z" /><glyph glyph-name="uni6708" unicode="&#x6708;" d="M925 796 L925 109 Q925 -69 795 -98 Q674 -125 580 -20 Q658 -51 707 -18 Q756 14 756 95 L756 235 L253 235 Q232 -85 17 -107 Q81 -22 81 299 L81 796 L256 796 L256 531 L756 531 L756 766 L280 766 L280 796 L925 796 ZM255 265 L756 265 L756 501 L256 501 L256 285 L255 265 Z" /><glyph glyph-name="uni6709" unicode="&#x6709;" d="M983 677 L442 677 Q410 592 363 521 L404 521 L404 342 L765 342 L765 491 L426 491 L426 521 L935 521 L935 65 Q935 -84 814 -97 Q765 -103 716 -81 Q666 -59 639 -21 Q698 -42 733 -23 Q765 -5 765 39 L765 133 L404 133 L404 -98 L234 -98 L234 372 Q131 284 12 255 Q180 437 250 677 L17 677 L17 707 L259 707 Q274 761 286 823 L478 808 Q468 754 453 707 L983 707 L983 677 ZM765 312 L404 312 L404 163 L765 163 L765 312 Z" /><glyph glyph-name="uni672C" unicode="&#x672c;" d="M677 592 Q815 175 987 -62 Q937 -92 882 -88 Q818 -84 767 -33 Q731 5 707 79 L590 79 L590 -103 L410 -103 L410 79 L215 79 Q123 -70 7 -111 Q134 139 195 578 L369 559 Q337 299 232 109 L410 109 L410 602 L34 602 L34 632 L410 632 L410 808 L590 808 L590 632 L966 632 L966 602 L590 602 L590 109 L698 109 Q642 316 677 592 Z" /><glyph glyph-name="uni672F" unicode="&#x672f;" d="M977 564 L585 564 L585 -107 L415 -107 L415 564 L23 564 L23 594 L415 594 L415 815 L585 815 L585 594 L977 594 L977 564 ZM6 -106 Q116 111 188 527 L369 503 Q347 334 246 148 Q132 -61 6 -106 ZM652 531 Q789 182 996 -55 Q973 -79 935 -94 Q858 -123 781 -77 Q703 -30 664 170 Q628 358 652 531 ZM811 615 Q747 623 717 686 Q691 740 694 814 Q793 737 937 720 Q908 603 811 615 Z" /><glyph glyph-name="uni673A" unicode="&#x673a;" d="M432 604 L310 604 L310 -95 L140 -95 L140 329 Q92 20 4 -77 Q52 94 75 537 L140 530 L140 604 L39 604 L39 634 L140 634 L140 800 L310 800 L310 634 L432 634 L432 604 ZM443 85 Q424 71 401 73 Q356 77 338 158 Q308 294 354 534 Q378 325 443 85 ZM910 -53 L982 -53 L982 -83 L740 -83 L740 762 L651 762 L651 792 L910 792 L910 -53 ZM462 792 L633 792 L633 314 Q633 -88 405 -111 Q462 -18 462 307 L462 792 Z" /><glyph glyph-name="uni6750" unicode="&#x6750;" d="M983 637 L983 607 L916 607 L916 75 Q916 -3 878 -50 Q844 -91 789 -100 Q738 -109 688 -86 Q636 -63 611 -18 Q650 -44 694 -38 Q749 -31 749 37 L749 607 L695 607 Q682 309 610 123 Q539 -61 420 -109 Q519 215 522 607 L417 607 L417 637 L749 637 L749 809 L916 809 L916 637 L983 637 ZM376 607 L295 607 L295 -100 L125 -100 L125 282 Q81 8 4 -77 Q50 53 75 537 L125 531 L125 607 L39 607 L39 637 L125 637 L125 805 L295 805 L295 637 L376 637 L376 607 ZM343 512 Q361 261 442 86 Q421 73 395 75 Q345 79 324 156 Q290 285 343 512 Z" /><glyph glyph-name="uni6765" unicode="&#x6765;" d="M974 318 L590 318 L590 -103 L410 -103 L410 318 L25 318 L25 348 L410 348 L410 662 L38 662 L38 692 L410 692 L410 808 L590 808 L590 692 L962 692 L962 662 L590 662 L590 348 L974 348 L974 318 ZM924 589 Q834 459 678 365 Q715 506 742 640 L924 589 ZM324 503 Q338 442 275 405 Q244 386 209 379 Q150 518 76 610 Q153 618 229 589 Q311 557 324 503 ZM650 304 Q803 109 992 -18 Q979 -50 933 -76 Q868 -113 794 -78 Q733 -51 693 54 Q652 161 650 304 ZM10 -92 Q106 42 193 302 L366 251 Q334 145 236 40 Q123 -81 10 -92 Z" /><glyph glyph-name="uni676F" unicode="&#x676f;" d="M741 753 Q730 659 697 544 L747 544 L747 -95 L577 -95 L577 268 Q466 82 350 48 Q535 310 568 753 L408 753 L408 783 L967 783 L967 753 L741 753 ZM789 631 Q857 294 1000 95 Q976 82 941 78 Q873 70 824 119 Q773 170 766 353 Q758 522 789 631 ZM353 188 Q340 301 305 459 L305 -95 L135 -95 L135 328 Q89 18 4 -77 Q41 28 75 557 L135 550 L135 624 L23 624 L23 654 L135 654 L135 800 L305 800 L305 654 L397 654 L397 624 L305 624 L305 502 Q436 376 430 266 Q426 202 353 188 Z" /><glyph glyph-name="uni6837" unicode="&#x6837;" d="M992 138 L992 108 L798 108 L798 -100 L628 -100 L628 108 L435 108 L435 138 L628 138 L628 354 L458 354 L458 384 L628 384 L628 595 L450 595 L450 625 L569 625 Q526 742 478 813 Q549 816 616 784 Q689 750 697 698 Q704 655 670 625 L763 625 Q778 726 786 815 L968 790 Q919 709 817 625 L977 625 L977 595 L798 595 L798 384 L968 384 L968 354 L798 354 L798 138 L992 138 ZM406 595 L307 595 L307 -95 L137 -95 L137 365 Q93 22 4 -77 Q50 53 75 537 L137 530 L137 595 L39 595 L39 625 L137 625 L137 800 L307 800 L307 625 L406 625 L406 595 ZM341 106 Q312 282 360 541 Q370 247 424 8 Q409 -3 392 4 Q356 17 341 106 Z" /><glyph glyph-name="uni6BCF" unicode="&#x6bcf;" d="M631 451 Q616 346 508 358 Q450 365 417 424 Q391 469 387 527 Q483 468 631 451 ZM387 274 Q486 213 631 199 Q616 94 508 106 Q450 112 417 171 Q391 216 387 274 ZM892 301 L891 78 L963 78 L963 48 L888 48 Q867 -80 741 -105 Q598 -135 494 -37 Q574 -58 638 -43 Q718 -25 721 48 L107 48 L107 301 L34 301 L34 331 L107 331 L107 562 Q56 534 13 526 Q102 658 147 824 L326 794 Q309 763 289 733 L964 733 L964 703 L267 703 Q209 630 140 583 L277 583 L277 331 L721 331 L721 553 L297 553 L297 583 L892 583 L892 331 L966 331 L966 301 L892 301 ZM277 78 L721 78 L721 301 L277 301 L277 78 Z" /><glyph glyph-name="uni6BD4" unicode="&#x6bd4;" d="M673 -56 L973 -56 L973 -86 L503 -86 L503 805 L673 805 L673 524 Q806 588 912 645 L973 515 Q759 449 673 431 L673 -56 ZM236 805 L236 540 L465 540 L465 510 L236 510 L236 86 Q236 -63 452 5 Q326 -117 199 -96 Q67 -74 67 91 L67 805 L236 805 Z" /><glyph glyph-name="uni6C0F" unicode="&#x6c0f;" d="M988 387 L988 357 L792 357 Q858 53 983 -101 Q712 -90 619 357 L239 357 L239 84 Q239 0 297 -28 Q353 -56 454 -30 Q350 -129 216 -103 Q67 -75 67 116 L67 756 Q595 776 918 822 L961 697 Q930 695 864 692 Q780 689 746 687 Q758 523 785 387 L988 387 ZM239 387 L613 387 Q589 516 580 682 Q355 677 239 681 L239 387 Z" /><glyph glyph-name="uni6C34" unicode="&#x6c34;" d="M981 677 Q862 533 666 461 Q754 608 813 757 L981 677 ZM600 611 Q719 260 992 -23 Q943 -78 881 -81 Q819 -84 766 -34 Q710 20 664 155 Q598 349 600 611 ZM417 820 L587 820 L587 58 Q587 -83 477 -107 Q377 -128 300 -50 Q417 -77 417 33 L417 820 ZM403 622 Q373 359 265 166 Q156 -30 4 -85 Q170 165 233 592 L13 592 L13 622 L403 622 Z" /><glyph glyph-name="uni6D41" unicode="&#x6d41;" d="M20 -63 Q159 193 221 286 Q198 50 179 -92 L20 -63 ZM543 -60 L543 279 L703 279 L703 -60 L543 -60 ZM912 295 L912 -50 L961 -50 L961 -80 L752 -80 L752 295 L912 295 ZM234 -99 Q333 20 346 294 L508 279 Q500 107 429 6 Q356 -100 234 -99 ZM670 662 Q610 659 560 717 Q514 770 497 845 Q600 760 772 784 Q774 755 763 725 Q739 665 670 662 ZM240 439 Q264 380 219 336 Q197 314 170 304 Q57 468 7 521 Q78 537 147 514 Q220 490 240 439 ZM267 693 Q290 634 245 591 Q223 569 196 559 Q138 665 35 775 Q105 791 174 768 Q247 744 267 693 ZM319 358 Q376 508 407 612 L307 612 L307 642 L945 642 L945 612 L586 612 Q533 458 493 388 L767 388 Q719 479 755 588 Q832 488 967 404 Q954 369 921 346 Q872 311 809 343 Q797 350 789 358 L319 358 Z" /><glyph glyph-name="uni6F14" unicode="&#x6f14;" d="M26 -54 Q170 220 237 325 Q214 68 193 -85 L26 -54 ZM207 416 Q215 355 162 324 Q135 309 107 306 Q27 502 5 548 Q75 546 136 509 Q200 469 207 416 ZM219 666 Q227 605 174 575 Q147 559 119 556 Q35 760 17 799 Q87 797 148 759 Q212 719 219 666 ZM301 426 L461 426 L461 279 L532 279 L532 396 L481 396 L481 426 L532 426 L532 523 L426 523 L426 553 L789 553 L789 523 L702 523 L702 426 L933 426 L933 102 L301 102 L301 426 ZM702 132 L773 132 L773 249 L702 249 L702 132 ZM702 396 L702 279 L773 279 L773 396 L702 396 ZM532 249 L461 249 L461 132 L532 132 L532 249 ZM392 514 Q367 457 305 455 Q263 453 221 473 Q274 620 282 734 Q321 709 351 670 L814 670 L813 695 L1000 678 Q950 597 821 449 L815 640 L371 640 Q416 565 392 514 ZM607 684 Q547 687 502 752 Q461 810 451 889 Q547 792 722 801 Q721 771 707 741 Q677 681 607 684 ZM847 -102 Q783 -98 737 -37 Q697 17 685 94 Q782 31 981 6 Q978 -22 960 -50 Q923 -106 847 -102 ZM246 -117 Q382 9 441 86 L610 13 Q439 -82 246 -117 Z" /><glyph glyph-name="uni70AB" unicode="&#x70ab;" d="M114 477 Q101 413 63 400 Q34 391 11 409 Q53 580 58 726 Q140 602 114 477 ZM274 245 Q380 147 394 50 Q405 -20 369 -54 Q341 -81 292 -81 Q271 39 246 143 Q167 -84 2 -109 Q106 37 131 373 Q133 404 138 804 L314 799 Q314 588 307 486 Q298 352 274 245 ZM428 689 L336 363 Q333 546 347 708 L428 689 ZM711 668 Q655 670 613 732 Q575 789 566 865 Q654 772 818 782 Q818 753 804 724 Q777 666 711 668 ZM823 226 Q893 63 995 -49 Q977 -68 949 -81 Q892 -107 839 -76 L414 -76 Q556 138 651 308 L425 308 Q504 504 541 620 L435 620 L435 650 L984 650 L984 620 L724 620 L598 338 L668 338 Q719 432 750 494 L923 457 Q765 172 615 -46 L804 -46 Q773 -4 779 72 Q784 148 823 226 Z" /><glyph glyph-name="uni70BC" unicode="&#x70bc;" d="M111 477 Q99 413 65 400 Q39 391 19 409 Q67 567 61 726 Q89 692 105 613 Q121 535 111 477 ZM356 72 Q366 1 334 -33 Q309 -60 266 -60 Q247 62 230 145 Q160 -84 14 -109 Q105 37 128 373 Q132 435 134 804 L289 799 Q289 583 283 486 Q276 363 257 260 Q345 163 356 72 ZM393 689 L311 363 Q308 541 321 708 L393 689 ZM957 344 L785 344 L785 58 Q785 -11 750 -55 Q715 -98 656 -103 Q573 -108 518 -38 Q564 -58 591 -41 Q621 -23 621 33 L621 344 L398 344 Q403 370 417 433 Q429 490 435 522 L392 522 L392 552 L441 552 Q454 610 465 676 L399 676 L399 706 L471 706 Q483 772 488 805 L657 787 L639 706 L961 706 L961 676 L632 676 Q614 603 603 552 L785 552 L785 374 L957 374 L957 344 ZM621 374 L621 522 L595 522 Q568 411 558 374 L621 374 ZM838 294 Q890 128 993 -20 Q972 -41 942 -50 Q883 -69 842 -13 Q809 32 810 134 Q810 231 838 294 ZM596 196 Q496 -28 352 -84 Q403 62 445 249 L596 196 Z" /><glyph glyph-name="uni7231" unicode="&#x7231;" d="M175 370 Q150 316 92 313 Q53 311 12 330 Q64 473 72 578 Q107 556 134 521 L202 521 Q158 618 119 665 Q289 672 314 601 Q331 554 280 521 L504 521 Q460 620 420 668 Q591 673 615 604 Q633 555 577 521 L739 521 Q747 548 780 696 L941 643 Q877 578 777 521 L813 521 L813 537 L992 520 Q920 370 804 320 Q813 419 813 491 L155 491 Q198 420 175 370 ZM915 719 Q464 674 84 687 Q589 765 862 829 L915 719 ZM895 254 Q873 148 743 56 Q869 20 956 12 Q922 -133 740 -95 Q671 -79 589 -27 Q402 -104 170 -110 Q355 -54 503 37 Q412 119 370 217 Q477 153 598 106 Q671 168 693 224 L371 224 Q216 -51 4 -101 Q174 61 263 354 L197 354 L197 384 L272 384 Q280 415 286 453 L453 429 L441 384 L788 384 L788 354 L431 354 Q416 309 388 254 L895 254 Z" /><glyph glyph-name="uni725B" unicode="&#x725b;" d="M967 243 L967 213 L633 213 L633 -104 L453 -104 L453 213 L33 213 L33 243 L453 243 L453 586 L270 586 Q167 397 14 346 Q95 524 135 781 L333 750 Q318 682 286 616 L453 616 L453 811 L633 811 L633 616 L938 616 L938 586 L633 586 L633 243 L967 243 Z" /><glyph glyph-name="uni738B" unicode="&#x738b;" d="M590 -54 L986 -54 L986 -84 L13 -84 L13 -54 L410 -54 L410 337 L44 337 L44 367 L410 367 L410 758 L42 758 L42 788 L958 788 L958 758 L590 758 L590 367 L956 367 L956 337 L590 337 L590 -54 Z" /><glyph glyph-name="uni73B0" unicode="&#x73b0;" d="M777 297 L777 760 L541 760 L541 790 L933 790 L933 297 L777 297 ZM801 -56 L975 -56 L975 -86 L636 -86 L636 100 Q581 8 492 -48 Q402 -105 303 -107 Q465 21 520 176 Q574 329 574 707 L728 707 Q736 414 698 261 L801 261 L801 -56 ZM519 790 L519 297 L364 297 L364 790 L519 790 ZM260 27 Q312 27 339 25 Q160 -46 62 -92 L36 19 L90 22 L90 361 L32 361 L32 391 L90 391 L90 746 L29 746 L29 776 L321 776 L321 746 L260 746 L260 391 L318 391 L318 361 L260 361 L260 27 Z" /><glyph glyph-name="uni7403" unicode="&#x7403;" d="M795 284 Q900 91 993 -9 Q954 -49 902 -54 Q837 -60 795 2 Q747 70 716 230 L716 73 Q716 -89 601 -104 Q556 -110 511 -87 Q466 -64 446 -26 Q483 -41 511 -32 Q546 -22 546 23 L546 196 L417 -28 L290 96 Q530 291 546 303 L546 593 L326 593 L326 623 L546 623 L546 809 L716 809 L716 623 L987 623 L987 593 L716 593 L716 457 Q742 384 785 304 Q817 489 832 559 L977 495 L795 284 ZM822 653 Q786 670 766 728 Q749 779 754 818 Q822 764 957 726 Q954 692 924 663 Q883 624 822 653 ZM407 278 Q372 429 312 545 Q380 540 444 496 Q513 448 520 388 Q527 322 468 293 Q438 279 407 278 ZM260 361 L260 27 Q312 27 339 25 Q160 -46 62 -92 L36 19 L90 22 L90 361 L32 361 L32 391 L90 391 L90 746 L29 746 L29 776 L321 776 L321 746 L260 746 L260 391 L318 391 L318 361 L260 361 Z" /><glyph glyph-name="uni7531" unicode="&#x7531;" d="M935 659 L935 -83 L64 -83 L64 659 L234 659 L234 303 L415 303 L415 629 L253 629 L253 659 L415 659 L415 815 L585 815 L585 659 L935 659 ZM585 629 L585 303 L765 303 L765 629 L585 629 ZM234 273 L234 -53 L415 -53 L415 273 L234 273 ZM585 -53 L765 -53 L765 273 L585 273 L585 -53 Z" /><glyph glyph-name="uni7535" unicode="&#x7535;" d="M585 -54 L974 -54 L974 -84 L415 -84 L415 144 L67 144 L67 647 L237 647 L237 410 L415 410 L415 617 L258 617 L258 647 L415 647 L415 815 L585 815 L585 647 L933 647 L933 144 L585 144 L585 -54 ZM585 174 L763 174 L763 380 L585 380 L585 174 ZM585 617 L585 410 L763 410 L763 617 L585 617 ZM237 174 L415 174 L415 380 L237 380 L237 174 Z" /><glyph glyph-name="uni753B" unicode="&#x753b;" d="M29 788 L970 788 L970 758 L29 758 L29 788 ZM789 -56 L789 643 L939 643 L939 -86 L60 -86 L60 643 L210 643 L210 -56 L789 -56 ZM256 667 L387 667 L387 368 L431 368 L431 637 L402 637 L402 667 L744 667 L744 38 L256 38 L256 667 ZM569 68 L613 68 L613 338 L569 338 L569 68 ZM569 637 L569 368 L613 368 L613 637 L569 637 ZM431 338 L387 338 L387 68 L431 68 L431 338 Z" /><glyph glyph-name="uni767B" unicode="&#x767b;" d="M1000 633 Q938 583 833 544 Q896 504 990 462 Q965 413 902 393 Q840 373 782 394 Q724 415 670 472 L328 472 Q190 381 2 388 Q173 462 248 546 Q320 627 339 761 L48 761 L48 791 L515 791 Q507 618 368 502 L644 502 Q529 650 555 843 Q601 754 663 684 Q730 764 770 821 L872 739 Q809 687 699 647 Q740 607 787 574 Q860 662 898 716 L1000 633 ZM249 671 Q274 627 247 586 Q229 558 196 539 Q135 624 58 687 Q112 710 166 709 Q228 707 249 671 ZM120 363 L290 363 L290 169 L710 169 L710 333 L307 333 L307 363 L880 363 L880 139 L120 139 L120 363 ZM868 59 Q808 1 705 -52 L967 -52 L967 -82 L33 -82 L33 -52 L249 -52 Q191 32 141 79 Q210 98 282 83 Q359 67 377 19 Q391 -17 370 -52 L624 -52 Q658 48 676 113 L868 59 Z" /><glyph glyph-name="uni7684" unicode="&#x7684;" d="M727 262 Q734 200 694 166 Q664 140 622 137 Q591 290 530 430 Q609 413 662 370 Q719 324 727 262 ZM938 683 L938 109 Q938 -63 791 -91 Q734 -102 673 -85 Q616 -69 586 -36 Q643 -56 701 -33 Q770 -7 770 66 L770 653 L699 653 Q622 476 473 422 Q549 557 585 820 L743 798 Q729 731 710 683 L938 683 ZM465 637 L465 -69 L62 -69 L62 637 L222 637 L222 299 L305 299 L305 607 L239 607 L239 637 L465 637 ZM222 -39 L305 -39 L305 269 L222 269 L222 -39 ZM278 656 Q191 676 181 843 Q250 777 401 761 Q403 728 373 690 Q335 643 278 656 Z" /><glyph glyph-name="uni7740" unicode="&#x7740;" d="M433 419 Q394 365 342 315 L386 315 L386 192 L735 192 L735 285 L406 285 L406 315 L905 315 L905 -84 L216 -84 L216 216 Q117 155 10 134 Q147 240 257 419 L25 419 L25 449 L274 449 Q304 501 328 558 L63 558 L63 588 L339 588 Q352 626 360 665 L45 665 L45 695 L250 695 Q206 763 156 807 Q255 814 327 791 Q395 768 404 730 Q410 710 393 695 L600 695 L627 819 L852 794 L664 695 L955 695 L955 665 L559 665 Q550 633 531 588 L937 588 L937 558 L517 558 Q488 500 454 449 L974 449 L974 419 L433 419 ZM386 -54 L735 -54 L735 39 L386 39 L386 -54 ZM735 162 L386 162 L386 69 L735 69 L735 162 Z" /><glyph glyph-name="uni793A" unicode="&#x793a;" d="M927 786 L927 756 L73 756 L73 786 L927 786 ZM968 437 L585 437 L585 75 Q585 -86 460 -100 Q410 -106 359 -84 Q309 -62 284 -24 Q330 -45 368 -29 Q410 -12 410 42 L410 437 L32 437 L32 467 L968 467 L968 437 ZM359 263 Q295 147 182 41 Q82 -53 4 -86 Q113 110 182 323 L359 263 ZM676 326 Q815 122 994 -1 Q972 -31 936 -51 Q876 -85 814 -60 Q737 -29 696 99 Q658 217 676 326 Z" /><glyph glyph-name="uni79C0" unicode="&#x79c0;" d="M410 697 Q170 689 23 699 Q536 764 835 823 L918 726 Q777 713 590 704 L590 596 L974 596 L974 566 L590 566 L590 343 L410 343 L410 566 L25 566 L25 596 L410 596 L410 697 ZM399 481 Q351 426 247 377 Q125 318 4 309 Q153 417 229 546 L399 481 ZM32 -112 Q183 17 233 239 L426 211 Q397 103 299 9 Q180 -106 32 -112 ZM660 557 Q770 472 996 404 Q983 365 947 338 Q897 301 829 320 Q774 335 725 402 Q672 472 660 557 ZM911 298 L819 152 L943 152 L943 77 Q943 -16 889 -64 Q843 -105 770 -105 Q612 -105 546 -18 Q641 -57 709 -37 Q774 -17 774 43 L774 122 L643 122 L719 268 L140 268 L140 298 L911 298 Z" /><glyph glyph-name="uni79CB" unicode="&#x79cb;" d="M464 466 L356 466 L356 -98 L186 -98 L186 242 Q134 -10 19 -105 Q82 107 86 408 L186 401 L186 466 L36 466 L36 496 L186 496 L186 716 Q105 713 16 717 Q279 768 427 816 L459 731 Q438 730 356 723 L356 496 L464 496 L464 466 ZM412 421 Q450 173 511 20 Q490 8 464 10 Q414 14 393 86 Q358 205 412 421 ZM806 804 Q806 666 794 491 Q781 282 700 114 Q608 -77 470 -109 Q647 142 651 809 L806 804 ZM610 468 Q594 401 542 388 Q502 378 474 398 Q521 551 530 726 Q570 677 595 605 Q623 523 610 468 ZM799 332 Q848 184 993 -72 Q953 -100 903 -95 Q837 -88 800 -19 Q763 50 768 169 Q773 269 799 332 ZM976 679 Q933 571 833 361 Q827 537 849 706 L976 679 Z" /><glyph glyph-name="uni7A3F" unicode="&#x7a3f;" d="M280 396 Q344 287 350 222 Q355 175 329 161 Q316 154 302 156 Q297 260 280 354 L280 -98 L130 -98 L130 216 Q93 -15 11 -90 Q65 97 70 423 L130 417 L130 466 L34 466 L34 496 L130 496 L130 723 Q52 721 8 725 Q209 776 321 824 L346 739 Q324 736 280 732 L280 496 L344 496 L344 466 L280 466 L280 396 ZM521 320 L521 350 L941 350 L941 22 Q941 -88 856 -103 Q781 -116 732 -64 Q797 -83 797 8 L797 320 L521 320 ZM354 727 L960 727 L960 697 L354 697 L354 727 ZM763 23 L539 23 L539 246 L636 246 L636 53 L666 53 L666 216 L650 216 L650 246 L763 246 L763 23 ZM362 -99 L362 350 L505 350 L505 -99 L362 -99 ZM382 618 L552 618 L552 463 L751 463 L751 588 L572 588 L572 618 L921 618 L921 433 L382 433 L382 618 ZM666 736 Q616 734 574 779 Q537 818 522 875 Q611 811 756 830 Q757 808 747 785 Q725 739 666 736 Z" /><glyph glyph-name="uni7B49" unicode="&#x7b49;" d="M857 251 L857 175 L962 175 L962 145 L857 145 L857 71 Q857 -89 695 -102 Q549 -113 469 -28 Q550 -63 612 -42 Q687 -17 687 86 L687 145 L53 145 L53 175 L687 175 L687 251 L857 251 ZM590 318 L985 318 L985 288 L15 288 L15 318 L410 318 L410 416 L61 416 L61 446 L410 446 L410 506 L590 506 L590 446 L939 446 L939 416 L590 416 L590 318 ZM141 68 Q203 105 286 99 Q370 92 404 46 Q440 -3 398 -50 Q377 -73 349 -87 Q246 13 141 68 ZM694 648 Q740 667 799 665 Q866 661 895 627 Q936 578 904 534 Q880 499 864 499 Q762 599 694 648 ZM236 649 Q280 667 335 668 Q401 668 427 636 Q465 590 432 545 Q415 522 391 509 Q271 624 236 649 ZM718 711 Q632 545 463 518 Q553 644 579 818 L748 788 Q745 775 732 741 L959 741 L959 711 L718 711 ZM260 711 Q176 533 2 505 Q91 628 119 818 L288 786 Q281 760 273 741 L516 741 L516 711 L260 711 Z" /><glyph glyph-name="uni7D20" unicode="&#x7d20;" d="M590 146 L590 48 Q590 -100 475 -113 Q430 -118 384 -98 Q339 -79 316 -47 Q365 -61 396 -45 Q430 -28 430 22 L430 146 L94 146 Q182 188 362 280 L106 280 Q217 357 329 453 L32 453 L32 483 L410 483 L410 579 L72 579 L72 609 L410 609 L410 705 L46 705 L46 735 L410 735 L410 812 L590 812 L590 735 L954 735 L954 705 L590 705 L590 609 L927 609 L927 579 L590 579 L590 483 L968 483 L968 453 L552 453 L330 310 L419 310 Q544 376 637 429 L782 354 L399 176 L742 176 Q717 219 711 293 Q791 254 946 204 Q927 151 872 134 Q818 117 768 146 L590 146 ZM645 103 Q770 39 971 15 Q962 -36 927 -67 Q881 -108 807 -91 Q683 -60 645 103 ZM364 18 Q286 -28 165 -60 Q58 -88 22 -82 Q158 14 257 110 L364 18 Z" /><glyph glyph-name="uni7EC4" unicode="&#x7ec4;" d="M928 -50 L980 -50 L980 -80 L337 -80 L337 -50 L403 -50 L403 789 L573 789 L573 510 L758 510 L758 759 L595 759 L595 789 L928 789 L928 -50 ZM758 480 L573 480 L573 230 L758 230 L758 480 ZM573 200 L573 -50 L758 -50 L758 200 L573 200 ZM24 17 Q225 46 369 42 Q195 -40 61 -100 L24 17 ZM370 127 L22 127 Q94 241 176 391 L19 391 Q87 598 141 801 L310 772 Q210 513 169 421 L192 421 L239 510 L377 459 Q280 295 184 157 L370 157 L370 127 Z" /><glyph glyph-name="uni7EC8" unicode="&#x7ec8;" d="M28 17 Q238 46 388 42 Q206 -40 67 -100 L28 17 ZM370 127 L22 127 Q97 242 182 391 L19 391 Q87 598 141 801 L310 772 Q210 513 169 421 L199 421 L251 516 L397 464 Q306 315 193 157 L370 157 L370 127 ZM790 476 Q886 434 997 404 Q981 347 923 320 Q869 295 812 309 Q735 328 667 386 Q516 298 336 287 Q469 344 597 462 Q553 522 520 603 Q451 534 370 504 Q447 674 470 822 L638 804 Q631 779 620 753 L960 753 Q933 605 790 476 ZM605 723 Q577 666 533 618 Q608 568 668 535 Q745 627 774 723 L605 723 ZM802 261 Q889 230 888 165 Q888 132 870 105 Q646 187 463 224 Q513 250 617 265 Q737 283 802 261 ZM811 56 Q903 21 900 -50 Q899 -86 879 -115 Q632 -18 448 22 Q503 49 614 64 Q743 82 811 56 Z" /><glyph glyph-name="uni7ECE" unicode="&#x7ece;" d="M649 577 Q724 665 757 759 L394 759 L394 789 L949 789 Q917 636 784 517 Q881 481 984 460 Q961 334 805 358 Q737 369 654 428 Q515 355 343 347 Q449 388 571 497 Q458 606 415 735 Q520 644 649 577 ZM752 224 L752 70 L964 70 L964 40 L752 40 L752 -102 L582 -102 L582 40 L371 40 L371 70 L582 70 L582 224 L396 224 L396 254 L582 254 L582 354 L752 354 L752 254 L940 254 L940 224 L752 224 ZM24 17 Q212 46 347 42 Q184 -40 59 -100 L24 17 ZM397 485 Q295 309 191 157 L348 157 L348 127 L22 127 Q84 228 173 391 L19 391 Q87 598 141 801 L310 772 Q210 513 169 421 L189 421 Q211 461 251 540 L397 485 Z" /><glyph glyph-name="uni7ED3" unicode="&#x7ed3;" d="M930 301 L930 -82 L418 -82 L418 301 L588 301 L588 -52 L760 -52 L760 271 L605 271 L605 301 L930 301 ZM966 673 L759 673 L759 467 L955 467 L955 437 L392 437 L392 467 L589 467 L589 673 L381 673 L381 703 L589 703 L589 811 L759 811 L759 703 L966 703 L966 673 ZM24 17 Q225 46 369 42 Q195 -40 61 -100 L24 17 ZM186 421 Q226 499 246 540 L389 485 Q303 333 188 157 L348 157 L348 127 L22 127 Q83 228 170 391 L19 391 Q87 598 141 801 L310 772 Q210 513 169 421 L186 421 Z" /><glyph glyph-name="uni7ED9" unicode="&#x7ed9;" d="M919 251 L919 -82 L393 -82 L393 251 L563 251 L563 -52 L749 -52 L749 221 L588 221 L588 251 L919 251 ZM385 352 L385 382 L920 382 L920 352 L385 352 ZM637 829 Q797 613 994 509 Q970 467 919 447 Q856 421 794 457 Q730 496 680 617 Q620 542 522 484 Q419 422 327 413 Q517 598 637 829 ZM24 17 Q225 46 369 42 Q195 -40 61 -100 L24 17 ZM41 127 Q103 252 163 391 L19 391 Q77 595 126 801 L275 772 Q180 498 151 421 L176 421 L241 577 L368 536 Q221 220 187 157 L344 157 L344 127 L41 127 Z" /><glyph glyph-name="uni7EDF" unicode="&#x7edf;" d="M24 17 Q225 46 369 42 Q195 -40 61 -100 L24 17 ZM348 127 L22 127 Q84 228 173 391 L19 391 Q87 598 141 801 L310 772 Q210 513 169 421 L189 421 Q211 461 251 540 L397 485 Q295 309 191 157 L348 157 L348 127 ZM990 343 Q976 319 936 301 Q885 277 840 299 L840 -54 L977 -54 L977 -84 L670 -84 L670 313 L612 313 Q604 156 540 47 Q460 -88 312 -111 Q424 36 444 313 L380 313 Q450 484 496 617 L360 617 L360 647 L978 647 L978 617 L679 617 L561 343 L789 343 Q764 385 766 452 Q768 513 791 563 Q845 481 990 343 ZM702 662 Q640 668 594 730 Q552 787 542 861 Q638 767 821 765 Q820 737 805 710 Q775 656 702 662 Z" /><glyph glyph-name="uni7EE9" unicode="&#x7ee9;" d="M24 17 Q225 46 369 42 Q195 -40 61 -100 L24 17 ZM343 127 L21 127 Q76 227 154 391 L19 391 Q77 595 126 801 L274 772 Q191 524 151 421 L168 421 Q204 499 222 540 L351 485 Q270 325 170 157 L343 157 L343 127 ZM937 77 L785 77 L785 360 L554 360 L554 390 L937 390 L937 77 ZM532 77 L380 77 L380 390 L532 390 L532 77 ZM710 91 Q832 15 999 -1 Q995 -28 977 -54 Q940 -108 867 -107 Q758 -105 684 40 L678 31 Q633 -35 529 -74 Q431 -111 314 -113 Q484 -20 531 49 Q588 131 588 320 L739 320 Q747 185 710 91 ZM573 621 L573 707 L359 707 L359 737 L573 737 L573 810 L743 810 L743 737 L958 737 L958 707 L743 707 L743 621 L948 621 L948 591 L743 591 L743 505 L966 505 L966 475 L360 475 L360 505 L573 505 L573 591 L369 591 L369 621 L573 621 Z" /><glyph glyph-name="uni7F8E" unicode="&#x7f8e;" d="M942 161 L537 161 Q480 31 345 -38 Q202 -111 5 -96 Q267 -4 346 161 L58 161 L58 191 L359 191 Q377 239 386 292 L568 277 Q564 238 549 191 L942 191 L942 161 ZM963 358 L963 328 L37 328 L37 358 L410 358 L410 484 L64 484 L64 514 L410 514 L410 640 L51 640 L51 670 L258 670 Q194 761 146 803 Q216 821 287 807 Q364 792 384 745 Q401 706 377 670 L634 670 Q655 741 671 819 L866 777 Q817 723 732 670 L948 670 L948 640 L590 640 L590 514 L936 514 L936 484 L590 484 L590 358 L963 358 ZM536 140 Q720 42 990 23 Q983 -9 961 -41 Q916 -104 842 -103 Q743 -101 660 -32 Q583 32 536 140 Z" /><glyph glyph-name="uni8005" unicode="&#x8005;" d="M978 483 L659 483 Q533 399 390 341 L920 341 L920 -80 L155 -80 L155 272 Q76 257 6 259 Q92 291 155 320 L155 341 L199 341 Q333 409 441 483 L22 483 L22 513 L276 513 L276 672 L68 672 L68 702 L276 702 L276 817 L446 817 L446 702 L654 702 L654 672 L446 672 L446 513 L484 513 Q660 642 777 796 L929 738 Q842 616 701 513 L978 513 L978 483 ZM325 -50 L750 -50 L750 116 L325 116 L325 -50 ZM750 146 L750 311 L325 311 L325 146 L750 146 Z" /><glyph glyph-name="uni804C" unicode="&#x804c;" d="M538 125 L461 102 L461 -101 L301 -101 L301 54 L48 -23 L22 84 L44 86 Q58 88 65 88 L65 761 L26 761 L26 791 L486 791 L486 761 L461 761 L461 121 Q473 121 499 123 L538 125 ZM225 526 L225 321 L301 321 L301 526 L225 526 ZM301 761 L225 761 L225 556 L301 556 L301 761 ZM225 103 L301 109 L301 291 L225 291 L225 103 ZM522 310 L522 790 L682 790 L682 340 L771 340 L771 760 L700 760 L700 790 L931 790 L931 310 L522 310 ZM487 -112 Q550 107 574 289 L734 247 Q702 134 621 23 Q548 -78 487 -112 ZM817 292 Q882 84 995 -57 Q973 -81 929 -95 Q865 -115 820 -75 Q770 -29 770 79 Q770 183 817 292 Z" /><glyph glyph-name="uni80B2" unicode="&#x80b2;" d="M529 689 Q469 686 418 743 Q372 795 355 869 Q459 786 632 810 Q634 781 623 752 Q599 693 529 689 ZM383 641 Q314 517 265 451 L709 451 Q668 514 662 625 Q792 531 941 495 Q931 426 861 403 Q792 380 735 421 L86 421 Q150 533 194 641 L46 641 L46 671 L953 671 L953 641 L383 641 ZM888 342 L888 71 Q888 -4 853 -49 Q810 -104 722 -104 Q684 -104 641 -85 Q588 -62 567 -23 Q622 -50 668 -32 Q718 -12 718 51 L718 68 L282 68 L282 -99 L112 -99 L112 342 L282 342 L282 220 L718 220 L718 312 L301 312 L301 342 L888 342 ZM282 98 L718 98 L718 190 L282 190 L282 98 Z" /><glyph glyph-name="uni80CC" unicode="&#x80cc;" d="M879 407 L879 71 Q879 -4 844 -49 Q801 -104 714 -104 Q676 -104 633 -85 Q580 -62 559 -23 Q621 -45 662 -29 Q710 -11 710 51 L710 68 L291 68 L291 -99 L121 -99 L121 407 L291 407 L291 252 L710 252 L710 377 L310 377 L310 407 L879 407 ZM291 98 L710 98 L710 222 L291 222 L291 98 ZM966 653 L734 628 L734 502 L955 502 L955 472 L564 472 L564 808 L734 808 L734 718 Q841 740 940 763 L966 653 ZM269 464 L269 534 L59 475 L40 583 L269 613 L269 692 L44 692 L44 722 L269 722 L269 808 L439 808 L439 464 L269 464 Z" /><glyph glyph-name="uni80FD" unicode="&#x80fd;" d="M514 452 L514 45 Q514 -79 416 -95 Q331 -108 278 -57 Q354 -70 354 1 L354 88 L223 88 L223 -100 L63 -100 L63 452 L223 452 L223 285 L354 285 L354 422 L242 422 L242 452 L514 452 ZM223 118 L354 118 L354 255 L223 255 L223 118 ZM369 755 Q441 663 540 586 Q518 541 466 528 Q414 515 374 546 L41 546 Q108 696 144 819 L319 788 Q279 693 203 576 L355 576 Q342 614 347 672 Q353 726 369 755 ZM738 113 L738 -56 L979 -56 L979 -86 L568 -86 L568 346 L738 346 L738 185 Q870 229 928 260 L975 150 L738 113 ZM738 420 L979 420 L979 390 L568 390 L568 810 L738 810 L738 647 Q870 691 928 722 L975 612 L738 575 L738 420 Z" /><glyph glyph-name="uni8111" unicode="&#x8111;" d="M384 796 L384 73 Q384 -64 306 -90 Q238 -113 187 -56 Q250 -72 250 30 L250 215 L193 215 Q174 -87 15 -107 Q63 -22 63 299 L63 796 L196 796 L196 521 L250 521 L250 766 L212 766 L212 796 L384 796 ZM250 245 L250 491 L196 491 L196 305 Q196 264 195 245 L250 245 ZM795 -56 L795 601 L938 601 L938 -86 L423 -86 L423 601 L565 601 L565 -56 L795 -56 ZM404 674 L972 674 L972 644 L404 644 L404 674 ZM682 696 Q626 701 589 772 Q555 837 552 922 Q633 815 798 817 Q795 784 779 753 Q747 690 682 696 ZM669 208 Q628 111 575 0 L646 296 L577 552 Q628 486 673 409 L705 542 L785 490 L718 323 Q754 246 770 176 Q791 84 756 41 Q738 20 716 17 Q698 100 669 208 Z" /><glyph glyph-name="uni81EA" unicode="&#x81ea;" d="M514 670 Q445 671 391 739 Q342 801 327 885 Q381 837 481 814 Q567 794 640 800 Q641 767 625 735 Q594 669 514 670 ZM927 651 L927 -83 L73 -83 L73 651 L253 651 L253 416 L748 416 L748 621 L276 621 L276 651 L927 651 ZM748 386 L253 386 L253 181 L748 181 L748 386 ZM253 -53 L748 -53 L748 151 L253 151 L253 -53 Z" /><glyph glyph-name="uni83B7" unicode="&#x83b7;" d="M184 601 L184 683 L38 683 L38 713 L184 713 L184 808 L354 808 L354 713 L646 713 L646 808 L816 808 L816 713 L962 713 L962 683 L816 683 L816 601 L646 601 L646 683 L354 683 L354 601 L184 601 ZM333 132 Q333 -45 216 -91 Q168 -110 117 -95 Q66 -80 34 -37 Q163 -71 163 82 L163 135 Q83 99 3 91 Q76 145 163 247 L163 261 Q163 308 159 351 Q69 312 2 307 Q68 344 148 416 Q124 522 48 587 Q163 587 242 511 Q270 543 290 573 L405 517 Q365 471 301 427 Q333 355 333 274 L333 132 ZM782 566 Q848 493 962 473 Q960 441 934 412 Q901 373 849 389 Q806 402 789 456 Q772 505 782 566 ZM727 335 Q843 95 996 -53 Q957 -98 889 -97 Q827 -95 788 -59 Q746 -20 718 68 Q689 163 693 265 Q644 108 549 9 Q452 -93 329 -111 Q482 15 548 335 L377 335 L377 365 L554 365 Q570 462 573 549 L735 541 Q734 452 718 365 L965 365 L965 335 L727 335 Z" /><glyph glyph-name="uni884C" unicode="&#x884c;" d="M364 501 Q335 398 256 327 L309 327 L309 -99 L139 -99 L139 255 Q77 230 5 223 Q119 332 181 532 L364 501 ZM5 505 Q120 622 181 814 L364 783 Q332 670 240 596 Q143 518 5 505 ZM964 784 L964 754 L438 754 L438 784 L964 784 ZM985 441 L985 411 L889 411 L889 86 Q889 -75 745 -89 Q688 -95 630 -72 Q573 -50 544 -13 Q624 -41 671 -15 Q719 11 719 88 L719 411 L397 411 L397 441 L985 441 Z" /><glyph glyph-name="uni8868" unicode="&#x8868;" d="M579 367 Q763 104 992 19 Q980 -12 951 -38 Q892 -90 806 -68 Q720 -46 653 81 Q585 209 579 367 ZM747 183 Q762 204 844 359 L987 281 Q948 240 861 208 Q785 181 747 183 ZM541 30 Q541 -25 582 -43 Q623 -60 677 -27 Q621 -107 515 -107 Q451 -107 412 -64 Q373 -21 373 45 L373 124 Q213 -51 18 -82 Q262 133 333 386 L32 386 L32 416 L410 416 L410 540 L57 540 L57 570 L410 570 L410 693 L46 693 L46 723 L410 723 L410 811 L590 811 L590 723 L953 723 L953 693 L590 693 L590 570 L943 570 L943 540 L590 540 L590 416 L968 416 L968 386 L535 386 Q507 317 472 258 L541 258 L541 30 Z" /><glyph glyph-name="uni8981" unicode="&#x8981;" d="M303 652 L303 759 L43 759 L43 789 L957 789 L957 759 L696 759 L696 652 L931 652 L931 395 L68 395 L68 652 L231 652 L231 425 L303 425 L303 622 L251 622 L251 652 L303 652 ZM464 622 L464 425 L535 425 L535 622 L464 622 ZM767 622 L696 622 L696 425 L767 425 L767 622 ZM535 652 L535 759 L464 759 L464 652 L535 652 ZM866 231 Q824 146 741 78 Q819 65 855 50 Q933 16 941 -49 Q945 -81 933 -107 Q763 -65 567 -23 Q341 -114 9 -101 Q237 -54 385 14 Q220 46 106 62 Q140 125 183 231 L28 231 L28 261 L195 261 L235 366 L417 343 Q394 293 377 261 L972 261 L972 231 L866 231 ZM295 123 Q393 119 539 105 Q614 163 660 231 L361 231 Q323 163 295 123 Z" /><glyph glyph-name="uni8BA1" unicode="&#x8ba1;" d="M274 72 L434 113 Q236 -14 90 -100 L43 3 L75 13 Q96 19 104 22 L104 502 L18 502 L18 532 L274 532 L274 72 ZM172 580 Q119 598 98 667 Q78 734 98 815 Q160 717 309 677 Q301 623 266 594 Q227 561 172 580 ZM995 443 L995 413 L765 413 L765 -109 L585 -109 L585 413 L356 413 L356 443 L585 443 L585 810 L765 810 L765 443 L995 443 Z" /><glyph glyph-name="uni8BA9" unicode="&#x8ba9;" d="M158 604 Q108 628 94 694 Q80 760 108 832 Q159 735 303 678 Q291 629 253 606 Q211 580 158 604 ZM272 70 Q315 75 390 86 Q218 -18 84 -93 L46 26 Q75 33 102 38 L102 502 L18 502 L18 532 L272 532 L272 70 ZM713 -51 L984 -51 L984 -81 L330 -81 L330 -51 L543 -51 L543 808 L713 808 L713 481 L961 481 L961 451 L713 451 L713 -51 Z" /><glyph glyph-name="uni8BBA" unicode="&#x8bba;" d="M257 48 L362 62 Q204 -28 81 -93 L46 10 Q71 15 87 19 L87 502 L14 502 L14 532 L257 532 L257 48 ZM158 579 Q100 601 78 676 Q57 749 82 827 Q145 726 308 676 Q297 621 260 591 Q216 557 158 579 ZM616 838 Q789 600 1017 476 Q992 431 931 413 Q858 391 789 433 Q702 485 646 609 Q575 522 476 459 Q368 389 273 380 Q473 579 616 838 ZM944 211 Q771 166 589 125 L589 -53 L938 -53 L938 -83 L419 -83 L419 401 L589 401 L589 213 Q756 279 883 337 L944 211 Z" /><glyph glyph-name="uni8BBE" unicode="&#x8bbe;" d="M137 592 Q86 613 72 685 Q59 754 85 829 Q140 734 286 682 Q274 631 235 603 Q190 570 137 592 ZM257 52 L330 62 Q188 -28 78 -93 L46 10 L87 20 L87 502 L14 502 L14 532 L257 532 L257 52 ZM530 685 Q530 580 468 512 Q402 438 286 434 Q361 504 361 703 L361 794 L530 794 L530 685 ZM745 77 Q846 29 987 -17 Q954 -82 860 -99 Q775 -114 694 -82 Q643 -61 593 -22 Q443 -95 260 -108 Q406 -49 519 45 Q393 183 366 355 Q480 235 620 146 Q706 250 742 373 L338 373 L338 403 L943 403 Q907 216 745 77 ZM698 462 L698 764 L547 764 L547 794 L868 794 L868 492 L969 492 L969 462 L698 462 Z" /><glyph glyph-name="uni8BC4" unicode="&#x8bc4;" d="M257 49 L350 62 Q198 -28 80 -93 L46 10 Q71 15 87 19 L87 502 L14 502 L14 532 L257 532 L257 49 ZM145 600 Q95 624 82 691 Q69 757 97 829 Q147 732 291 673 Q278 624 240 601 Q198 575 145 600 ZM790 326 Q808 508 817 679 L978 655 Q927 475 790 326 ZM523 438 Q519 364 452 348 Q418 340 385 347 Q373 529 332 663 Q403 640 462 575 Q527 505 523 438 ZM741 759 L741 261 L967 261 L967 231 L741 231 L741 -99 L571 -99 L571 231 L328 231 L328 261 L571 261 L571 759 L328 759 L328 789 L967 789 L967 759 L741 759 Z" /><glyph glyph-name="uni8D5B" unicode="&#x8d5b;" d="M952 354 L713 354 Q846 287 988 258 Q980 224 940 198 Q892 167 831 176 L831 63 L661 63 L661 243 L360 243 L360 273 L673 273 Q644 306 616 354 L434 354 Q398 308 339 269 L339 61 L169 61 L169 188 Q79 160 8 166 Q160 253 254 354 L48 354 L48 384 L252 384 L252 458 L85 458 L85 488 L252 488 L252 563 L199 563 L199 593 L252 593 L252 659 L422 659 L422 593 L577 593 L577 659 L747 659 L747 593 L801 593 L801 563 L747 563 L747 488 L915 488 L915 458 L747 458 L747 384 L952 384 L952 354 ZM422 563 L422 488 L577 488 L577 563 L422 563 ZM422 458 L422 384 L577 384 L577 458 L422 458 ZM180 590 Q154 538 92 535 Q49 533 8 551 Q63 687 71 792 Q115 767 147 726 L818 726 L815 771 L993 753 Q914 635 829 534 L820 696 L167 696 Q201 634 180 590 ZM513 740 Q453 743 407 800 Q365 852 354 921 Q450 836 626 841 Q626 814 612 788 Q583 736 513 740 ZM589 197 Q593 136 567 77 Q735 8 962 -4 Q937 -119 800 -110 Q736 -106 666 -59 Q592 -9 559 59 Q527 -4 469 -39 Q336 -122 31 -106 Q202 -68 278 -27 Q424 52 427 197 L589 197 Z" /><glyph glyph-name="uni8D85" unicode="&#x8d85;" d="M466 463 L466 433 L27 433 L27 463 L161 463 L161 658 L44 658 L44 688 L161 688 L161 811 L331 811 L331 688 L449 688 L449 658 L331 658 L331 463 L466 463 ZM405 90 Q615 36 991 46 Q966 -97 773 -97 Q401 -97 184 124 Q130 -93 17 -128 Q53 -29 77 327 L213 314 Q208 236 194 168 Q228 152 245 145 L245 395 L405 395 L405 253 L485 253 L485 223 L405 223 L405 90 ZM507 414 L667 414 L667 152 L776 152 L776 384 L690 384 L690 414 L936 414 L936 122 L507 122 L507 414 ZM486 446 Q551 553 558 758 L484 758 L484 788 L936 788 L936 607 Q936 489 837 467 Q796 458 758 474 Q719 491 702 528 Q766 507 766 572 L766 758 L718 758 Q707 487 486 446 Z" /><glyph glyph-name="uni8D8A" unicode="&#x8d8a;" d="M451 463 L451 433 L27 433 L27 463 L158 463 L158 658 L48 658 L48 688 L158 688 L158 811 L328 811 L328 688 L439 688 L439 658 L328 658 L328 463 L451 463 ZM386 259 L386 107 Q594 37 989 30 Q959 -113 765 -104 Q393 -87 186 146 Q135 -91 17 -128 Q53 -29 77 327 L208 314 Q203 240 194 191 Q201 188 213 181 Q226 175 232 171 L232 395 L386 395 L386 289 L451 289 L451 259 L386 259 ZM692 151 Q635 92 561 103 Q475 116 475 238 L475 654 L670 654 Q663 734 662 807 L804 813 Q806 752 814 654 L958 654 L958 624 L816 624 Q829 488 851 393 Q866 413 900 464 L990 386 Q955 339 879 288 Q918 173 981 87 Q858 113 782 232 Q715 201 657 189 Q703 223 757 279 Q694 410 673 624 L624 624 L624 216 Q624 139 692 151 ZM865 687 Q838 702 831 748 Q825 792 841 826 Q891 757 963 726 Q952 701 930 687 Q900 669 865 687 Z" /><glyph glyph-name="uni8FD9" unicode="&#x8fd9;" d="M569 18 Q776 -5 988 52 Q993 -140 716 -100 Q652 -91 376 -32 Q258 -8 139 -69 Q89 -100 14 -106 Q55 -87 67 -52 Q75 -29 75 28 L75 473 L23 473 L23 503 L245 503 L245 170 Q245 35 184 -32 Q297 47 569 18 ZM108 563 Q61 602 78 691 Q94 773 141 808 Q189 683 275 593 Q254 565 214 548 Q156 524 108 563 ZM616 156 Q460 67 284 65 Q435 135 533 232 Q418 367 380 571 Q470 449 626 343 Q705 460 730 604 L314 604 L314 634 L969 634 L969 604 L921 604 Q898 408 758 265 Q878 202 993 172 Q955 119 879 97 Q804 75 732 97 Q671 115 616 156 ZM658 657 Q593 653 539 716 Q489 773 470 854 Q582 763 770 789 Q772 758 759 725 Q734 661 658 657 Z" /><glyph glyph-name="uni9009" unicode="&#x9009;" d="M985 52 Q992 -140 714 -100 Q669 -93 361 -28 Q258 -7 139 -69 Q89 -100 14 -106 Q55 -87 67 -52 Q75 -29 75 28 L75 473 L23 473 L23 503 L245 503 L245 170 Q245 35 184 -32 Q297 47 568 18 Q775 -5 985 52 ZM99 563 Q52 602 69 691 Q85 773 132 808 Q180 683 266 593 Q245 565 205 548 Q147 524 99 563 ZM472 658 Q395 536 280 500 Q344 628 364 808 L529 794 Q517 742 489 688 L583 688 L583 810 L747 810 L747 688 L949 688 L949 658 L747 658 L747 467 L966 467 L966 437 L818 437 L818 132 L971 132 L971 102 L654 102 L654 437 L605 437 Q584 307 517 210 Q435 93 306 64 Q400 222 430 437 L303 437 L303 467 L583 467 L583 658 L472 658 Z" /><glyph glyph-name="uni90FD" unicode="&#x90fd;" d="M939 790 L939 610 Q939 511 888 453 Q835 394 740 394 Q797 427 797 596 L797 760 L748 760 L748 790 L939 790 ZM794 386 L939 386 L939 206 Q939 107 886 49 Q833 -10 740 -10 Q794 6 794 192 L794 386 ZM569 -102 L569 790 L729 790 L729 -102 L569 -102 ZM560 729 Q496 607 409 513 L539 513 L539 483 L379 483 Q283 390 170 341 L244 341 L244 145 L358 145 L358 311 L263 311 L263 341 L518 341 L518 -81 L84 -81 L84 311 Q43 300 4 296 Q120 370 228 483 L22 483 L22 513 L125 513 L125 688 L40 688 L40 718 L125 718 L125 817 L285 817 L285 718 L368 718 L368 688 L285 688 L285 546 Q387 668 440 788 L560 729 ZM358 115 L244 115 L244 -51 L358 -51 L358 115 Z" /><glyph glyph-name="uni9177" unicode="&#x9177;" d="M44 759 L44 789 L506 789 L506 759 L402 759 L402 609 L497 609 L497 -82 L61 -82 L61 609 L156 609 L156 759 L44 759 ZM378 579 L378 236 L400 236 L400 579 L378 579 ZM289 206 L289 579 L268 579 L268 426 Q268 334 242 263 Q214 185 165 166 Q179 250 179 338 L179 579 L158 579 L158 94 L400 94 L400 206 L289 206 ZM158 -52 L400 -52 L400 64 L158 64 L158 -52 ZM292 609 L292 759 L266 759 L266 609 L292 609 ZM848 425 L961 425 L961 395 L513 395 L513 425 L678 425 L678 647 L641 647 Q595 505 513 467 Q542 640 550 802 L669 788 Q662 724 650 677 L678 677 L678 811 L848 811 L848 677 L944 677 L944 647 L848 647 L848 425 ZM936 267 L936 -83 L531 -83 L531 267 L691 267 L691 -53 L776 -53 L776 237 L710 237 L710 267 L936 267 Z" /><glyph glyph-name="uni91CC" unicode="&#x91cc;" d="M590 -54 L967 -54 L967 -84 L32 -84 L32 -54 L410 -54 L410 124 L79 124 L79 154 L410 154 L410 310 L94 310 L94 793 L264 793 L264 567 L410 567 L410 763 L285 763 L285 793 L906 793 L906 310 L590 310 L590 154 L920 154 L920 124 L590 124 L590 -54 ZM590 340 L736 340 L736 537 L590 537 L590 340 ZM590 763 L590 567 L736 567 L736 763 L590 763 ZM264 340 L410 340 L410 537 L264 537 L264 340 Z" /><glyph glyph-name="uni91D1" unicode="&#x91d1;" d="M338 87 Q361 34 316 -5 Q294 -25 267 -34 Q175 98 110 161 Q178 175 246 155 Q318 134 338 87 ZM489 856 Q694 632 1006 507 Q971 460 906 440 Q823 413 734 453 Q613 508 535 665 Q447 567 308 494 Q149 410 -5 403 Q306 601 489 856 ZM880 129 L702 -54 L950 -54 L950 -84 L49 -84 L49 -54 L415 -54 L415 216 L94 216 L94 246 L415 246 L415 381 L154 381 L154 411 L845 411 L845 381 L585 381 L585 246 L906 246 L906 216 L585 216 L585 -54 L620 -54 L716 177 L880 129 Z" /><glyph glyph-name="uni953B" unicode="&#x953b;" d="M205 661 Q125 535 2 487 Q73 599 97 815 L266 801 Q250 741 222 691 L308 691 L308 661 L205 661 ZM258 43 Q258 -20 269 -40 Q280 -59 310 -53 Q245 -110 173 -90 Q88 -66 88 71 L88 190 L42 190 L42 220 L88 220 L88 441 L42 441 L42 471 L308 471 L308 441 L258 441 L258 220 L308 220 L308 190 L258 190 L258 43 ZM748 643 Q748 550 711 493 Q671 433 596 430 Q622 494 622 653 L622 789 L748 789 L748 643 ZM849 85 Q914 19 995 -48 Q967 -91 905 -95 Q844 -99 804 -65 Q777 -43 757 -15 Q677 -78 569 -98 Q640 -42 709 66 Q655 180 642 347 Q700 256 767 175 Q810 277 815 373 L628 373 L628 403 L954 403 Q935 210 849 85 ZM801 462 L801 759 L759 759 L759 789 L931 789 L931 492 L972 492 L972 462 L801 462 ZM515 89 L515 -96 L345 -96 L345 28 L323 20 L303 118 L345 124 L345 767 L575 800 L589 722 L515 719 L515 534 L589 534 L589 504 L515 504 L515 339 L589 339 L589 309 L515 309 L515 134 Q569 135 632 132 L515 89 Z" /><glyph glyph-name="uni957F" unicode="&#x957f;" d="M365 64 Q365 -68 526 -35 Q440 -120 324 -110 Q191 -98 191 68 L191 389 L25 389 L25 419 L191 419 L191 810 L365 810 L365 419 L975 419 L975 389 L365 389 L365 64 ZM952 715 Q869 624 722 552 Q552 469 391 463 Q632 605 804 820 L952 715 ZM462 368 Q732 108 986 -12 Q973 -39 923 -69 Q842 -118 747 -87 Q654 -58 569 85 Q491 218 462 368 Z" /></font>
</defs>
</svg>
