<?xml version="1.0" standalone="no"?><!DOCTYPE svg PUBLIC "-//W3C//DTD SVG 1.1//EN" "http://www.w3.org/Graphics/SVG/1.1/DTD/svg11.dtd" ><svg xmlns="http://www.w3.org/2000/svg"><metadata></metadata><defs><font id="fonteditor" horiz-adv-x="1033"><font-face font-family="g,X¨5Ñ" font-weight="400" font-stretch="normal" units-per-em="1000" panose-1="2 0 0 0 0 0 0 0 0 0" ascent="880" descent="-120" x-height="0" bbox="-20 -138 994 846" underline-thickness="0" underline-position="0" unicode-range="U+0025-ff1a" /><missing-glyph horiz-adv-x="244"  /><glyph glyph-name="percent" unicode="%" d="M209 339 Q147 339 106 382 Q63 425 63 485 L63 650 Q63 711 106 754 Q148 796 209 796 L330 796 Q391 796 433 754 Q476 711 476 650 L476 485 Q476 425 433 382 Q392 339 330 339 L209 339 ZM203 485 Q203 466 216 453 Q230 439 249 439 L293 439 Q311 439 325 453 Q339 467 339 485 L339 650 Q339 669 325 683 Q312 696 293 696 L249 696 Q229 696 216 683 Q203 670 203 650 L203 485 ZM921 325 Q964 282 964 222 L964 57 Q964 -5 921 -46 Q880 -89 818 -89 L697 -89 Q635 -89 594 -46 Q551 -5 551 57 L551 222 Q551 282 594 325 Q635 368 697 368 L818 368 Q880 368 921 325 ZM827 222 Q827 242 813 254 Q799 268 781 268 L737 268 Q718 268 704 254 Q691 241 691 222 L691 57 Q691 37 704 24 Q717 11 737 11 L781 11 Q800 11 813 24 Q827 38 827 57 L827 222 ZM834 821 L343 -113 L191 -113 L682 821 L834 821 Z" /><glyph glyph-name="hyphen" unicode="-" d="M49 403 L471 403 L471 303 L49 303 L49 403 Z" /><glyph glyph-name="zero" unicode="0" d="M467 800 Q553 800 613 740 Q673 680 673 594 L673 113 Q673 28 613 -32 Q553 -92 467 -92 L266 -92 Q180 -92 120 -32 Q60 28 60 113 L60 594 Q60 680 120 740 Q180 800 266 800 L467 800 ZM523 594 Q523 639 493 670 Q462 700 417 700 L316 700 Q272 700 241 669 Q210 638 210 594 L210 113 Q210 69 241 38 Q272 8 316 8 L417 8 Q462 8 493 38 Q523 68 523 113 L523 594 Z" /><glyph glyph-name="one" unicode="1" d="M24 800 L284 800 L284 -106 L124 -106 L124 700 L24 700 L24 800 Z" /><glyph glyph-name="two" unicode="2" d="M605 8 L605 -92 L53 -92 L53 210 Q53 289 99 334 Q144 380 223 380 L372 380 Q423 380 438 397 Q453 411 453 452 L453 614 Q453 663 435 682 Q417 700 373 700 L62 700 L62 800 L423 800 Q511 800 557 751 Q603 705 603 614 L603 452 Q603 370 559 326 Q513 280 422 280 L273 280 Q236 280 219 263 Q203 247 203 210 L203 8 L605 8 Z" /><glyph glyph-name="three" unicode="3" d="M543 348 Q597 288 597 204 L597 103 Q597 10 549 -40 Q501 -92 408 -92 L38 -92 L38 8 L359 8 Q407 8 427 28 Q447 51 447 103 L447 204 Q447 250 420 280 Q387 316 325 316 L109 316 L109 416 L320 416 Q382 416 415 452 Q442 483 442 529 L442 605 Q442 657 422 680 Q402 700 354 700 L38 700 L38 800 L403 800 Q496 800 544 748 Q592 699 592 605 L592 529 Q592 445 538 385 Q533 378 521 369 Q534 360 543 348 Z" /><glyph glyph-name="four" unicode="4" d="M551 230 L664 230 L664 130 L551 130 L551 -106 L401 -106 L401 130 L18 130 L18 217 L452 810 L551 810 L551 230 ZM401 230 L401 520 L187 230 L401 230 Z" /><glyph glyph-name="five" unicode="5" d="M565 428 Q620 376 620 289 L620 101 Q620 16 564 -37 Q506 -92 406 -92 L57 -92 L57 8 L357 8 Q415 8 443 33 Q471 55 471 101 L471 289 Q471 378 382 378 L57 378 L57 800 L619 800 L619 700 L207 700 L207 478 L431 478 Q512 478 565 428 Z" /><glyph glyph-name="six" unicode="6" d="M476 423 Q561 423 607 375 Q653 328 653 240 L653 88 Q653 3 603 -44 Q551 -92 452 -92 L240 -92 Q149 -92 102 -42 Q61 2 61 83 L61 598 Q61 688 120 744 Q179 800 279 800 L621 800 L621 700 L331 700 Q213 700 213 598 L213 423 L476 423 ZM503 240 Q503 285 485 304 Q467 323 426 323 L213 323 L213 83 Q213 41 227 26 Q244 8 292 8 L402 8 Q462 8 484 29 Q503 47 503 88 L503 240 Z" /><glyph glyph-name="seven" unicode="7" d="M567 812 L567 744 L564 736 Q428 362 341 -77 L338 -93 L191 -93 L196 -69 Q284 376 405 712 L27 712 L27 812 L567 812 Z" /><glyph glyph-name="eight" unicode="8" d="M656 372 Q715 316 715 230 L715 71 Q715 4 667 -44 Q619 -92 551 -92 L213 -92 Q146 -92 98 -44 Q50 4 50 71 L50 230 Q50 318 109 372 Q119 382 129 389 Q79 442 79 520 L79 637 Q79 705 127 752 Q175 800 242 800 L522 800 Q590 800 638 752 Q686 705 686 637 L686 520 Q686 443 635 389 Q649 379 656 372 ZM229 520 Q229 474 262 447 Q290 424 325 424 L441 424 Q476 424 504 447 Q537 474 537 520 L537 637 Q537 663 519 682 Q500 700 473 700 L292 700 Q266 700 247 682 Q229 663 229 637 L229 520 ZM566 230 Q566 272 539 298 Q513 324 470 324 L296 324 Q253 324 227 298 Q200 272 200 230 L200 71 Q200 45 219 26 Q238 8 264 8 L502 8 Q528 8 547 26 Q566 45 566 71 L566 230 Z" /><glyph glyph-name="nine" unicode="9" d="M602 750 Q643 703 643 625 L643 110 Q643 21 584 -36 Q522 -92 424 -92 L83 -92 L83 8 L374 8 Q493 8 493 110 L493 285 L227 285 Q143 285 97 333 Q51 380 51 468 L51 620 Q51 705 101 752 Q154 800 252 800 L463 800 Q555 800 602 750 ZM493 385 L493 625 Q493 667 479 682 Q462 700 413 700 L302 700 Q242 700 219 679 Q201 661 201 620 L201 468 Q201 424 219 404 Q237 385 277 385 L493 385 Z" /><glyph glyph-name="colon" unicode=":" d="M82 -86 L82 89 L257 89 L257 -86 L82 -86 ZM82 572 L257 572 L257 397 L82 397 L82 572 Z" /><glyph glyph-name="A" unicode="a" d="M684 -98 L585 177 L239 177 L139 -98 L-20 -98 L306 804 L518 804 L844 -98 L684 -98 ZM275 277 L549 277 L412 655 L275 277 Z" /><glyph glyph-name="B" unicode="b" d="M671 358 Q725 303 725 216 L725 90 Q725 15 671 -39 Q618 -92 542 -92 L60 -92 L60 690 L220 675 L220 418 L447 418 Q481 418 504 435 Q522 447 522 466 L522 640 Q522 664 504 682 Q488 700 461 700 L60 700 L60 800 L521 800 Q588 800 635 753 Q682 706 682 640 L682 466 Q682 416 649 378 L671 358 ZM565 216 Q565 256 545 282 Q517 318 447 318 L220 318 L220 8 L482 8 Q518 8 540 32 Q565 57 565 90 L565 216 Z" /><glyph glyph-name="C" unicode="c" d="M693 9 L693 -91 L291 -91 Q195 -91 128 -23 Q60 44 60 140 L60 568 Q60 664 128 732 Q195 799 291 799 L681 799 L681 699 L351 699 Q297 699 259 661 Q220 622 220 568 L220 140 Q220 85 259 47 Q297 9 351 9 L693 9 Z" /><glyph glyph-name="D" unicode="d" d="M656 726 Q730 652 730 547 L730 161 Q730 56 656 -18 Q582 -92 477 -92 L61 -92 L61 690 L221 678 L221 8 L417 8 Q481 8 526 53 Q570 97 570 161 L570 547 Q570 611 526 655 Q481 700 417 700 L61 700 L61 800 L477 800 Q582 800 656 726 Z" /><glyph glyph-name="G" unicode="g" d="M760 409 L760 123 Q760 35 697 -28 Q634 -91 546 -91 L292 -91 Q196 -91 129 -23 Q61 44 61 140 L61 569 Q61 664 129 732 Q196 799 292 799 L746 799 L746 699 L352 699 Q298 699 260 661 Q221 623 221 569 L221 140 Q221 86 260 48 Q298 9 352 9 L486 9 Q533 9 567 42 Q600 76 600 123 L600 309 L410 309 L410 409 L760 409 Z" /><glyph glyph-name="I" unicode="i" d="M62 812 L232 812 L232 -105 L62 -105 L62 812 Z" /><glyph glyph-name="M" unicode="m" d="M773 803 L917 803 L917 -105 L757 -105 L757 416 L557 -97 L423 -97 L222 416 L222 -105 L62 -105 L62 803 L206 803 L490 123 L773 803 Z" /><glyph glyph-name="O" unicode="o" d="M735 730 Q806 659 806 559 L806 149 Q806 49 735 -22 Q665 -92 565 -92 L302 -92 Q204 -92 131 -22 Q61 51 61 149 L61 559 Q61 657 131 730 Q204 800 302 800 L565 800 Q665 800 735 730 ZM646 559 Q646 617 604 659 Q563 700 505 700 L362 700 Q304 700 262 659 Q221 618 221 559 L221 149 Q221 91 262 49 Q304 8 362 8 L505 8 Q563 8 604 49 Q646 91 646 149 L646 559 Z" /><glyph glyph-name="P" unicode="p" d="M515 800 Q602 800 665 738 Q728 675 728 587 L728 477 Q728 389 665 326 Q602 264 515 264 L220 264 L220 -104 L60 -104 L60 690 L220 675 L220 364 L455 364 Q501 364 534 397 Q568 430 568 477 L568 587 Q568 633 534 666 Q501 700 455 700 L60 700 L60 800 L515 800 Z" /><glyph glyph-name="R" unicode="r" d="M579 -104 L372 264 L220 264 L220 -104 L60 -104 L60 690 L220 675 L220 364 L455 364 Q501 364 534 397 Q568 430 568 477 L568 587 Q568 633 534 666 Q501 700 455 700 L60 700 L60 800 L515 800 Q602 800 665 738 Q728 675 728 587 L728 477 Q728 399 679 341 Q631 282 556 268 L765 -104 L579 -104 Z" /><glyph glyph-name="S" unicode="s" d="M647 341 Q706 282 706 181 L706 96 Q706 19 653 -37 Q601 -92 521 -92 L83 -92 L83 8 L461 8 Q496 8 521 33 Q546 58 546 96 L546 181 Q546 291 434 301 L264 319 Q163 330 115 366 Q81 393 64 435 Q49 476 49 532 L49 612 Q49 691 102 744 Q156 800 234 800 L656 800 L656 700 L294 700 Q259 700 234 675 Q209 650 209 612 L209 532 Q209 468 234 447 Q257 427 335 419 L502 401 Q595 393 647 341 Z" /><glyph glyph-name="emdash" unicode="&#x2014;" d="M24 404 L983 404 L983 304 L24 304 L24 404 Z" /><glyph glyph-name="quotedblleft" unicode="&#x201c;" d="M401 581 L401 706 L438 800 L551 800 L532 750 L576 750 L576 581 L401 581 ZM799 581 L624 581 L624 706 L661 800 L774 800 L755 750 L799 750 L799 581 Z" /><glyph glyph-name="quotedblright" unicode="&#x201d;" d="M410 800 L585 800 L585 675 L548 581 L435 581 L454 631 L410 631 L410 800 ZM187 631 L187 800 L362 800 L362 675 L325 581 L212 581 L231 631 L187 631 Z" /><glyph glyph-name="uni3001" unicode="&#x3001;" d="M360 172 L497 -108 L322 -108 L185 172 L360 172 Z" /><glyph glyph-name="uni3002" unicode="&#x3002;" d="M154 172 L419 172 L419 -93 L154 -93 L154 70 L247 53 L247 0 L326 0 L326 79 L154 79 L154 172 Z" /><glyph glyph-name="uni300A" unicode="&#x300a;" d="M648 830 L448 355 L649 -122 L526 -122 L325 355 L525 830 L648 830 ZM643 355 L844 -122 L721 -122 L520 355 L720 830 L843 830 L643 355 Z" /><glyph glyph-name="uni300B" unicode="&#x300b;" d="M478 830 L679 355 L478 -122 L355 -122 L556 355 L355 830 L478 830 ZM283 830 L484 355 L283 -122 L160 -122 L361 355 L160 830 L283 830 Z" /><glyph glyph-name="uni4E00" unicode="&#x4e00;" d="M40 433 L960 433 L960 323 L40 323 L40 433 Z" /><glyph glyph-name="uni4E07" unicode="&#x4e07;" d="M44 791 L955 791 L955 691 L44 691 L44 791 ZM355 667 L332 495 L916 495 L916 -90 L431 -90 L431 10 L751 10 L751 395 L318 395 L253 -92 L84 -92 L188 681 L355 667 Z" /><glyph glyph-name="uni4E0A" unicode="&#x4e0a;" d="M44 24 L955 24 L955 -84 L44 -84 L44 24 ZM561 430 L561 36 L391 51 L391 814 L561 814 L561 538 L937 538 L937 430 L561 430 Z" /><glyph glyph-name="uni4E0B" unicode="&#x4e0b;" d="M37 792 L962 792 L962 687 L37 687 L37 792 ZM366 -99 L366 677 L531 662 L531 -99 L366 -99 ZM617 593 L773 593 L894 35 L738 35 L617 593 Z" /><glyph glyph-name="uni4E0D" unicode="&#x4e0d;" d="M956 690 L449 690 L203 -14 L27 -14 L273 690 L44 690 L44 790 L956 790 L956 690 ZM411 -101 L411 572 L589 572 L589 -101 L411 -101 ZM779 530 L969 -14 L793 -14 L603 530 L779 530 Z" /><glyph glyph-name="uni4E0E" unicode="&#x4e0e;" d="M322 805 L322 471 L928 471 L928 -91 L397 -91 L397 12 L763 12 L763 368 L156 368 L156 805 L322 805 ZM345 714 L950 714 L950 614 L345 614 L345 714 ZM730 241 L730 141 L47 141 L47 241 L730 241 Z" /><glyph glyph-name="uni4E13" unicode="&#x4e13;" d="M943 414 L388 414 L372 300 L868 300 L813 -87 L227 -87 L227 13 L663 13 L693 200 L195 200 L227 414 L57 414 L57 514 L242 514 L259 631 L87 631 L87 731 L274 731 L286 812 L447 812 L435 731 L913 731 L913 631 L420 631 L403 514 L943 514 L943 414 Z" /><glyph glyph-name="uni4E1A" unicode="&#x4e1a;" d="M43 15 L956 15 L956 -85 L43 -85 L43 15 ZM952 664 L911 172 L768 172 L808 664 L952 664 ZM227 172 L84 172 L43 664 L187 664 L227 172 ZM426 805 L426 25 L266 38 L266 805 L426 805 ZM734 805 L734 25 L574 38 L574 805 L734 805 Z" /><glyph glyph-name="uni4E24" unicode="&#x4e24;" d="M49 791 L950 791 L950 691 L49 691 L49 791 ZM72 -93 L72 482 L227 462 L227 -93 L72 -93 ZM696 666 L696 592 L928 592 L928 -93 L605 -93 L605 7 L773 7 L773 492 L696 492 L696 410 L766 35 L647 35 L616 208 L585 35 L415 35 L384 208 L353 35 L234 35 L304 410 L304 492 L72 492 L72 592 L304 592 L304 681 L464 666 L464 592 L536 592 L536 681 L696 666 ZM536 360 L536 492 L464 492 L464 356 L499 142 L536 360 Z" /><glyph glyph-name="uni4E2A" unicode="&#x4e2a;" d="M501 840 L973 584 L973 409 L501 665 L27 408 L27 583 L501 840 ZM410 -110 L410 485 L590 485 L590 -110 L410 -110 Z" /><glyph glyph-name="uni4E2D" unicode="&#x4e2d;" d="M933 675 L933 133 L585 133 L585 -108 L415 -108 L415 133 L67 133 L67 564 L232 544 L232 233 L415 233 L415 575 L67 575 L67 675 L415 675 L415 813 L585 813 L585 675 L933 675 ZM768 233 L768 575 L585 575 L585 233 L768 233 Z" /><glyph glyph-name="uni4E30" unicode="&#x4e30;" d="M969 173 L969 73 L590 73 L590 -106 L410 -106 L410 73 L30 73 L30 173 L410 173 L410 338 L57 338 L57 438 L410 438 L410 603 L52 603 L52 703 L410 703 L410 818 L590 818 L590 703 L947 703 L947 603 L590 603 L590 438 L943 438 L943 338 L590 338 L590 173 L969 173 Z" /><glyph glyph-name="uni4E3A" unicode="&#x4e3a;" d="M448 623 L927 623 L927 -92 L519 -92 L519 8 L757 8 L757 523 L419 523 L238 -101 L67 -101 L248 523 L47 523 L47 623 L277 623 L331 810 L503 810 L448 623 ZM600 387 L650 143 L495 143 L445 387 L600 387 ZM249 655 L94 655 L65 797 L220 797 L249 655 Z" /><glyph glyph-name="uni4E3B" unicode="&#x4e3b;" d="M585 703 L946 703 L946 600 L54 600 L54 703 L415 703 L415 809 L585 809 L585 703 ZM585 263 L585 21 L946 21 L946 -82 L54 -82 L54 21 L415 21 L415 263 L74 263 L74 366 L415 366 L415 588 L585 575 L585 366 L926 366 L926 263 L585 263 Z" /><glyph glyph-name="uni4E3E" unicode="&#x4e3e;" d="M585 213 L585 123 L946 123 L946 23 L585 23 L585 -107 L415 -107 L415 23 L54 23 L54 123 L415 123 L415 213 L9 213 L211 502 L47 502 L47 602 L953 602 L953 502 L788 502 L990 213 L585 213 ZM259 313 L415 313 L415 424 L585 424 L585 313 L740 313 L608 502 L391 502 L259 313 ZM312 626 L154 626 L102 800 L260 800 L312 626 ZM587 626 L429 626 L377 800 L535 800 L587 626 ZM893 800 L841 626 L683 626 L735 800 L893 800 Z" /><glyph glyph-name="uni4E5F" unicode="&#x4e5f;" d="M285 16 L949 16 L949 -84 L130 -84 L130 418 L45 397 L45 532 L130 553 L130 790 L285 790 L285 591 L453 632 L453 818 L608 818 L608 670 L931 750 L931 165 L776 165 L776 573 L608 532 L608 118 L453 118 L453 495 L285 455 L285 16 Z" /><glyph glyph-name="uni4E86" unicode="&#x4e86;" d="M45 793 L939 793 L939 688 L637 453 L637 -95 L238 -95 L238 5 L473 5 L473 509 L719 693 L45 693 L45 793 Z" /><glyph glyph-name="uni4E8C" unicode="&#x4e8c;" d="M942 741 L942 636 L57 636 L57 741 L942 741 ZM26 42 L973 42 L973 -63 L26 -63 L26 42 Z" /><glyph glyph-name="uni4EA4" unicode="&#x4ea4;" d="M413 618 L223 399 L34 399 L224 618 L413 618 ZM973 -96 L754 -96 L499 134 L245 -96 L26 -96 L326 175 L94 376 L313 376 L499 215 L686 376 L905 376 L672 175 L973 -96 ZM582 618 L771 618 L961 399 L772 399 L582 618 ZM953 746 L953 646 L47 646 L47 746 L410 746 L410 819 L590 819 L590 746 L953 746 Z" /><glyph glyph-name="uni4EC5" unicode="&#x4ec5;" d="M983 -90 L777 -90 L628 60 L478 -90 L275 -90 L527 163 L335 357 L335 680 L495 660 L495 408 L631 268 L765 403 L765 690 L335 690 L335 790 L925 790 L925 357 L733 165 L983 -90 ZM290 801 L182 439 L12 439 L125 801 L290 801 ZM80 -92 L80 429 L240 429 L240 -92 L80 -92 Z" /><glyph glyph-name="uni4ECA" unicode="&#x4eca;" d="M501 828 L962 567 L962 407 L501 667 L37 407 L37 567 L501 828 ZM413 530 L583 530 L583 354 L413 354 L413 530 ZM65 208 L65 308 L915 308 L762 -105 L566 -105 L687 208 L65 208 Z" /><glyph glyph-name="uni4EE5" unicode="&#x4ee5;" d="M617 808 L784 808 L584 -100 L416 -100 L617 808 ZM876 428 L980 -100 L812 -100 L708 428 L876 428 ZM228 795 L228 24 L370 24 L370 -78 L62 -78 L62 795 L228 795 ZM467 800 L467 303 L307 303 L307 800 L467 800 Z" /><glyph glyph-name="uni4EF6" unicode="&#x4ef6;" d="M967 298 L967 198 L772 198 L772 -95 L604 -95 L604 198 L308 198 L308 298 L604 298 L604 506 L340 506 L340 789 L500 789 L500 606 L604 606 L604 801 L772 801 L772 606 L954 606 L954 506 L772 506 L772 298 L967 298 ZM12 439 L112 801 L277 801 L182 439 L12 439 ZM80 -95 L80 429 L240 429 L240 -95 L80 -95 Z" /><glyph glyph-name="uni4F18" unicode="&#x4f18;" d="M955 536 L553 536 L509 -96 L352 -96 L396 536 L284 536 L284 636 L403 636 L414 799 L572 799 L560 636 L955 636 L955 536 ZM766 14 L957 14 L957 -86 L603 -86 L603 511 L766 496 L766 14 ZM906 790 L906 667 L746 667 L746 790 L906 790 ZM290 801 L194 439 L24 439 L125 801 L290 801 ZM93 -92 L93 429 L253 429 L253 -92 L93 -92 Z" /><glyph glyph-name="uni4F1A" unicode="&#x4f1a;" d="M501 828 L954 618 L954 460 L501 670 L46 459 L46 617 L501 828 ZM48 180 L48 280 L952 280 L952 180 L371 180 L310 14 L708 14 L661 145 L827 145 L914 -86 L93 -86 L198 180 L48 180 ZM162 486 L838 486 L838 386 L162 386 L162 486 Z" /><glyph glyph-name="uni4F20" unicode="&#x4f20;" d="M963 413 L606 413 L589 302 L928 302 L878 -86 L430 -86 L430 14 L733 14 L758 202 L415 202 L445 413 L332 413 L332 513 L459 513 L476 633 L358 633 L358 733 L490 733 L501 806 L664 806 L653 733 L946 733 L946 633 L638 633 L621 513 L963 513 L963 413 ZM12 439 L147 806 L312 806 L182 439 L12 439 ZM117 -92 L117 429 L277 429 L277 -92 L117 -92 Z" /><glyph glyph-name="uni4F4D" unicode="&#x4f4d;" d="M296 15 L955 15 L955 -85 L296 -85 L296 15 ZM948 687 L948 587 L302 587 L302 687 L540 687 L540 801 L710 801 L710 687 L948 687 ZM369 43 L322 559 L477 559 L525 43 L369 43 ZM879 43 L723 43 L770 559 L926 559 L879 43 ZM12 439 L112 801 L277 801 L182 439 L12 439 ZM80 -92 L80 429 L240 429 L240 -92 L80 -92 Z" /><glyph glyph-name="uni4F4E" unicode="&#x4f4e;" d="M957 415 L957 315 L880 315 L942 -88 L775 -88 L715 315 L517 315 L517 12 L556 12 L556 -88 L347 -88 L347 793 L948 793 L948 693 L517 693 L517 415 L700 415 L660 683 L827 668 L865 415 L957 415 ZM579 139 L699 139 L734 -88 L614 -88 L579 139 ZM12 439 L112 801 L277 801 L182 439 L12 439 ZM93 -92 L93 429 L253 429 L253 -92 L93 -92 Z" /><glyph glyph-name="uni4F5C" unicode="&#x4f5c;" d="M27 439 L127 801 L292 801 L197 439 L27 439 ZM98 -97 L98 429 L268 429 L268 -97 L98 -97 ZM687 560 L687 427 L952 427 L952 327 L687 327 L687 173 L952 173 L952 73 L687 73 L687 -98 L517 -98 L517 580 L687 560 ZM567 690 L962 690 L962 590 L394 590 L394 805 L567 805 L567 690 Z" /><glyph glyph-name="uni4F60" unicode="&#x4f60;" d="M557 10 L557 580 L717 580 L717 -90 L517 -90 L517 10 L557 10 ZM480 694 L480 430 L331 430 L331 794 L943 794 L943 430 L794 430 L794 694 L480 694 ZM299 -80 L354 336 L502 336 L448 -80 L299 -80 ZM917 336 L972 -80 L826 -80 L771 336 L917 336 ZM12 439 L112 801 L277 801 L182 439 L12 439 ZM80 -92 L80 429 L240 429 L240 -92 L80 -92 Z" /><glyph glyph-name="uni4F9B" unicode="&#x4f9b;" d="M12 439 L112 801 L277 801 L182 439 L12 439 ZM80 -92 L80 429 L240 429 L240 -92 L80 -92 ZM298 307 L955 307 L955 207 L298 207 L298 307 ZM401 336 L401 555 L308 555 L308 655 L401 655 L401 799 L561 799 L561 655 L720 655 L720 799 L880 799 L880 655 L945 655 L945 555 L880 555 L880 316 L720 336 L720 555 L561 555 L561 316 L401 336 ZM326 -89 L405 182 L565 182 L486 -89 L326 -89 ZM715 182 L875 182 L954 -89 L794 -89 L715 182 Z" /><glyph glyph-name="uni5143" unicode="&#x5143;" d="M739 19 L955 19 L955 -90 L559 -90 L559 323 L739 308 L739 19 ZM97 -90 L180 323 L354 294 L277 -90 L97 -90 ZM953 453 L953 348 L47 348 L47 453 L953 453 ZM915 789 L915 684 L84 684 L84 789 L915 789 Z" /><glyph glyph-name="uni5168" unicode="&#x5168;" d="M954 474 L501 675 L46 474 L46 627 L501 824 L954 627 L954 474 ZM590 16 L954 16 L954 -84 L46 -84 L46 16 L410 16 L410 153 L84 153 L84 253 L410 253 L410 395 L590 380 L590 253 L916 253 L916 153 L590 153 L590 16 ZM129 405 L129 505 L871 505 L871 405 L129 405 Z" /><glyph glyph-name="uni516C" unicode="&#x516c;" d="M608 275 L783 275 L931 -86 L69 -86 L279 383 L458 383 L294 14 L714 14 L608 275 ZM437 812 L194 335 L19 335 L263 812 L437 812 ZM979 335 L805 335 L562 812 L736 812 L979 335 Z" /><glyph glyph-name="uni516D" unicode="&#x516d;" d="M964 613 L964 508 L36 508 L36 613 L964 613 ZM590 811 L590 625 L410 642 L410 811 L590 811 ZM27 -93 L193 441 L356 441 L190 -93 L27 -93 ZM806 441 L972 -93 L808 -93 L642 441 L806 441 Z" /><glyph glyph-name="uni5185" unicode="&#x5185;" d="M63 -93 L63 585 L223 570 L223 -93 L63 -93 ZM585 695 L937 695 L937 -90 L634 -90 L634 10 L777 10 L777 595 L585 595 L585 469 L746 53 L593 53 L500 306 L405 53 L252 53 L415 472 L415 595 L63 595 L63 695 L415 695 L415 817 L585 817 L585 695 Z" /><glyph glyph-name="uni51C6" unicode="&#x51c6;" d="M492 14 L955 14 L955 -86 L335 -86 L335 468 L266 468 L352 804 L510 804 L490 721 L636 721 L636 802 L793 802 L793 721 L955 721 L955 621 L793 621 L793 485 L945 485 L945 385 L793 385 L793 250 L945 250 L945 150 L793 150 L793 24 L636 44 L636 150 L492 150 L492 14 ZM636 250 L636 385 L492 385 L492 250 L636 250 ZM636 485 L636 621 L492 621 L492 485 L636 485 ZM43 800 L193 800 L249 438 L99 438 L43 800 ZM38 -93 L99 403 L249 403 L188 -93 L38 -93 Z" /><glyph glyph-name="uni51FA" unicode="&#x51fa;" d="M774 18 L774 336 L939 336 L939 -82 L61 -82 L61 336 L229 336 L229 18 L774 18 ZM774 787 L939 787 L939 384 L585 384 L585 30 L415 45 L415 384 L61 384 L61 787 L229 787 L229 484 L415 484 L415 821 L585 821 L585 484 L774 484 L774 787 Z" /><glyph glyph-name="uni5206" unicode="&#x5206;" d="M43 -92 L192 340 L371 327 L230 -92 L43 -92 ZM983 350 L850 350 L850 -92 L454 -92 L454 8 L680 8 L680 350 L15 350 L221 804 L405 804 L245 451 L752 451 L592 804 L777 804 L983 350 Z" /><glyph glyph-name="uni5217" unicode="&#x5217;" d="M49 696 L49 796 L532 796 L532 696 L49 696 ZM252 671 L238 562 L517 562 L472 -86 L54 -86 L54 14 L319 14 L332 174 L229 174 L229 274 L339 274 L354 462 L226 462 L190 174 L40 174 L102 686 L252 671 ZM778 808 L938 808 L938 -89 L644 -89 L644 11 L778 11 L778 808 ZM712 712 L712 73 L564 73 L564 712 L712 712 Z" /><glyph glyph-name="uni5219" unicode="&#x5219;" d="M190 687 L190 165 L65 165 L65 794 L543 794 L543 165 L419 165 L419 687 L190 687 ZM379 630 L379 184 L564 -89 L400 -89 L307 57 L214 -89 L45 -89 L229 178 L229 639 L379 630 ZM783 808 L938 808 L938 -89 L688 -89 L688 11 L783 11 L783 808 ZM719 712 L719 73 L594 73 L594 712 L719 712 Z" /><glyph glyph-name="uni521B" unicode="&#x521b;" d="M783 808 L938 808 L938 -84 L688 -84 L688 16 L783 16 L783 808 ZM719 712 L719 78 L594 78 L594 712 L719 712 ZM219 328 L219 16 L549 16 L549 -84 L65 -84 L65 428 L534 428 L534 124 L287 124 L287 224 L381 224 L381 328 L219 328 ZM45 622 L301 817 L556 622 L556 447 L301 641 L45 446 L45 622 Z" /><glyph glyph-name="uni522B" unicode="&#x522b;" d="M783 808 L938 808 L938 -89 L688 -89 L688 11 L783 11 L783 808 ZM720 712 L720 72 L595 72 L595 712 L720 712 ZM63 686 L63 788 L529 788 L529 386 L63 386 L63 675 L219 655 L219 489 L373 489 L373 686 L63 686 ZM269 346 L263 293 L529 293 L529 -89 L287 -89 L287 11 L369 11 L369 193 L253 193 L223 -90 L63 -90 L93 193 L40 193 L40 293 L103 293 L109 346 L269 346 Z" /><glyph glyph-name="uni524D" unicode="&#x524d;" d="M368 392 L368 292 L240 292 L240 392 L368 392 ZM240 101 L240 201 L368 201 L368 101 L240 101 ZM781 12 L781 595 L931 595 L931 -88 L648 -88 L648 12 L781 12 ZM728 541 L728 74 L593 74 L593 541 L728 541 ZM802 738 L951 738 L951 638 L49 638 L49 738 L197 738 L175 807 L368 807 L390 738 L609 738 L631 807 L824 807 L802 738 ZM67 -91 L67 473 L222 458 L222 -91 L67 -91 ZM67 483 L67 583 L541 583 L541 -91 L318 -91 L318 9 L387 9 L387 483 L67 483 Z" /><glyph glyph-name="uni529B" unicode="&#x529b;" d="M377 697 L938 697 L938 -88 L500 -88 L500 17 L768 17 L768 592 L360 592 L251 -93 L82 -93 L191 592 L40 592 L40 697 L208 697 L227 816 L396 816 L377 697 Z" /><glyph glyph-name="uni529E" unicode="&#x529e;" d="M12 0 L71 567 L201 567 L142 0 L12 0 ZM919 610 L981 4 L842 4 L779 610 L919 610 ZM459 824 L451 730 L766 730 L766 -101 L496 -101 L496 -1 L591 -1 L591 630 L443 630 L383 -102 L208 -102 L268 630 L43 630 L43 730 L276 730 L284 824 L459 824 Z" /><glyph glyph-name="uni529F" unicode="&#x529f;" d="M35 684 L35 784 L405 784 L405 684 L35 684 ZM35 -75 L35 25 L405 25 L405 -75 L35 -75 ZM145 675 L305 665 L305 35 L145 45 L145 675 ZM693 728 L940 728 L940 -88 L708 -88 L708 12 L775 12 L775 628 L684 628 L619 -94 L455 -94 L520 628 L434 628 L434 728 L529 728 L536 817 L700 817 L693 728 Z" /><glyph glyph-name="uni52A8" unicode="&#x52a8;" d="M720 748 L937 748 L937 -87 L718 -87 L718 5 L781 5 L781 648 L715 648 L675 -95 L522 -95 L561 648 L497 648 L497 748 L567 748 L571 822 L724 822 L720 748 ZM464 776 L464 676 L59 676 L59 776 L464 776 ZM479 457 L479 357 L37 357 L37 457 L479 457 ZM307 275 L442 275 L482 -79 L50 -79 L108 347 L247 332 L205 21 L330 21 L307 275 Z" /><glyph glyph-name="uni5341" unicode="&#x5341;" d="M955 475 L955 365 L590 365 L590 -100 L410 -100 L410 365 L45 365 L45 475 L410 475 L410 809 L590 809 L590 475 L955 475 Z" /><glyph glyph-name="uni5347" unicode="&#x5347;" d="M954 402 L954 292 L827 292 L827 -99 L667 -99 L667 292 L353 292 L332 -99 L172 -99 L193 292 L48 292 L48 402 L200 402 L215 689 L63 689 L63 799 L530 799 L530 689 L375 689 L360 402 L667 402 L667 806 L827 806 L827 402 L954 402 Z" /><glyph glyph-name="uni534E" unicode="&#x534e;" d="M549 284 L549 468 L380 429 L380 567 L549 606 L549 802 L709 802 L709 643 L945 698 L945 561 L709 506 L709 384 L945 384 L945 284 L549 284 ZM317 802 L199 554 L34 554 L157 802 L317 802 ZM125 272 L125 544 L285 544 L285 272 L125 272 ZM954 163 L954 63 L590 63 L590 -108 L410 -108 L410 63 L46 63 L46 163 L410 163 L410 257 L590 257 L590 163 L954 163 Z" /><glyph glyph-name="uni5353" unicode="&#x5353;" d="M954 111 L954 11 L585 11 L585 -107 L415 -107 L415 11 L45 11 L45 111 L415 111 L415 185 L585 170 L585 111 L954 111 ZM290 454 L710 454 L710 355 L290 355 L290 454 ZM892 614 L892 195 L108 195 L108 505 L263 485 L263 293 L737 293 L737 516 L108 516 L108 614 L402 614 L402 813 L572 813 L572 764 L938 764 L938 664 L572 664 L572 614 L892 614 Z" /><glyph glyph-name="uni539A" unicode="&#x539a;" d="M441 544 L758 544 L758 461 L441 461 L441 544 ZM270 570 L415 553 L415 425 L784 425 L784 579 L270 579 L270 662 L929 662 L929 342 L270 342 L270 570 ZM952 152 L952 52 L752 52 L752 -92 L398 -92 L398 1 L588 1 L588 52 L263 52 L263 152 L637 152 L708 207 L270 207 L270 300 L933 300 L933 249 L809 152 L952 152 ZM947 791 L947 700 L220 700 L220 -95 L60 -95 L60 791 L947 791 Z" /><glyph glyph-name="uni539F" unicode="&#x539f;" d="M469 466 L742 466 L742 366 L469 366 L469 466 ZM278 504 L437 482 L437 316 L774 316 L774 515 L278 515 L278 626 L522 626 L522 669 L692 669 L692 626 L934 626 L934 205 L278 205 L278 504 ZM527 9 L527 192 L687 177 L687 -92 L465 -92 L465 9 L527 9 ZM264 -87 L310 160 L456 160 L410 -87 L264 -87 ZM752 160 L899 160 L944 -87 L798 -87 L752 160 ZM60 799 L954 799 L954 699 L220 699 L220 -92 L60 -92 L60 799 Z" /><glyph glyph-name="uni53BB" unicode="&#x53bb;" d="M415 423 L415 599 L64 599 L64 704 L415 704 L415 817 L585 817 L585 704 L936 704 L936 599 L585 599 L585 408 L415 423 ZM33 396 L967 396 L967 289 L33 289 L33 396 ZM672 227 L838 227 L920 -84 L87 -84 L195 279 L354 264 L278 24 L727 24 L672 227 Z" /><glyph glyph-name="uni53C2" unicode="&#x53c2;" d="M110 152 L890 212 L890 108 L110 48 L110 152 ZM64 -101 L64 2 L936 62 L936 -41 L64 -101 ZM663 470 L948 406 L948 285 L855 307 L855 253 L145 193 L145 296 L707 344 L500 394 L52 285 L52 406 L337 470 L52 470 L52 575 L415 575 L415 600 L585 600 L585 575 L948 575 L948 470 L663 470 ZM812 796 L889 621 L111 621 L195 809 L369 809 L330 721 L680 721 L644 796 L812 796 Z" /><glyph glyph-name="uni53D1" unicode="&#x53d1;" d="M867 797 L867 681 L707 681 L707 797 L867 797 ZM957 -88 L760 -88 L631 39 L481 -88 L269 -88 L534 136 L339 328 L536 328 L640 226 L755 323 L755 380 L325 380 L220 -91 L60 -91 L204 557 L48 557 L88 794 L230 794 L206 657 L258 657 L284 802 L446 802 L420 657 L955 657 L955 557 L364 557 L347 480 L913 480 L913 277 L737 129 L957 -88 Z" /><glyph glyph-name="uni53E3" unicode="&#x53e3;" d="M60 794 L939 794 L939 -85 L60 -85 L60 684 L210 664 L210 15 L789 15 L789 694 L60 694 L60 794 Z" /><glyph glyph-name="uni53EA" unicode="&#x53ea;" d="M900 795 L900 219 L100 219 L100 684 L265 664 L265 319 L735 319 L735 695 L100 695 L100 795 L900 795 ZM46 -100 L181 188 L356 188 L220 -100 L46 -100 ZM819 188 L955 -100 L781 -100 L645 188 L819 188 Z" /><glyph glyph-name="uni53F0" unicode="&#x53f0;" d="M812 753 L925 431 L75 431 L221 809 L374 809 L273 532 L739 532 L662 753 L812 753 ZM107 246 L107 346 L893 346 L893 -85 L107 -85 L107 234 L262 214 L262 15 L738 15 L738 246 L107 246 Z" /><glyph glyph-name="uni53F7" unicode="&#x53f7;" d="M894 793 L894 487 L106 487 L106 681 L261 661 L261 587 L739 587 L739 693 L106 693 L106 793 L894 793 ZM30 422 L970 422 L970 322 L30 322 L30 422 ZM272 297 L272 231 L898 231 L898 -89 L301 -89 L301 11 L736 11 L736 131 L109 131 L109 312 L272 297 Z" /><glyph glyph-name="uni5408" unicode="&#x5408;" d="M501 830 L954 647 L954 495 L501 678 L46 494 L46 647 L501 830 ZM108 213 L108 313 L892 313 L892 -82 L108 -82 L108 202 L268 182 L268 18 L732 18 L732 213 L108 213 ZM120 502 L880 502 L880 402 L120 402 L120 502 Z" /><glyph glyph-name="uni540C" unicode="&#x540c;" d="M711 609 L711 509 L289 509 L289 609 L711 609 ZM289 317 L442 297 L442 178 L561 178 L561 327 L289 327 L289 427 L711 427 L711 78 L289 78 L289 317 ZM58 -93 L58 683 L218 663 L218 -93 L58 -93 ZM58 793 L942 793 L942 -90 L602 -90 L602 10 L782 10 L782 693 L58 693 L58 793 Z" /><glyph glyph-name="uni540D" unicode="&#x540d;" d="M112 287 L922 287 L922 -85 L112 -85 L112 175 L277 155 L277 15 L757 15 L757 187 L112 187 L112 287 ZM284 615 L644 615 L644 515 L284 515 L284 615 ZM912 794 L809 336 L43 336 L43 436 L670 436 L726 694 L268 694 L216 515 L58 515 L144 794 L912 794 Z" /><glyph glyph-name="uni5411" unicode="&#x5411;" d="M590 752 L938 752 L938 -95 L612 -95 L612 5 L781 5 L781 652 L219 652 L219 -95 L62 -95 L62 752 L410 752 L410 821 L590 821 L590 752 ZM297 452 L448 434 L448 185 L552 185 L552 462 L297 462 L297 562 L703 562 L703 85 L297 85 L297 452 Z" /><glyph glyph-name="uni548C" unicode="&#x548c;" d="M571 789 L932 789 L932 -80 L571 -80 L571 679 L716 659 L716 20 L787 20 L787 689 L571 689 L571 789 ZM509 795 L509 695 L56 695 L56 795 L509 795 ZM365 670 L365 510 L520 510 L520 410 L365 410 L365 -87 L205 -87 L205 410 L45 410 L45 510 L205 510 L205 685 L365 670 ZM68 -82 L68 366 L158 366 L158 -82 L68 -82 ZM412 -82 L412 366 L502 366 L502 -82 L412 -82 Z" /><glyph glyph-name="uni54C1" unicode="&#x54c1;" d="M900 796 L900 420 L99 420 L99 684 L254 664 L254 520 L745 520 L745 696 L99 696 L99 796 L900 796 ZM59 251 L59 351 L476 351 L476 -87 L59 -87 L59 241 L204 221 L204 13 L331 13 L331 251 L59 251 ZM524 351 L941 351 L941 -87 L524 -87 L524 241 L669 221 L669 13 L796 13 L796 251 L524 251 L524 351 Z" /><glyph glyph-name="uni56FD" unicode="&#x56fd;" d="M738 638 L738 538 L261 538 L261 638 L738 638 ZM261 314 L261 414 L420 414 L420 527 L580 512 L580 414 L738 414 L738 314 L580 314 L580 180 L420 195 L420 314 L261 314 ZM261 70 L261 170 L738 170 L738 70 L261 70 ZM725 198 L627 198 L627 286 L725 286 L725 198 ZM60 794 L939 794 L939 -85 L60 -85 L60 684 L210 664 L210 15 L789 15 L789 694 L60 694 L60 794 Z" /><glyph glyph-name="uni56FE" unicode="&#x56fe;" d="M237 260 L237 372 L332 411 L257 434 L257 540 L485 473 L591 516 L591 546 L257 546 L257 670 L409 670 L409 641 L748 641 L748 478 L633 429 L761 391 L761 280 L483 365 L373 318 L679 281 L679 185 L321 229 L321 296 L237 260 ZM60 794 L939 794 L939 -85 L60 -85 L60 684 L210 664 L210 15 L789 15 L789 694 L60 694 L60 794 ZM264 100 L264 198 L735 142 L735 44 L264 100 Z" /><glyph glyph-name="uni5728" unicode="&#x5728;" d="M342 20 L959 20 L959 -80 L342 -80 L342 20 ZM731 30 L571 43 L571 302 L354 302 L354 402 L571 402 L571 547 L731 547 L731 402 L947 402 L947 302 L731 302 L731 30 ZM198 317 L27 317 L160 625 L46 625 L46 725 L204 725 L240 809 L410 809 L374 725 L954 725 L954 625 L331 625 L198 317 ZM134 -90 L134 302 L294 302 L294 -90 L134 -90 Z" /><glyph glyph-name="uni5747" unicode="&#x5747;" d="M558 748 L939 748 L939 -90 L537 -90 L537 10 L779 10 L779 648 L398 648 L398 811 L558 811 L558 748 ZM744 480 L744 327 L398 456 L398 609 L744 480 ZM744 309 L744 156 L398 28 L398 181 L744 309 ZM41 -85 L41 15 L371 15 L371 -85 L41 -85 ZM289 803 L289 599 L371 599 L371 499 L289 499 L289 33 L129 48 L129 499 L41 499 L41 599 L129 599 L129 803 L289 803 Z" /><glyph glyph-name="uni575A" unicode="&#x575a;" d="M47 -84 L47 16 L953 16 L953 -84 L47 -84 ZM415 39 L415 101 L64 101 L64 201 L415 201 L415 254 L585 254 L585 201 L935 201 L935 101 L585 101 L585 26 L415 39 ZM238 773 L238 310 L83 310 L83 773 L238 773 ZM464 798 L464 283 L309 283 L309 798 L464 798 ZM868 462 L953 418 L953 277 L736 390 L515 269 L515 411 L604 459 L528 498 L528 683 L678 671 L678 558 L735 529 L785 556 L785 693 L528 693 L528 793 L935 793 L935 498 L868 462 Z" /><glyph glyph-name="uni578B" unicode="&#x578b;" d="M580 17 L947 17 L947 -83 L51 -83 L51 17 L419 17 L419 89 L68 89 L68 190 L419 190 L419 233 L580 233 L580 190 L930 190 L930 89 L580 89 L580 17 ZM548 789 L548 689 L56 689 L56 789 L548 789 ZM88 257 L93 441 L53 441 L53 541 L96 541 L100 679 L255 664 L252 541 L343 541 L343 679 L500 664 L500 541 L556 541 L556 441 L500 441 L500 257 L343 257 L343 441 L250 441 L246 257 L88 257 ZM668 257 L668 357 L783 357 L783 808 L938 808 L938 257 L668 257 ZM727 712 L727 413 L594 413 L594 712 L727 712 Z" /><glyph glyph-name="uni57FA" unicode="&#x57fa;" d="M660 608 L660 513 L340 513 L340 608 L660 608 ZM340 371 L340 466 L660 466 L660 371 L340 371 ZM580 61 L580 14 L953 14 L953 -84 L47 -84 L47 14 L420 14 L420 61 L249 61 L249 156 L420 156 L420 204 L580 204 L580 156 L751 156 L751 61 L580 61 ZM148 351 L148 655 L55 655 L55 752 L148 752 L148 809 L320 809 L320 752 L680 752 L680 809 L852 809 L852 752 L945 752 L945 655 L852 655 L852 334 L680 351 L680 655 L320 655 L320 334 L148 351 ZM194 61 L24 61 L108 227 L47 227 L47 324 L953 324 L953 227 L891 227 L974 61 L805 61 L721 227 L278 227 L194 61 Z" /><glyph glyph-name="uni589E" unicode="&#x589e;" d="M774 456 L721 456 L721 605 L774 605 L774 456 ZM510 605 L562 605 L562 456 L510 456 L510 605 ZM537 149 L747 149 L747 53 L537 53 L537 149 ZM346 194 L346 292 L938 292 L938 -90 L346 -90 L346 182 L509 163 L509 8 L775 8 L775 194 L346 194 ZM869 733 L949 733 L949 328 L335 328 L335 623 L478 604 L478 427 L589 427 L589 635 L335 635 L335 733 L419 733 L392 804 L563 804 L590 733 L696 733 L720 804 L894 804 L869 733 ZM801 427 L801 635 L695 635 L695 427 L801 427 ZM41 -85 L41 15 L308 15 L308 -85 L41 -85 ZM254 803 L254 599 L308 599 L308 499 L254 499 L254 28 L94 43 L94 499 L41 499 L41 599 L94 599 L94 803 L254 803 Z" /><glyph glyph-name="uni590F" unicode="&#x590f;" d="M63 794 L937 794 L937 711 L590 711 L590 682 L891 682 L891 299 L109 299 L109 601 L270 582 L270 373 L730 373 L730 608 L109 608 L109 682 L410 682 L410 711 L63 711 L63 794 ZM708 577 L708 506 L292 506 L292 577 L708 577 ZM292 404 L292 475 L708 475 L708 404 L292 404 ZM892 101 L709 58 L932 14 L932 -93 L466 0 L67 -95 L67 12 L226 48 L109 72 L109 174 L470 104 L730 164 L730 179 L109 179 L109 283 L269 283 L269 259 L892 259 L892 101 Z" /><glyph glyph-name="uni591A" unicode="&#x591a;" d="M59 73 L145 328 L949 328 L854 -88 L58 -88 L58 12 L712 12 L725 70 L289 70 L289 170 L746 170 L759 228 L274 228 L225 73 L59 73 ZM279 697 L232 542 L67 542 L150 797 L954 797 L859 381 L68 381 L68 481 L717 481 L764 697 L279 697 ZM294 639 L691 639 L691 539 L294 539 L294 639 Z" /><glyph glyph-name="uni5927" unicode="&#x5927;" d="M613 502 L969 -90 L802 -90 L500 419 L201 -90 L31 -90 L387 502 L45 502 L45 602 L415 602 L415 825 L585 825 L585 602 L955 602 L955 502 L613 502 Z" /><glyph glyph-name="uni5956" unicode="&#x5956;" d="M590 319 L590 265 L954 265 L954 165 L664 165 L950 34 L950 -108 L500 100 L50 -108 L50 34 L336 165 L47 165 L47 265 L410 265 L410 319 L590 319 ZM435 808 L435 339 L275 339 L275 808 L435 808 ZM251 590 L104 590 L56 792 L208 792 L251 590 ZM251 559 L208 347 L56 347 L104 559 L251 559 ZM637 694 L607 517 L458 517 L509 794 L957 794 L887 340 L475 340 L475 440 L738 440 L751 517 L650 517 L650 617 L768 617 L780 694 L637 694 Z" /><glyph glyph-name="uni597D" unicode="&#x597d;" d="M965 435 L965 335 L831 335 L831 -89 L526 -89 L526 13 L668 13 L668 335 L462 335 L462 435 L668 435 L668 510 L735 695 L473 695 L473 797 L940 797 L831 492 L831 435 L965 435 ZM415 224 L325 105 L476 -92 L314 -92 L244 -4 L178 -92 L9 -92 L160 104 L67 221 L67 615 L34 615 L34 713 L67 713 L67 807 L210 807 L210 713 L415 713 L415 224 ZM210 255 L243 212 L272 250 L272 615 L210 615 L210 255 Z" /><glyph glyph-name="uni5982" unicode="&#x5982;" d="M494 256 L376 123 L547 -89 L361 -89 L277 11 L188 -89 L9 -89 L189 118 L75 256 L75 624 L45 624 L45 724 L75 724 L75 806 L235 806 L235 724 L494 724 L494 256 ZM235 297 L288 231 L334 284 L334 624 L235 624 L235 297 ZM555 789 L941 789 L941 -80 L555 -80 L555 679 L710 659 L710 20 L786 20 L786 689 L555 689 L555 789 Z" /><glyph glyph-name="uni59CB" unicode="&#x59cb;" d="M431 272 L431 373 L941 373 L941 -85 L431 -85 L431 260 L592 240 L592 16 L780 16 L780 272 L431 272 ZM876 764 L962 453 L412 453 L501 806 L654 806 L590 554 L788 554 L731 764 L876 764 ZM393 229 L307 102 L431 -89 L275 -89 L228 -16 L178 -90 L17 -90 L151 104 L68 233 L68 615 L32 615 L32 713 L68 713 L68 807 L208 807 L208 713 L393 713 L393 229 ZM208 255 L232 218 L254 250 L254 615 L208 615 L208 255 Z" /><glyph glyph-name="uni59D4" unicode="&#x59d4;" d="M894 177 L894 79 L734 46 L940 3 L940 -113 L499 -5 L57 -113 L57 3 L265 46 L103 81 L103 177 L50 177 L50 277 L103 277 L103 306 L268 306 L268 277 L949 277 L949 177 L894 177 ZM730 177 L268 177 L268 149 L499 97 L730 149 L730 177 ZM934 794 L934 694 L66 694 L66 794 L934 794 ZM415 327 L415 525 L53 525 L53 625 L415 625 L415 681 L585 666 L585 625 L946 625 L946 525 L585 525 L585 327 L415 327 ZM671 506 L834 506 L948 335 L786 335 L671 506 ZM330 506 L215 335 L53 335 L167 506 L330 506 Z" /><glyph glyph-name="uni5B57" unicode="&#x5b57;" d="M957 276 L957 175 L645 175 L645 -93 L268 -93 L268 9 L482 9 L482 175 L43 175 L43 276 L482 276 L482 306 L541 438 L243 438 L243 539 L753 539 L645 288 L645 276 L957 276 ZM212 643 L212 497 L49 497 L49 739 L409 739 L409 817 L591 817 L591 739 L951 739 L951 497 L788 497 L788 643 L212 643 Z" /><glyph glyph-name="uni5B63" unicode="&#x5b63;" d="M756 360 L666 195 L947 195 L947 95 L634 95 L634 -92 L241 -92 L241 7 L471 7 L471 95 L53 95 L53 195 L494 195 L534 261 L251 261 L251 360 L756 360 ZM938 791 L938 691 L62 691 L62 791 L938 791 ZM222 334 L39 334 L150 498 L46 498 L46 598 L415 598 L415 681 L585 669 L585 598 L954 598 L954 498 L850 498 L962 334 L778 334 L667 498 L585 498 L585 381 L415 381 L415 498 L333 498 L222 334 Z" /><glyph glyph-name="uni5B66" unicode="&#x5b66;" d="M212 566 L212 422 L52 422 L52 666 L153 666 L118 798 L286 798 L321 666 L424 666 L389 798 L556 798 L591 666 L670 666 L716 798 L884 798 L837 666 L948 666 L948 422 L788 422 L788 566 L212 566 ZM951 250 L951 150 L633 150 L633 -90 L284 -90 L284 11 L470 11 L470 150 L49 150 L49 250 L483 250 L557 368 L246 368 L246 469 L748 469 L748 413 L648 250 L951 250 Z" /><glyph glyph-name="uni5B89" unicode="&#x5b89;" d="M224 663 L224 551 L54 551 L54 763 L410 763 L410 821 L590 821 L590 763 L946 763 L946 551 L776 551 L776 663 L224 663 ZM281 355 L281 234 L500 174 L720 239 L720 340 L890 325 L890 154 L742 107 L945 51 L945 -108 L492 28 L55 -108 L55 41 L247 98 L111 136 L111 355 L41 355 L41 455 L111 455 L111 519 L281 519 L281 455 L959 455 L959 355 L281 355 Z" /><glyph glyph-name="uni5B9E" unicode="&#x5b9e;" d="M953 258 L953 158 L781 158 L948 -93 L756 -93 L589 158 L425 158 L258 -93 L65 -93 L232 158 L47 158 L47 258 L530 258 L599 584 L764 584 L695 258 L953 258 ZM212 660 L212 548 L49 548 L49 755 L409 755 L409 817 L591 817 L591 755 L951 755 L951 548 L788 548 L788 660 L212 660 ZM523 385 L364 385 L253 595 L412 595 L523 385 ZM87 492 L246 492 L345 300 L186 300 L87 492 Z" /><glyph glyph-name="uni5BA1" unicode="&#x5ba1;" d="M580 595 L580 512 L895 512 L895 12 L580 12 L580 -121 L420 -121 L420 12 L105 12 L105 403 L264 383 L264 111 L420 111 L420 213 L284 213 L284 312 L420 312 L420 414 L105 414 L105 512 L420 512 L420 595 L580 595 ZM736 414 L580 414 L580 312 L716 312 L716 213 L580 213 L580 111 L736 111 L736 414 ZM591 757 L951 757 L951 564 L788 564 L788 661 L212 661 L212 564 L49 564 L49 757 L409 757 L409 817 L591 817 L591 757 Z" /><glyph glyph-name="uni5BB6" unicode="&#x5bb6;" d="M55 -92 L55 33 L409 164 L409 39 L55 -92 ZM409 340 L409 215 L57 84 L57 209 L409 340 ZM639 490 L561 451 L609 421 L609 -91 L363 -91 L363 9 L449 9 L449 354 L404 381 L57 259 L57 384 L360 490 L246 490 L246 590 L754 590 L754 490 L639 490 ZM640 211 L640 361 L943 458 L943 308 L640 211 ZM640 39 L640 199 L943 77 L943 -83 L640 39 ZM591 762 L951 762 L951 522 L788 522 L788 666 L212 666 L212 522 L49 522 L49 762 L409 762 L409 817 L591 817 L591 762 Z" /><glyph glyph-name="uni5BF9" unicode="&#x5bf9;" d="M481 370 L356 172 L521 -90 L350 -90 L270 35 L192 -90 L20 -90 L183 172 L58 370 L58 680 L218 660 L218 393 L270 310 L321 393 L321 690 L58 690 L58 790 L481 790 L481 370 ZM963 699 L963 599 L919 599 L919 -89 L601 -89 L601 11 L754 11 L754 599 L507 599 L507 699 L754 699 L754 816 L919 816 L919 699 L963 699 ZM670 511 L712 108 L568 108 L526 511 L670 511 Z" /><glyph glyph-name="uni5BFC" unicode="&#x5bfc;" d="M275 412 L954 412 L954 312 L105 312 L105 683 L275 668 L275 601 L755 601 L755 693 L105 693 L105 793 L920 793 L920 501 L275 501 L275 412 ZM882 287 L882 259 L954 259 L954 159 L882 159 L882 -91 L502 -91 L502 9 L712 9 L712 159 L45 159 L45 259 L712 259 L712 287 L882 287 ZM145 133 L300 133 L366 -90 L211 -90 L145 133 Z" /><glyph glyph-name="uni5C06" unicode="&#x5c06;" d="M949 274 L949 174 L907 174 L907 -90 L641 -90 L641 10 L747 10 L747 174 L435 174 L435 274 L747 274 L747 309 L907 309 L907 274 L949 274 ZM453 145 L591 145 L618 -72 L480 -72 L453 145 ZM238 -95 L238 808 L398 808 L398 -95 L238 -95 ZM50 791 L185 791 L214 382 L79 382 L50 791 ZM50 -81 L79 333 L214 333 L185 -81 L50 -81 ZM623 694 L586 517 L432 517 L490 794 L943 794 L873 340 L451 340 L451 440 L722 440 L733 517 L624 517 L624 617 L748 617 L759 694 L623 694 Z" /><glyph glyph-name="uni5C31" unicode="&#x5c31;" d="M720 665 L958 665 L958 565 L714 565 L671 -88 L529 -88 L571 565 L526 565 L526 665 L578 665 L587 810 L730 810 L720 665 ZM354 810 L354 762 L511 762 L511 662 L53 662 L53 762 L194 762 L194 810 L354 810 ZM925 793 L925 697 L778 697 L778 793 L925 793 ZM371 194 L470 194 L508 -83 L409 -83 L371 194 ZM91 194 L190 194 L152 -83 L53 -83 L91 194 ZM210 12 L210 227 L358 214 L358 -88 L181 -88 L181 12 L210 12 ZM890 513 L890 12 L952 12 L952 -88 L742 -88 L742 513 L890 513 ZM69 503 L226 483 L226 338 L325 338 L325 515 L69 515 L69 615 L479 615 L479 238 L69 238 L69 503 Z" /><glyph glyph-name="uni5C4A" unicode="&#x5c4a;" d="M686 381 L939 381 L939 -85 L274 -85 L274 270 L434 250 L434 15 L779 15 L779 281 L686 281 L686 211 L755 211 L755 111 L686 111 L686 25 L526 35 L526 111 L458 111 L458 211 L526 211 L526 281 L274 281 L274 381 L526 381 L526 439 L686 439 L686 381 ZM937 794 L937 476 L225 476 L225 -87 L60 -87 L60 684 L230 669 L230 576 L767 576 L767 694 L60 694 L60 794 L937 794 Z" /><glyph glyph-name="uni5C55" unicode="&#x5c55;" d="M832 298 L946 298 L946 200 L254 200 L254 298 L366 298 L366 360 L269 360 L269 457 L366 457 L366 508 L526 508 L526 457 L672 457 L672 508 L832 508 L832 457 L936 457 L936 360 L832 360 L832 298 ZM526 360 L526 298 L672 298 L672 360 L526 360 ZM793 181 L816 133 L936 159 L936 44 L867 29 L923 -88 L758 -88 L627 181 L793 181 ZM483 181 L483 12 L588 12 L588 -88 L328 -88 L328 181 L483 181 ZM942 794 L942 531 L230 531 L230 -95 L60 -95 L60 684 L230 669 L230 631 L772 631 L772 694 L60 694 L60 794 L942 794 Z" /><glyph glyph-name="uni5DF2" unicode="&#x5df2;" d="M247 22 L956 22 L956 -83 L72 -83 L72 676 L247 661 L247 396 L754 396 L754 686 L72 686 L72 791 L929 791 L929 291 L247 291 L247 22 Z" /><glyph glyph-name="uni5E03" unicode="&#x5e03;" d="M332 597 L264 418 L453 418 L453 543 L623 543 L623 418 L936 418 L936 -53 L708 -53 L708 46 L767 46 L767 318 L623 318 L623 -109 L453 -109 L453 318 L309 318 L309 -56 L140 -56 L140 281 L32 281 L152 597 L33 597 L33 697 L190 697 L237 818 L417 818 L370 697 L967 697 L967 597 L332 597 Z" /><glyph glyph-name="uni5E73" unicode="&#x5e73;" d="M959 254 L959 154 L585 154 L585 -106 L415 -106 L415 154 L41 154 L41 254 L415 254 L415 682 L585 667 L585 254 L959 254 ZM952 794 L952 694 L48 694 L48 794 L952 794 ZM157 302 L69 654 L227 654 L315 302 L157 302 ZM844 302 L686 302 L774 654 L932 654 L844 302 Z" /><glyph glyph-name="uni5E74" unicode="&#x5e74;" d="M955 196 L955 96 L637 96 L637 -100 L467 -100 L467 96 L45 96 L45 196 L467 196 L467 403 L285 403 L285 206 L125 221 L125 503 L467 503 L467 610 L637 592 L637 503 L934 503 L934 403 L637 403 L637 196 L955 196 ZM946 720 L946 620 L81 620 L81 809 L241 809 L241 720 L946 720 Z" /><glyph glyph-name="uni5E7F" unicode="&#x5e7f;" d="M638 733 L953 733 L953 633 L224 633 L224 -106 L61 -106 L61 733 L458 733 L458 811 L638 811 L638 733 Z" /><glyph glyph-name="uni5E8F" unicode="&#x5e8f;" d="M534 13 L534 228 L704 213 L704 -87 L357 -87 L357 13 L534 13 ZM623 759 L959 759 L959 659 L220 659 L220 -92 L60 -92 L60 759 L443 759 L443 815 L623 815 L623 759 ZM915 515 L819 340 L947 340 L947 110 L792 110 L792 240 L268 240 L268 340 L401 340 L362 450 L519 450 L559 340 L645 340 L728 496 L281 496 L281 596 L915 596 L915 515 Z" /><glyph glyph-name="uni5E94" unicode="&#x5e94;" d="M633 739 L954 739 L954 639 L220 639 L220 -92 L60 -92 L60 739 L453 739 L453 813 L633 813 L633 739 ZM246 579 L406 579 L472 62 L312 62 L246 579 ZM690 62 L530 62 L464 579 L624 579 L690 62 ZM784 579 L944 579 L878 62 L718 62 L784 579 ZM253 -83 L253 17 L954 17 L954 -83 L253 -83 Z" /><glyph glyph-name="uni5EA6" unicode="&#x5ea6;" d="M318 658 L463 658 L463 622 L755 622 L755 658 L900 658 L900 622 L954 622 L954 522 L900 522 L900 377 L318 377 L318 522 L264 522 L264 622 L318 622 L318 658 ZM755 522 L463 522 L463 477 L755 477 L755 522 ZM933 134 L785 82 L955 25 L955 -97 L612 22 L268 -97 L268 25 L438 82 L290 134 L290 232 L447 219 L447 197 L612 141 L776 197 L776 243 L290 243 L290 343 L933 343 L933 134 ZM623 776 L959 776 L959 676 L220 676 L220 -87 L60 -87 L60 776 L443 776 L443 823 L623 823 L623 776 Z" /><glyph glyph-name="uni5EA7" unicode="&#x5ea7;" d="M954 766 L954 666 L220 666 L220 -92 L60 -92 L60 766 L443 766 L443 815 L623 815 L623 766 L954 766 ZM251 -84 L251 16 L955 16 L955 -84 L251 -84 ZM683 26 L523 36 L523 125 L272 125 L272 225 L523 225 L523 629 L683 629 L683 225 L934 225 L934 125 L683 125 L683 26 ZM382 409 L354 280 L244 280 L316 617 L427 617 L397 480 L473 480 L511 280 L407 280 L382 409 ZM929 480 L967 280 L863 280 L838 409 L809 280 L700 280 L772 617 L883 617 L853 480 L929 480 Z" /><glyph glyph-name="uni5F00" unicode="&#x5f00;" d="M958 394 L958 294 L835 294 L835 -95 L665 -95 L665 294 L361 294 L332 -95 L157 -95 L186 294 L44 294 L44 394 L190 394 L190 679 L360 664 L360 394 L665 394 L665 679 L835 664 L835 394 L958 394 ZM941 793 L941 693 L61 693 L61 793 L941 793 Z" /><glyph glyph-name="uni5F0F" unicode="&#x5f0f;" d="M961 665 L961 565 L790 565 L917 -99 L755 -99 L627 565 L39 565 L39 665 L608 665 L579 816 L741 816 L770 665 L961 665 ZM591 478 L591 378 L70 378 L70 478 L591 478 ZM54 -84 L54 16 L606 16 L606 -84 L54 -84 ZM415 26 L245 41 L245 368 L415 353 L415 26 ZM934 796 L934 693 L796 693 L796 796 L934 796 Z" /><glyph glyph-name="uni5F53" unicode="&#x5f53;" d="M585 518 L934 518 L934 -85 L58 -85 L58 15 L766 15 L766 418 L58 418 L58 518 L415 518 L415 813 L585 813 L585 518 ZM933 796 L872 573 L707 573 L768 796 L933 796 ZM294 573 L129 573 L68 796 L233 796 L294 573 ZM68 281 L744 281 L744 181 L68 181 L68 281 Z" /><glyph glyph-name="uni5F81" unicode="&#x5f81;" d="M962 795 L962 695 L324 695 L324 795 L962 795 ZM769 13 L962 13 L962 -87 L324 -87 L324 13 L609 13 L609 685 L769 670 L769 404 L945 404 L945 304 L769 304 L769 13 ZM517 30 L357 45 L357 585 L517 585 L517 30 ZM20 319 L122 557 L282 557 L185 319 L20 319 ZM20 567 L122 804 L282 804 L185 567 L20 567 ZM105 -99 L105 309 L265 309 L265 -99 L105 -99 Z" /><glyph glyph-name="uni6027" unicode="&#x6027;" d="M624 342 L624 562 L420 562 L420 787 L556 787 L556 663 L624 663 L624 807 L784 807 L784 663 L950 663 L950 562 L784 562 L784 342 L941 342 L941 241 L784 241 L784 26 L624 38 L624 241 L428 241 L428 342 L624 342 ZM401 16 L955 16 L955 -85 L401 -85 L401 16 ZM323 809 L323 566 L388 566 L388 414 L323 414 L323 -93 L163 -93 L163 809 L323 809 ZM55 162 L55 658 L126 658 L126 162 L55 162 Z" /><glyph glyph-name="uni6210" unicode="&#x6210;" d="M959 578 L776 578 L843 236 L958 287 L958 126 L873 88 L910 -101 L742 -101 L719 20 L553 -54 L553 106 L689 167 L608 578 L220 578 L220 433 L475 433 L475 -81 L267 -81 L267 19 L325 19 L325 333 L220 333 L220 -98 L60 -98 L60 678 L589 678 L561 821 L728 821 L756 678 L959 678 L959 578 ZM941 804 L941 708 L781 708 L781 804 L941 804 Z" /><glyph glyph-name="uni6211" unicode="&#x6211;" d="M959 448 L779 448 L816 215 L949 238 L949 104 L836 84 L865 -96 L711 -96 L687 58 L506 27 L506 161 L666 189 L625 448 L359 448 L359 307 L499 332 L499 198 L359 173 L359 -89 L70 -89 L70 11 L199 11 L199 145 L56 120 L56 254 L199 279 L199 448 L42 448 L42 548 L199 548 L199 687 L359 668 L359 548 L609 548 L568 809 L722 809 L763 548 L959 548 L959 448 ZM478 795 L478 695 L68 695 L68 795 L478 795 ZM936 773 L936 617 L791 617 L791 773 L936 773 Z" /><glyph glyph-name="uni6216" unicode="&#x6216;" d="M954 590 L771 590 L836 272 L951 325 L951 168 L865 129 L911 -98 L751 -98 L719 62 L567 -7 L567 149 L690 205 L611 590 L45 590 L45 690 L591 690 L566 816 L726 816 L751 690 L954 690 L954 590 ZM55 -74 L55 26 L532 26 L532 -74 L55 -74 ZM930 796 L930 718 L775 718 L775 796 L930 796 ZM68 393 L232 372 L232 214 L364 214 L364 403 L68 403 L68 505 L529 505 L529 111 L68 111 L68 393 Z" /><glyph glyph-name="uni624B" unicode="&#x624b;" d="M47 793 L952 793 L952 693 L47 693 L47 793 ZM620 434 L620 269 L952 269 L952 169 L620 169 L620 -90 L181 -90 L181 12 L447 12 L447 169 L47 169 L47 269 L447 269 L447 434 L65 434 L65 534 L447 534 L447 682 L620 669 L620 534 L934 534 L934 434 L620 434 Z" /><glyph glyph-name="uni626B" unicode="&#x626b;" d="M418 788 L938 788 L938 -80 L418 -80 L418 21 L774 21 L774 687 L418 687 L418 788 ZM433 404 L749 404 L749 303 L433 303 L433 404 ZM299 804 L299 645 L382 645 L382 545 L299 545 L299 328 L382 328 L382 228 L299 228 L299 -88 L49 -88 L49 12 L129 12 L129 228 L47 228 L47 328 L129 328 L129 545 L47 545 L47 645 L129 645 L129 804 L299 804 Z" /><glyph glyph-name="uni6280" unicode="&#x6280;" d="M262 804 L262 645 L312 645 L312 545 L262 545 L262 328 L312 328 L312 228 L262 228 L262 -88 L49 -88 L49 12 L102 12 L102 228 L47 228 L47 328 L102 328 L102 545 L47 545 L47 645 L102 645 L102 804 L262 804 ZM981 -90 L775 -90 L656 4 L541 -90 L333 -90 L551 86 L368 230 L368 425 L514 405 L514 283 L654 171 L793 283 L793 435 L368 435 L368 535 L581 535 L581 617 L350 617 L350 717 L581 717 L581 808 L741 808 L741 717 L952 717 L952 617 L741 617 L741 535 L939 535 L939 235 L758 88 L981 -90 Z" /><glyph glyph-name="uni62FF" unicode="&#x62ff;" d="M501 823 L949 698 L949 578 L819 614 L819 578 L181 578 L181 613 L51 577 L51 697 L501 823 ZM330 655 L672 655 L501 703 L330 655 ZM84 241 L84 324 L916 324 L916 241 L84 241 ZM613 130 L613 101 L936 101 L936 18 L613 18 L613 -96 L221 -96 L221 -14 L443 -14 L443 18 L64 18 L64 101 L443 101 L443 130 L97 130 L97 212 L443 212 L443 230 L613 212 L903 212 L903 130 L613 130 ZM279 434 L720 434 L720 465 L124 465 L124 545 L875 545 L875 354 L124 354 L124 456 L279 434 Z" /><glyph glyph-name="uni6301" unicode="&#x6301;" d="M354 525 L952 525 L952 425 L354 425 L354 525 ZM573 550 L573 632 L365 632 L365 732 L573 732 L573 809 L733 809 L733 732 L941 732 L941 632 L733 632 L733 535 L573 550 ZM400 185 L560 185 L593 -75 L433 -75 L400 185 ZM894 387 L894 318 L941 318 L941 218 L894 218 L894 -85 L644 -85 L644 15 L733 15 L733 218 L365 218 L365 318 L733 318 L733 387 L894 387 ZM262 804 L262 645 L313 645 L313 545 L262 545 L262 328 L313 328 L313 228 L262 228 L262 -88 L50 -88 L50 12 L102 12 L102 228 L47 228 L47 328 L102 328 L102 545 L47 545 L47 645 L102 645 L102 804 L262 804 Z" /><glyph glyph-name="uni6307" unicode="&#x6307;" d="M549 805 L549 518 L945 518 L945 418 L393 418 L393 805 L549 805 ZM575 719 L945 719 L945 619 L575 619 L575 719 ZM576 188 L753 188 L753 90 L576 90 L576 188 ZM393 266 L393 364 L935 364 L935 -85 L393 -85 L393 254 L548 235 L548 13 L780 13 L780 266 L393 266 ZM277 804 L277 645 L337 645 L337 545 L277 545 L277 328 L337 328 L337 228 L277 228 L277 -88 L49 -88 L49 12 L117 12 L117 228 L47 228 L47 328 L117 328 L117 545 L47 545 L47 645 L117 645 L117 804 L277 804 Z" /><glyph glyph-name="uni636E" unicode="&#x636e;" d="M262 804 L262 645 L312 645 L312 545 L262 545 L262 328 L312 328 L312 228 L262 228 L262 -88 L49 -88 L49 12 L102 12 L102 228 L47 228 L47 328 L102 328 L102 545 L47 545 L47 645 L102 645 L102 804 L262 804 ZM816 419 L947 419 L947 319 L816 319 L816 238 L656 253 L656 319 L520 319 L520 419 L656 419 L656 471 L816 471 L816 419 ZM938 794 L938 501 L488 501 L488 -91 L337 -91 L337 684 L488 664 L488 601 L787 601 L787 694 L337 694 L337 794 L938 794 ZM533 128 L533 228 L938 228 L938 -86 L533 -86 L533 118 L683 98 L683 14 L788 14 L788 128 L533 128 Z" /><glyph glyph-name="uni6389" unicode="&#x6389;" d="M952 119 L952 19 L744 19 L744 -99 L584 -99 L584 19 L344 19 L344 119 L584 119 L584 185 L744 170 L744 119 L952 119 ZM552 452 L747 452 L747 354 L552 354 L552 452 ZM929 614 L929 192 L370 192 L370 505 L525 485 L525 290 L774 290 L774 516 L370 516 L370 614 L553 614 L553 808 L713 808 L713 766 L945 766 L945 666 L713 666 L713 614 L929 614 ZM267 804 L267 645 L322 645 L322 545 L267 545 L267 328 L322 328 L322 228 L267 228 L267 -88 L49 -88 L49 12 L107 12 L107 228 L47 228 L47 328 L107 328 L107 545 L47 545 L47 645 L107 645 L107 804 L267 804 Z" /><glyph glyph-name="uni63A8" unicode="&#x63a8;" d="M282 799 L282 645 L337 645 L337 545 L282 545 L282 328 L337 328 L337 228 L282 228 L282 -88 L49 -88 L49 12 L117 12 L117 228 L47 228 L47 328 L117 328 L117 545 L47 545 L47 645 L117 645 L117 799 L282 799 ZM562 14 L955 14 L955 -86 L402 -86 L402 485 L351 485 L407 804 L568 804 L554 721 L673 721 L673 799 L833 799 L833 721 L945 721 L945 621 L833 621 L833 485 L945 485 L945 385 L833 385 L833 250 L945 250 L945 150 L833 150 L833 24 L673 44 L673 150 L562 150 L562 14 ZM673 250 L673 385 L562 385 L562 250 L673 250 ZM673 485 L673 621 L562 621 L562 485 L673 485 Z" /><glyph glyph-name="uni63D0" unicode="&#x63d0;" d="M348 374 L954 374 L954 276 L348 276 L348 374 ZM764 95 L764 14 L951 14 L951 -84 L601 -84 L488 -9 L474 -86 L322 -86 L378 235 L530 235 L511 122 L604 61 L604 261 L764 246 L764 193 L927 193 L927 95 L764 95 ZM550 656 L758 656 L758 560 L550 560 L550 656 ZM937 794 L937 421 L370 421 L370 687 L523 667 L523 518 L785 518 L785 698 L370 698 L370 794 L937 794 ZM262 804 L262 645 L312 645 L312 545 L262 545 L262 328 L312 328 L312 228 L262 228 L262 -88 L49 -88 L49 12 L102 12 L102 228 L47 228 L47 328 L102 328 L102 545 L47 545 L47 645 L102 645 L102 804 L262 804 Z" /><glyph glyph-name="uni6536" unicode="&#x6536;" d="M987 -93 L792 -93 L702 13 L615 -93 L432 -93 L608 124 L466 293 L466 633 L619 613 L619 333 L700 239 L780 338 L780 644 L466 644 L466 811 L620 811 L620 748 L957 748 L957 644 L930 644 L930 293 L796 128 L987 -93 ZM256 150 L256 811 L416 811 L416 -93 L256 -93 L256 46 L59 46 L59 756 L203 756 L203 150 L256 150 Z" /><glyph glyph-name="uni6539" unicode="&#x6539;" d="M975 -91 L802 -91 L728 10 L652 -91 L484 -91 L641 127 L524 285 L524 636 L679 616 L679 319 L729 250 L779 319 L779 646 L524 646 L524 817 L684 817 L684 746 L959 746 L959 646 L933 646 L933 285 L816 129 L975 -91 ZM232 336 L232 15 L465 15 L465 -85 L62 -85 L62 436 L293 436 L293 695 L55 695 L55 795 L458 795 L458 336 L232 336 Z" /><glyph glyph-name="uni6559" unicode="&#x6559;" d="M980 -88 L817 -88 L761 -3 L710 -88 L542 -88 L673 131 L569 288 L569 639 L719 619 L719 322 L754 267 L787 322 L787 649 L569 649 L569 812 L729 812 L729 749 L954 749 L954 649 L935 649 L935 288 L841 130 L980 -88 ZM550 766 L477 528 L526 528 L526 428 L252 428 L220 361 L512 361 L422 195 L526 195 L526 95 L399 95 L399 -85 L90 -85 L90 15 L233 15 L233 95 L53 95 L53 195 L269 195 L312 261 L19 261 L100 428 L51 428 L51 528 L147 528 L147 638 L65 638 L65 738 L147 738 L147 808 L307 808 L307 738 L363 738 L363 638 L307 638 L307 528 L337 528 L410 766 L550 766 Z" /><glyph glyph-name="uni6570" unicode="&#x6570;" d="M980 -91 L817 -91 L761 -5 L710 -91 L542 -91 L673 130 L569 288 L569 639 L719 619 L719 322 L754 266 L787 322 L787 649 L569 649 L569 804 L729 804 L729 749 L954 749 L954 649 L935 649 L935 288 L841 129 L980 -91 ZM520 100 L455 71 L528 37 L528 -105 L298 2 L54 -105 L54 28 L152 70 L80 104 L80 211 L45 211 L45 311 L80 311 L80 341 L230 341 L230 311 L520 311 L520 100 ZM230 176 L310 139 L373 166 L373 211 L230 211 L230 176 ZM219 362 L219 528 L45 528 L45 628 L219 628 L219 802 L369 802 L369 628 L542 628 L542 528 L369 528 L369 362 L219 362 ZM196 656 L73 656 L60 786 L184 786 L196 656 ZM184 365 L60 365 L73 500 L196 500 L184 365 ZM528 786 L515 656 L391 656 L404 786 L528 786 ZM391 500 L515 500 L528 365 L404 365 L391 500 Z" /><glyph glyph-name="uni6574" unicode="&#x6574;" d="M703 285 L546 285 L663 410 L569 511 L569 659 L706 647 L706 545 L747 501 L788 545 L788 669 L569 669 L569 807 L715 807 L715 762 L946 762 L946 669 L924 669 L924 515 L828 414 L948 285 L780 285 L742 325 L703 285 ZM66 171 L66 264 L928 264 L928 171 L579 171 L579 136 L917 136 L917 44 L579 44 L579 9 L928 9 L928 -83 L66 -83 L66 9 L132 9 L132 136 L292 136 L292 9 L409 9 L409 171 L66 171 ZM229 644 L229 674 L66 674 L66 767 L229 767 L229 809 L379 809 L379 767 L543 767 L543 674 L379 674 L379 644 L532 644 L532 424 L379 424 L379 283 L229 283 L229 424 L76 424 L76 548 L186 535 L186 511 L229 511 L229 557 L76 557 L76 644 L229 644 ZM422 557 L379 557 L379 511 L422 511 L422 557 ZM205 399 L175 285 L65 285 L95 399 L205 399 ZM397 399 L507 399 L537 285 L427 285 L397 399 Z" /><glyph glyph-name="uni6587" unicode="&#x6587;" d="M858 622 L858 336 L618 160 L954 -91 L720 -91 L498 73 L274 -91 L45 -91 L380 159 L141 336 L141 607 L301 592 L301 397 L500 248 L698 397 L698 622 L45 622 L45 722 L415 722 L415 821 L585 821 L585 722 L954 722 L954 622 L858 622 Z" /><glyph glyph-name="uni65B0" unicode="&#x65b0;" d="M521 491 L521 388 L53 388 L53 491 L99 491 L78 620 L232 620 L253 491 L326 491 L347 620 L501 620 L479 491 L521 491 ZM516 189 L373 189 L373 -91 L187 -91 L187 9 L209 9 L209 189 L66 189 L66 291 L209 291 L209 374 L373 359 L373 291 L516 291 L516 189 ZM57 -84 L76 152 L181 152 L162 -84 L57 -84 ZM397 152 L502 152 L522 -84 L416 -84 L397 152 ZM517 757 L517 655 L57 655 L57 757 L209 757 L209 808 L373 808 L373 757 L517 757 ZM707 475 L955 475 L955 375 L707 375 L707 -93 L549 -93 L549 795 L949 795 L949 694 L707 694 L707 475 ZM773 -93 L773 364 L931 344 L931 -93 L773 -93 Z" /><glyph glyph-name="uni65B9" unicode="&#x65b9;" d="M34 663 L966 663 L966 565 L34 565 L34 663 ZM588 818 L588 673 L412 686 L412 818 L588 818 ZM344 537 L329 436 L914 436 L914 -88 L501 -88 L501 9 L742 9 L742 339 L315 339 L253 -92 L78 -92 L174 552 L344 537 Z" /><glyph glyph-name="uni65E5" unicode="&#x65e5;" d="M266 404 L734 404 L734 304 L266 304 L266 404 ZM84 794 L915 794 L915 -86 L84 -86 L84 684 L239 664 L239 14 L760 14 L760 694 L84 694 L84 794 Z" /><glyph glyph-name="uni660E" unicode="&#x660e;" d="M641 174 L641 -93 L485 -93 L485 687 L641 667 L641 535 L759 535 L759 435 L641 435 L641 274 L759 274 L759 174 L641 174 ZM940 796 L940 -93 L709 -93 L709 7 L781 7 L781 696 L485 696 L485 796 L940 796 ZM62 789 L436 789 L436 -80 L62 -80 L62 679 L210 659 L210 404 L261 404 L261 304 L210 304 L210 20 L288 20 L288 689 L62 689 L62 789 Z" /><glyph glyph-name="uni6625" unicode="&#x6625;" d="M310 164 L690 164 L690 64 L310 64 L310 164 ZM978 214 L876 214 L876 -86 L124 -86 L124 202 L282 182 L282 15 L718 15 L718 214 L20 214 L129 379 L41 379 L41 479 L414 479 L414 525 L65 525 L65 625 L414 625 L414 672 L58 672 L58 772 L414 772 L414 815 L584 815 L584 772 L940 772 L940 672 L584 672 L584 625 L933 625 L933 525 L584 525 L584 479 L957 479 L957 379 L869 379 L978 214 ZM261 314 L737 314 L694 379 L304 379 L261 314 Z" /><glyph glyph-name="uni662F" unicode="&#x662f;" d="M46 373 L954 373 L954 275 L46 275 L46 373 ZM296 654 L704 654 L704 560 L296 560 L296 654 ZM892 795 L892 419 L108 419 L108 687 L269 668 L269 515 L731 515 L731 699 L108 699 L108 795 L892 795 ZM602 89 L602 10 L952 10 L952 -87 L345 -87 L228 -16 L203 -94 L44 -94 L149 239 L308 239 L269 116 L432 14 L432 263 L602 253 L602 189 L930 189 L930 89 L602 89 Z" /><glyph glyph-name="uni666F" unicode="&#x666f;" d="M279 682 L721 682 L721 603 L279 603 L279 682 ZM585 448 L954 448 L954 369 L46 369 L46 448 L415 448 L415 475 L585 475 L585 448 ZM908 793 L908 493 L92 493 L92 705 L252 689 L252 572 L748 572 L748 714 L92 714 L92 793 L908 793 ZM97 248 L265 232 L265 202 L735 202 L735 257 L97 257 L97 336 L903 336 L903 123 L97 123 L97 248 ZM420 6 L420 113 L580 101 L580 -94 L340 -94 L340 6 L420 6 ZM57 -87 L154 86 L319 86 L222 -87 L57 -87 ZM682 86 L847 86 L944 -87 L779 -87 L682 86 Z" /><glyph glyph-name="uni66B4" unicode="&#x66b4;" d="M419 -4 L419 217 L579 217 L579 -99 L376 -99 L376 -4 L419 -4 ZM66 -91 L66 26 L362 90 L362 -26 L66 -91 ZM856 234 L954 187 L954 68 L840 125 L637 96 L637 194 L686 201 L618 234 L381 234 L314 201 L362 194 L362 96 L160 125 L45 68 L45 187 L144 234 L46 234 L46 324 L251 324 L251 357 L73 357 L73 447 L251 447 L251 469 L411 469 L411 447 L653 447 L653 469 L813 469 L813 447 L926 447 L926 357 L813 357 L813 324 L953 324 L953 234 L856 234 ZM411 357 L411 324 L653 324 L653 357 L411 357 ZM637 -26 L637 90 L934 26 L934 -91 L637 -26 ZM274 680 L724 680 L724 600 L274 600 L274 680 ZM923 793 L923 488 L76 488 L76 704 L246 691 L246 569 L753 569 L753 711 L76 711 L76 793 L923 793 Z" /><glyph glyph-name="uni6700" unicode="&#x6700;" d="M283 677 L717 677 L717 590 L283 590 L283 677 ZM900 795 L900 472 L100 472 L100 699 L255 681 L255 558 L745 558 L745 709 L100 709 L100 795 L900 795 ZM48 439 L952 439 L952 350 L476 350 L476 42 L489 42 L489 -47 L476 -47 L476 -97 L319 -97 L319 -47 L54 -47 L54 42 L77 42 L77 337 L234 322 L234 307 L302 307 L302 218 L234 218 L234 175 L302 175 L302 86 L234 86 L234 42 L319 42 L319 350 L48 350 L48 439 ZM932 95 L858 60 L947 20 L947 -99 L726 -3 L514 -104 L514 15 L595 55 L524 85 L524 220 L665 207 L665 145 L726 118 L786 147 L786 230 L525 230 L525 312 L932 312 L932 95 Z" /><glyph glyph-name="uni6708" unicode="&#x6708;" d="M715 435 L285 435 L285 535 L715 535 L715 435 ZM285 176 L285 276 L715 276 L715 176 L285 176 ZM81 796 L918 796 L918 -90 L575 -90 L575 10 L745 10 L745 696 L81 696 L81 796 ZM81 -90 L81 687 L255 667 L255 -90 L81 -90 Z" /><glyph glyph-name="uni6709" unicode="&#x6709;" d="M716 355 L716 255 L337 255 L337 355 L716 355 ZM337 82 L337 182 L716 182 L716 82 L337 82 ZM153 -92 L153 420 L313 401 L313 -92 L153 -92 ZM954 615 L327 615 L287 529 L901 529 L901 -92 L576 -92 L576 6 L741 6 L741 429 L75 429 L162 615 L45 615 L45 715 L209 715 L253 809 L418 809 L374 715 L954 715 L954 615 Z" /><glyph glyph-name="uni671F" unicode="&#x671f;" d="M48 -85 L109 79 L256 79 L194 -85 L48 -85 ZM310 79 L457 79 L513 -85 L367 -85 L310 79 ZM484 631 L484 194 L514 194 L514 94 L50 94 L50 194 L81 194 L81 631 L56 631 L56 731 L81 731 L81 796 L222 796 L222 731 L343 731 L343 796 L484 796 L484 731 L508 731 L508 631 L484 631 ZM222 273 L222 194 L343 194 L343 631 L222 631 L222 552 L317 552 L317 452 L222 452 L222 373 L317 373 L317 273 L222 273 ZM757 176 L702 176 L702 -88 L543 -88 L543 685 L702 665 L702 535 L757 535 L757 435 L702 435 L702 276 L757 276 L757 176 ZM543 794 L939 794 L939 -88 L740 -88 L740 12 L780 12 L780 694 L543 694 L543 794 Z" /><glyph glyph-name="uni672C" unicode="&#x672c;" d="M590 683 L967 683 L967 583 L590 583 L590 101 L742 101 L742 1 L590 1 L590 -106 L410 -106 L410 1 L258 1 L258 101 L410 101 L410 583 L33 583 L33 683 L410 683 L410 821 L590 821 L590 683 ZM127 547 L302 547 L218 -85 L43 -85 L127 547 ZM697 547 L872 547 L956 -85 L781 -85 L697 547 Z" /><glyph glyph-name="uni672F" unicode="&#x672f;" d="M585 599 L958 599 L958 499 L585 499 L585 -106 L415 -106 L415 499 L43 499 L43 599 L415 599 L415 814 L585 814 L585 599 ZM45 -87 L160 460 L329 460 L214 -87 L45 -87 ZM671 460 L840 460 L955 -87 L786 -87 L671 460 ZM888 789 L888 638 L728 638 L728 789 L888 789 Z" /><glyph glyph-name="uni673A" unicode="&#x673a;" d="M902 12 L953 12 L953 -88 L741 -88 L741 693 L627 693 L627 -88 L467 -88 L467 793 L902 793 L902 12 ZM325 807 L325 690 L439 690 L439 590 L325 590 L325 -89 L165 -89 L165 590 L51 590 L51 690 L165 690 L165 807 L325 807 ZM66 -79 L66 552 L130 552 L130 -79 L66 -79 ZM360 -79 L360 552 L424 552 L424 -79 L360 -79 Z" /><glyph glyph-name="uni6750" unicode="&#x6750;" d="M312 804 L312 683 L430 683 L430 583 L312 583 L312 -92 L162 -92 L162 583 L52 583 L52 683 L162 683 L162 804 L312 804 ZM64 -87 L64 546 L134 546 L134 -87 L64 -87 ZM346 -87 L346 546 L416 546 L416 -87 L346 -87 ZM963 683 L963 583 L911 583 L911 -90 L676 -90 L676 10 L746 10 L746 583 L455 583 L455 683 L746 683 L746 804 L911 804 L911 683 L963 683 ZM532 563 L679 543 L605 -88 L458 -88 L532 563 Z" /><glyph glyph-name="uni6765" unicode="&#x6765;" d="M585 382 L952 382 L952 282 L585 282 L585 -102 L415 -102 L415 282 L48 282 L48 382 L415 382 L415 647 L59 647 L59 747 L415 747 L415 818 L585 818 L585 747 L941 747 L941 647 L585 647 L585 382 ZM53 -90 L158 259 L317 259 L221 -90 L53 -90 ZM246 624 L304 405 L149 405 L90 624 L246 624 ZM685 259 L843 259 L949 -90 L780 -90 L685 259 ZM853 405 L697 405 L755 624 L911 624 L853 405 Z" /><glyph glyph-name="uni676F" unicode="&#x676f;" d="M899 623 L991 18 L859 18 L767 623 L899 623 ZM677 687 L651 547 L767 547 L767 -98 L612 -98 L612 340 L551 18 L409 18 L536 687 L427 687 L427 787 L959 787 L959 687 L677 687 ZM67 -86 L67 542 L125 542 L125 -86 L67 -86 ZM342 -86 L342 542 L401 542 L401 -86 L342 -86 ZM411 580 L314 580 L314 -98 L154 -98 L154 580 L50 580 L50 680 L154 680 L154 810 L314 810 L314 680 L411 680 L411 580 Z" /><glyph glyph-name="uni679C" unicode="&#x679c;" d="M585 280 L961 280 L961 180 L585 180 L585 -108 L415 -108 L415 180 L39 180 L39 280 L415 280 L415 340 L88 340 L88 683 L258 663 L258 440 L415 440 L415 517 L282 517 L282 617 L415 617 L415 678 L585 665 L585 617 L718 617 L718 517 L585 517 L585 440 L742 440 L742 694 L88 694 L88 794 L912 794 L912 340 L585 340 L585 280 ZM669 153 L849 153 L954 -90 L775 -90 L669 153 ZM45 -90 L153 153 L332 153 L224 -90 L45 -90 Z" /><glyph glyph-name="uni6807" unicode="&#x6807;" d="M299 807 L299 690 L410 690 L410 590 L299 590 L299 -90 L162 -90 L162 590 L51 590 L51 690 L162 690 L162 807 L299 807 ZM66 -80 L66 554 L130 554 L130 -80 L66 -80 ZM330 -80 L330 554 L394 554 L394 -80 L330 -80 ZM931 790 L931 690 L453 690 L453 790 L931 790 ZM953 510 L953 410 L431 410 L431 510 L953 510 ZM615 11 L615 400 L769 385 L769 -89 L578 -89 L578 11 L615 11 ZM467 318 L581 318 L540 -85 L426 -85 L467 318 ZM923 318 L964 -85 L850 -85 L809 318 L923 318 Z" /><glyph glyph-name="uni6837" unicode="&#x6837;" d="M314 807 L314 690 L410 690 L410 590 L314 590 L314 -99 L154 -99 L154 590 L51 590 L51 690 L154 690 L154 807 L314 807 ZM66 -79 L66 554 L127 554 L127 -79 L66 -79 ZM340 -79 L340 554 L401 554 L401 -79 L340 -79 ZM888 690 L942 690 L942 589 L439 589 L439 690 L506 690 L481 801 L640 801 L665 690 L728 690 L753 801 L913 801 L888 690 ZM775 327 L775 169 L942 169 L942 69 L775 69 L775 -100 L605 -100 L605 69 L439 69 L439 169 L605 169 L605 327 L445 327 L445 428 L605 428 L605 578 L775 563 L775 428 L936 428 L936 327 L775 327 Z" /><glyph glyph-name="uni6839" unicode="&#x6839;" d="M605 596 L759 596 L759 496 L605 496 L605 596 ZM580 298 L580 13 L666 13 L666 -87 L425 -87 L425 684 L580 664 L580 398 L784 398 L784 694 L425 694 L425 794 L939 794 L939 298 L580 298 ZM941 260 L941 108 L873 76 L936 -90 L767 -90 L635 287 L799 272 L824 207 L941 260 ZM304 807 L304 690 L402 690 L402 590 L304 590 L304 -89 L151 -89 L151 590 L51 590 L51 690 L151 690 L151 807 L304 807 ZM66 -79 L66 554 L120 554 L120 -79 L66 -79 ZM335 -79 L335 554 L389 554 L389 -79 L335 -79 Z" /><glyph glyph-name="uni6B21" unicode="&#x6b21;" d="M472 696 L472 380 L322 380 L322 796 L937 796 L937 380 L787 380 L787 696 L472 696 ZM710 315 L961 -90 L790 -90 L630 173 L467 -90 L296 -90 L550 320 L550 607 L710 607 L710 315 ZM43 797 L190 797 L274 436 L126 436 L43 797 ZM38 -90 L126 406 L274 406 L185 -90 L38 -90 Z" /><glyph glyph-name="uni6BCF" unicode="&#x6bcf;" d="M954 302 L954 202 L922 202 L922 -86 L78 -86 L78 202 L46 202 L46 302 L78 302 L78 480 L238 465 L238 302 L762 302 L762 490 L78 490 L78 590 L922 590 L922 302 L954 302 ZM762 14 L762 202 L238 202 L238 14 L762 14 ZM954 749 L954 649 L78 649 L78 807 L237 807 L237 749 L954 749 ZM420 459 L580 459 L580 333 L420 333 L420 459 ZM580 46 L420 46 L420 171 L580 171 L580 46 Z" /><glyph glyph-name="uni6BD4" unicode="&#x6bd4;" d="M230 799 L230 14 L489 14 L489 -84 L61 -84 L61 799 L230 799 ZM240 468 L240 566 L489 566 L489 468 L240 468 ZM689 799 L689 14 L949 14 L949 -84 L520 -84 L520 799 L689 799 ZM699 566 L949 566 L949 468 L699 468 L699 566 Z" /><glyph glyph-name="uni6C0F" unicode="&#x6c0f;" d="M959 407 L959 302 L853 302 L933 -91 L763 -91 L682 302 L233 302 L233 14 L428 14 L428 -91 L68 -91 L68 796 L941 796 L941 691 L233 691 L233 407 L660 407 L603 681 L778 666 L831 407 L959 407 Z" /><glyph glyph-name="uni6C34" unicode="&#x6c34;" d="M420 4 L420 813 L583 813 L583 -96 L326 -96 L326 4 L420 4 ZM37 594 L401 594 L201 -89 L40 -89 L214 494 L37 494 L37 594 ZM772 497 L956 -89 L797 -89 L595 575 L954 696 L954 555 L772 497 Z" /><glyph glyph-name="uni6D41" unicode="&#x6d41;" d="M547 -76 L547 309 L701 309 L701 -76 L547 -76 ZM299 -93 L340 315 L499 315 L457 -93 L299 -93 ZM917 3 L951 3 L951 -93 L763 -93 L763 315 L917 315 L917 3 ZM305 356 L388 642 L286 642 L286 738 L531 738 L531 805 L701 805 L701 738 L948 738 L948 642 L553 642 L498 452 L752 452 L712 586 L880 586 L948 356 L305 356 ZM35 -90 L124 275 L275 275 L190 -90 L35 -90 ZM273 571 L123 571 L53 801 L208 801 L273 571 ZM271 307 L120 307 L40 544 L195 544 L271 307 Z" /><glyph glyph-name="uni6DF1" unicode="&#x6df1;" d="M35 -95 L124 275 L275 275 L190 -95 L35 -95 ZM273 571 L123 571 L50 804 L205 804 L273 571 ZM271 307 L120 307 L40 544 L195 544 L271 307 ZM710 352 L952 352 L952 249 L710 249 L710 -95 L550 -95 L550 249 L307 249 L307 352 L550 352 L550 450 L710 450 L710 352 ZM459 703 L459 616 L309 616 L309 798 L950 798 L950 616 L801 616 L801 703 L459 703 ZM317 -81 L372 203 L514 203 L460 -81 L317 -81 ZM745 203 L888 203 L940 -81 L797 -81 L745 203 ZM314 395 L423 596 L580 596 L472 395 L314 395 ZM786 395 L675 596 L832 596 L943 395 L786 395 Z" /><glyph glyph-name="uni6F14" unicode="&#x6f14;" d="M863 519 L691 519 L691 474 L911 474 L911 39 L842 39 L931 -93 L754 -93 L664 39 L563 39 L472 -93 L294 -93 L386 39 L311 39 L311 358 L463 343 L463 144 L531 144 L531 204 L484 204 L484 299 L531 299 L531 369 L311 369 L311 474 L531 474 L531 519 L358 519 L358 572 L271 572 L271 762 L522 762 L522 807 L700 807 L700 762 L951 762 L951 572 L863 572 L863 519 ZM758 369 L691 369 L691 299 L738 299 L738 204 L691 204 L691 144 L758 144 L758 369 ZM792 666 L430 666 L430 616 L792 616 L792 666 ZM35 -92 L115 275 L257 275 L182 -92 L35 -92 ZM47 799 L196 799 L262 571 L118 571 L47 799 ZM40 544 L189 544 L260 307 L115 307 L40 544 Z" /><glyph glyph-name="uni70AB" unicode="&#x70ab;" d="M297 807 L297 315 L422 -89 L292 -89 L226 140 L161 -89 L30 -89 L156 315 L156 807 L297 807 ZM393 782 L393 325 L327 325 L327 782 L393 782 ZM126 782 L126 325 L60 325 L60 782 L126 782 ZM951 752 L951 652 L424 652 L424 752 L607 752 L607 804 L767 804 L767 752 L951 752 ZM953 -86 L442 -86 L604 280 L419 280 L540 630 L689 630 L595 380 L649 380 L711 521 L856 521 L633 14 L801 14 L752 251 L889 251 L953 -86 Z" /><glyph glyph-name="uni70BC" unicode="&#x70bc;" d="M297 807 L297 313 L422 -92 L292 -92 L226 137 L161 -92 L30 -92 L156 313 L156 807 L297 807 ZM393 782 L393 325 L327 325 L327 782 L393 782 ZM126 782 L126 325 L60 325 L60 782 L126 782 ZM939 271 L778 271 L778 -92 L588 -92 L588 8 L631 8 L631 271 L444 271 L472 459 L424 459 L424 559 L487 559 L499 642 L422 642 L422 742 L514 742 L523 805 L658 805 L649 742 L943 742 L943 642 L636 642 L625 559 L795 559 L795 371 L939 371 L939 271 ZM611 459 L599 371 L656 371 L656 459 L611 459 ZM467 201 L589 201 L553 -87 L431 -87 L467 201 ZM924 201 L951 -87 L834 -87 L807 201 L924 201 Z" /><glyph glyph-name="uni7231" unicode="&#x7231;" d="M220 505 L220 459 L50 459 L50 600 L148 600 L130 674 L291 674 L306 600 L436 600 L418 674 L580 674 L594 600 L695 600 L720 670 L886 670 L858 600 L950 600 L950 449 L780 449 L780 505 L220 505 ZM956 323 L311 323 L300 282 L933 282 L933 107 L776 57 L949 18 L949 -98 L563 -12 L277 -105 L277 12 L353 34 L282 50 L282 166 L576 101 L763 157 L763 187 L274 187 L196 -100 L38 -100 L154 323 L45 323 L45 423 L182 423 L189 450 L346 450 L338 423 L956 423 L956 323 ZM939 791 L939 696 L66 696 L66 791 L939 791 Z" /><glyph glyph-name="uni725B" unicode="&#x725b;" d="M962 286 L962 178 L612 178 L612 -106 L442 -106 L442 178 L44 178 L44 286 L442 286 L442 543 L84 543 L84 770 L256 770 L256 650 L442 650 L442 814 L612 814 L612 650 L933 650 L933 543 L612 543 L612 286 L962 286 Z" /><glyph glyph-name="uni738B" unicode="&#x738b;" d="M948 794 L948 694 L52 694 L52 794 L948 794 ZM43 14 L957 14 L957 -86 L43 -86 L43 14 ZM590 25 L410 37 L410 304 L64 304 L64 404 L410 404 L410 684 L590 672 L590 404 L936 404 L936 304 L590 304 L590 25 Z" /><glyph glyph-name="uni73B0" unicode="&#x73b0;" d="M50 688 L50 791 L346 791 L346 688 L50 688 ZM50 -82 L50 21 L346 21 L346 -82 L50 -82 ZM278 662 L278 407 L346 407 L346 304 L278 304 L278 32 L118 47 L118 304 L50 304 L50 407 L118 407 L118 678 L278 662 ZM516 696 L516 252 L377 252 L377 796 L936 796 L936 252 L797 252 L797 696 L516 696 ZM832 14 L957 14 L957 -86 L679 -86 L679 156 L553 -96 L381 -96 L576 281 L576 630 L736 630 L736 271 L701 199 L832 199 L832 14 Z" /><glyph glyph-name="uni7403" unicode="&#x7403;" d="M50 688 L50 791 L323 791 L323 688 L50 688 ZM50 -82 L50 21 L323 21 L323 -82 L50 -82 ZM267 662 L267 407 L323 407 L323 304 L267 304 L267 32 L107 47 L107 304 L50 304 L50 407 L107 407 L107 678 L267 662 ZM918 686 L953 686 L953 586 L727 586 L727 -94 L526 -94 L526 6 L567 6 L567 586 L341 586 L341 686 L567 686 L567 809 L727 809 L727 686 L777 686 L777 788 L918 788 L918 686 ZM427 269 L556 259 L468 -84 L335 -84 L427 269 ZM556 278 L427 278 L337 539 L470 539 L556 278 ZM741 269 L870 259 L949 -84 L816 -84 L741 269 ZM741 278 L821 539 L953 539 L870 278 L741 278 Z" /><glyph glyph-name="uni7531" unicode="&#x7531;" d="M580 654 L922 654 L922 -86 L78 -86 L78 543 L236 523 L236 14 L764 14 L764 554 L580 554 L580 336 L734 336 L734 236 L580 236 L580 26 L420 39 L420 236 L266 236 L266 336 L420 336 L420 554 L78 554 L78 654 L420 654 L420 810 L580 810 L580 654 Z" /><glyph glyph-name="uni7535" unicode="&#x7535;" d="M585 14 L966 14 L966 -86 L415 -86 L415 138 L64 138 L64 602 L223 582 L223 238 L415 238 L415 374 L251 374 L251 474 L415 474 L415 611 L64 611 L64 711 L415 711 L415 825 L585 825 L585 711 L936 711 L936 138 L585 138 L585 14 ZM585 374 L585 238 L776 238 L776 611 L585 611 L585 474 L749 474 L749 374 L585 374 Z" /><glyph glyph-name="uni753B" unicode="&#x753b;" d="M437 515 L562 504 L562 405 L600 405 L600 305 L562 305 L562 199 L437 211 L437 305 L399 305 L399 405 L437 405 L437 515 ZM250 523 L382 505 L382 174 L617 174 L617 536 L250 536 L250 637 L749 637 L749 72 L250 72 L250 523 ZM45 791 L955 791 L955 691 L45 691 L45 791 ZM789 15 L789 637 L939 637 L939 -85 L60 -85 L60 637 L210 637 L210 15 L789 15 Z" /><glyph glyph-name="uni767B" unicode="&#x767b;" d="M276 673 L276 596 L61 596 L61 673 L276 673 ZM938 678 L938 601 L725 601 L725 678 L938 678 ZM938 784 L938 707 L725 707 L725 784 L938 784 ZM689 604 L956 511 L956 382 L750 457 L750 402 L250 402 L250 456 L46 382 L46 501 L314 596 L314 709 L61 709 L61 791 L461 791 L461 532 L378 502 L625 502 L543 532 L543 801 L689 801 L689 604 ZM118 256 L273 236 L273 189 L727 189 L727 267 L118 267 L118 367 L882 367 L882 89 L118 89 L118 256 ZM860 67 L840 18 L952 18 L952 -82 L47 -82 L47 18 L160 18 L140 67 L301 67 L320 18 L679 18 L699 67 L860 67 Z" /><glyph glyph-name="uni7684" unicode="&#x7684;" d="M940 720 L940 -92 L584 -92 L584 8 L780 8 L780 620 L507 620 L507 815 L667 815 L667 720 L940 720 ZM718 102 L571 102 L522 553 L669 553 L718 102 ZM342 738 L463 738 L463 -85 L62 -85 L62 628 L217 608 L217 372 L288 372 L288 281 L217 281 L217 15 L307 15 L307 638 L62 638 L62 738 L182 738 L182 810 L342 810 L342 738 Z" /><glyph glyph-name="uni771F" unicode="&#x771f;" d="M687 497 L687 410 L313 410 L313 497 L687 497 ZM313 284 L313 371 L687 371 L687 284 L313 284 ZM313 158 L313 245 L687 245 L687 158 L313 158 ZM872 122 L941 122 L941 30 L59 30 L59 122 L128 122 L128 523 L287 503 L287 122 L713 122 L713 533 L128 533 L128 625 L415 625 L415 662 L74 662 L74 762 L415 762 L415 811 L585 811 L585 762 L925 762 L925 662 L585 662 L585 625 L872 625 L872 122 ZM97 -98 L185 12 L384 12 L296 -98 L97 -98 ZM610 12 L809 12 L897 -98 L698 -98 L610 12 Z" /><glyph glyph-name="uni7740" unicode="&#x7740;" d="M705 241 L705 157 L335 157 L335 241 L705 241 ZM335 37 L335 120 L705 120 L705 37 L335 37 ZM934 402 L322 402 L303 363 L886 363 L886 -85 L153 -85 L153 269 L312 256 L312 0 L727 0 L727 277 L87 277 L147 402 L54 402 L54 491 L191 491 L208 527 L83 527 L83 616 L251 616 L267 648 L72 648 L72 737 L211 737 L184 808 L362 808 L389 737 L594 737 L622 808 L799 808 L772 737 L916 737 L916 648 L442 648 L426 616 L905 616 L905 527 L383 527 L366 491 L934 491 L934 402 Z" /><glyph glyph-name="uni7801" unicode="&#x7801;" d="M39 689 L39 789 L394 789 L394 689 L239 689 L200 536 L386 536 L386 -82 L65 -82 L65 425 L201 405 L201 18 L250 18 L250 436 L24 436 L89 689 L39 689 ZM755 439 L755 693 L428 693 L428 793 L921 793 L921 424 L755 439 ZM593 415 L940 415 L940 -86 L513 -86 L513 14 L772 14 L772 315 L439 315 L439 657 L593 657 L593 415 ZM739 218 L739 118 L419 118 L419 218 L739 218 Z" /><glyph glyph-name="uni793A" unicode="&#x793a;" d="M918 795 L918 689 L82 689 L82 795 L918 795 ZM29 496 L971 496 L971 390 L29 390 L29 496 ZM415 12 L415 380 L585 365 L585 -89 L298 -89 L298 12 L415 12 ZM147 319 L307 319 L209 -80 L49 -80 L147 319 ZM694 319 L854 319 L953 -80 L792 -80 L694 319 Z" /><glyph glyph-name="uni79C0" unicode="&#x79c0;" d="M931 795 L931 695 L69 695 L69 795 L931 795 ZM415 355 L415 523 L47 523 L47 623 L415 623 L415 685 L585 672 L585 623 L953 623 L953 523 L585 523 L585 355 L415 355 ZM326 501 L228 355 L45 355 L143 501 L326 501 ZM673 501 L856 501 L954 355 L771 355 L673 501 ZM894 321 L851 185 L937 185 L937 -86 L481 -86 L481 14 L759 14 L759 85 L659 85 L704 221 L64 221 L64 321 L894 321 ZM90 -91 L188 209 L365 194 L279 -91 L90 -91 Z" /><glyph glyph-name="uni79CB" unicode="&#x79cb;" d="M54 -82 L74 381 L172 381 L152 -82 L54 -82 ZM365 381 L463 381 L483 -82 L385 -82 L365 381 ZM607 784 L607 345 L520 345 L520 784 L607 784 ZM937 784 L937 345 L850 345 L850 784 L937 784 ZM491 419 L350 419 L350 -90 L190 -90 L190 419 L49 419 L49 519 L190 519 L190 683 L350 672 L350 519 L491 519 L491 419 ZM477 793 L477 693 L62 693 L62 793 L477 793 ZM808 380 L968 -87 L816 -87 L728 183 L641 -87 L489 -87 L648 380 L648 803 L808 803 L808 380 Z" /><glyph glyph-name="uni7A3F" unicode="&#x7a3f;" d="M399 790 L399 690 L55 690 L55 790 L399 790 ZM298 665 L298 510 L401 510 L401 410 L298 410 L298 -87 L154 -87 L154 410 L53 410 L53 510 L154 510 L154 680 L298 665 ZM63 -82 L63 376 L120 376 L120 -82 L63 -82 ZM332 -82 L332 376 L390 376 L390 -82 L332 -82 ZM428 -89 L428 335 L941 335 L941 -89 L812 -89 L812 239 L558 239 L558 -89 L428 -89 ZM767 765 L952 765 L952 668 L423 668 L423 765 L614 765 L614 807 L767 807 L767 765 ZM447 520 L585 501 L585 473 L784 473 L784 530 L447 530 L447 627 L923 627 L923 377 L447 377 L447 520 ZM591 105 L591 194 L779 194 L779 -40 L591 -40 L591 96 L672 83 L672 49 L698 49 L698 105 L591 105 Z" /><glyph glyph-name="uni7B2C" unicode="&#x7b2c;" d="M588 295 L588 225 L942 225 L942 -65 L678 -65 L678 35 L794 35 L794 125 L588 125 L588 -99 L428 -99 L428 125 L72 125 L72 395 L428 395 L428 463 L588 450 L588 395 L784 395 L784 471 L53 471 L53 571 L933 571 L933 295 L588 295 ZM240 225 L428 225 L428 295 L240 295 L240 225 ZM62 -96 L170 115 L328 95 L230 -96 L62 -96 ZM237 602 L210 667 L50 667 L50 808 L219 808 L219 767 L492 767 L492 667 L374 667 L404 602 L237 602 ZM684 767 L958 767 L958 667 L840 667 L869 602 L703 602 L676 667 L515 667 L515 808 L684 808 L684 767 Z" /><glyph glyph-name="uni7B49" unicode="&#x7b49;" d="M584 446 L584 390 L952 390 L952 290 L48 290 L48 390 L416 390 L416 446 L60 446 L60 546 L416 546 L416 597 L584 597 L584 546 L940 546 L940 446 L584 446 ZM118 100 L287 100 L329 -82 L160 -82 L118 100 ZM833 253 L833 228 L940 228 L940 128 L833 128 L833 -89 L408 -89 L408 11 L663 11 L663 128 L60 128 L60 228 L663 228 L663 268 L833 253 ZM230 603 L203 667 L50 667 L50 808 L219 808 L219 767 L492 767 L492 667 L367 667 L396 603 L230 603 ZM684 767 L958 767 L958 667 L832 667 L862 603 L695 603 L669 667 L515 667 L515 808 L684 808 L684 767 Z" /><glyph glyph-name="uni7D20" unicode="&#x7d20;" d="M955 502 L955 409 L458 409 L365 358 L526 358 L589 388 L840 388 Q680 312 412 197 L696 197 L658 267 L827 267 L928 101 L593 101 L593 -97 L341 -97 L341 6 L419 6 L419 101 L83 101 L83 164 L160 196 Q276 245 346 277 L107 277 L107 338 L240 409 L45 409 L45 502 L415 502 L415 538 L75 538 L75 632 L415 632 L415 668 L65 668 L65 761 L415 761 L415 809 L585 809 L585 761 L935 761 L935 668 L585 668 L585 632 L925 632 L925 538 L585 538 L585 502 L955 502 ZM837 59 L948 -83 L779 -83 L668 59 L837 59 ZM163 59 L332 59 L221 -83 L52 -83 L163 59 Z" /><glyph glyph-name="uni7EC4" unicode="&#x7ec4;" d="M46 -81 L46 19 L329 19 L329 -81 L46 -81 ZM319 487 L229 202 L329 202 L329 104 L38 104 L128 396 L33 396 L149 795 L315 795 L225 487 L319 487 ZM743 533 L743 433 L572 433 L572 533 L743 533 ZM572 172 L572 272 L743 272 L743 172 L572 172 ZM926 11 L951 11 L951 -87 L367 -87 L367 11 L390 11 L390 681 L550 666 L550 11 L766 11 L766 691 L390 691 L390 792 L926 792 L926 11 Z" /><glyph glyph-name="uni7EC8" unicode="&#x7ec8;" d="M45 -81 L45 19 L329 19 L329 -81 L45 -81 ZM319 487 L227 202 L329 202 L329 104 L38 104 L135 396 L33 396 L145 795 L305 795 L218 487 L319 487 ZM415 287 L908 244 L908 122 L415 165 L415 287 ZM378 -46 L378 76 L928 30 L928 -93 L378 -46 ZM775 489 L949 417 L949 273 L620 410 L342 266 L342 420 L456 478 L377 511 L377 654 L612 556 L753 627 L753 663 L377 663 L377 805 L542 805 L542 763 L923 763 L923 566 L775 489 Z" /><glyph glyph-name="uni7ECE" unicode="&#x7ece;" d="M45 -81 L45 19 L319 19 L319 -81 L45 -81 ZM309 487 L222 202 L319 202 L319 104 L38 104 L125 396 L33 396 L145 795 L305 795 L218 487 L309 487 ZM731 184 L731 103 L946 103 L946 3 L731 3 L731 -92 L571 -92 L571 3 L356 3 L356 103 L571 103 L571 184 L362 184 L362 284 L571 284 L571 358 L731 358 L731 284 L939 284 L939 184 L731 184 ZM822 496 L950 447 L950 315 L651 430 L352 315 L352 447 L480 496 L371 538 L371 685 L521 670 L521 610 L651 561 L781 610 L781 695 L371 695 L371 795 L931 795 L931 538 L822 496 Z" /><glyph glyph-name="uni7ED3" unicode="&#x7ed3;" d="M46 -81 L46 19 L341 19 L341 -81 L46 -81 ZM329 487 L235 202 L341 202 L341 104 L39 104 L132 396 L23 396 L141 797 L315 797 L223 487 L329 487 ZM376 378 L376 478 L937 478 L937 378 L376 378 ZM742 714 L955 714 L955 614 L742 614 L742 488 L572 503 L572 614 L359 614 L359 714 L572 714 L572 804 L742 804 L742 714 ZM384 206 L384 306 L930 306 L930 -84 L384 -84 L384 194 L549 174 L549 16 L763 16 L763 206 L384 206 Z" /><glyph glyph-name="uni7ED8" unicode="&#x7ed8;" d="M45 -81 L45 19 L318 19 L318 -81 L45 -81 ZM318 487 L222 202 L318 202 L318 104 L38 104 L135 404 L23 404 L126 795 L288 795 L207 487 L318 487 ZM402 476 L898 476 L898 376 L402 376 L402 476 ZM352 185 L352 285 L947 285 L947 185 L598 185 L554 11 L755 11 L717 150 L875 150 L937 -89 L362 -89 L433 185 L352 185 ZM650 811 L947 629 L947 472 L650 655 L352 472 L352 629 L650 811 Z" /><glyph glyph-name="uni7ED9" unicode="&#x7ed9;" d="M373 374 L373 474 L917 474 L917 374 L373 374 ZM373 202 L373 302 L917 302 L917 -85 L373 -85 L373 190 L538 170 L538 15 L752 15 L752 202 L373 202 ZM645 818 L949 638 L949 489 L645 669 L341 489 L341 638 L645 818 ZM45 -81 L45 19 L326 19 L326 -81 L45 -81 ZM304 487 L215 202 L326 202 L326 104 L38 104 L130 404 L25 404 L134 802 L288 802 L202 487 L304 487 Z" /><glyph glyph-name="uni7EDF" unicode="&#x7edf;" d="M853 15 L954 15 L954 -85 L686 -85 L686 303 L853 303 L853 15 ZM353 -92 L433 303 L598 303 L518 -92 L353 -92 ZM952 335 L333 335 L419 644 L327 644 L327 744 L565 744 L565 808 L735 808 L735 744 L951 744 L951 644 L576 644 L523 435 L768 435 L727 602 L881 602 L952 335 ZM45 -81 L45 19 L319 19 L319 -81 L45 -81 ZM309 487 L222 202 L319 202 L319 104 L38 104 L125 396 L33 396 L145 795 L305 795 L218 487 L309 487 Z" /><glyph glyph-name="uni7EE9" unicode="&#x7ee9;" d="M723 501 L947 501 L947 403 L338 403 L338 501 L563 501 L563 536 L356 536 L356 634 L563 634 L563 669 L343 669 L343 767 L563 767 L563 809 L723 809 L723 767 L942 767 L942 669 L723 669 L723 634 L930 634 L930 536 L723 536 L723 501 ZM934 122 L789 122 L789 270 L497 270 L497 122 L352 122 L352 368 L934 368 L934 122 ZM723 232 L723 124 L947 38 L947 -103 L643 14 L338 -103 L338 38 L563 124 L563 247 L723 232 ZM45 -81 L45 19 L313 19 L313 -81 L45 -81 ZM310 487 L225 202 L313 202 L313 104 L38 104 L129 416 L25 416 L124 797 L291 797 L210 487 L310 487 Z" /><glyph glyph-name="uni7EF4" unicode="&#x7ef4;" d="M575 14 L955 14 L955 -86 L417 -86 L417 483 L356 483 L435 807 L593 807 L571 711 L673 711 L673 804 L831 804 L831 711 L945 711 L945 611 L831 611 L831 480 L945 480 L945 380 L831 380 L831 250 L945 250 L945 150 L831 150 L831 24 L673 44 L673 150 L575 150 L575 14 ZM673 250 L673 380 L575 380 L575 250 L673 250 ZM673 480 L673 611 L575 611 L575 480 L673 480 ZM45 -81 L45 19 L356 19 L356 -81 L45 -81 ZM336 487 L222 202 L356 202 L356 104 L38 104 L146 396 L30 396 L165 795 L325 795 L221 487 L336 487 Z" /><glyph glyph-name="uni7F6A" unicode="&#x7f6a;" d="M254 417 L254 458 L415 458 L415 -97 L254 -97 L254 -32 L53 -32 L53 68 L254 68 L254 142 L58 142 L58 243 L254 243 L254 316 L53 316 L53 417 L254 417 ZM945 316 L746 316 L746 243 L940 243 L940 142 L746 142 L746 68 L945 68 L945 -32 L746 -32 L746 -97 L585 -97 L585 458 L746 458 L746 417 L945 417 L945 316 ZM931 793 L931 487 L68 487 L68 681 L229 666 L229 589 L309 589 L309 678 L459 668 L459 589 L540 589 L540 678 L690 668 L690 589 L771 589 L771 691 L68 691 L68 793 L931 793 Z" /><glyph glyph-name="uni7F8E" unicode="&#x7f8e;" d="M952 212 L952 112 L627 112 L942 15 L942 -107 L500 34 L57 -107 L57 15 L372 112 L48 112 L48 212 L415 212 L415 278 L585 263 L585 212 L952 212 ZM942 393 L942 293 L58 293 L58 393 L415 393 L415 458 L75 458 L75 558 L415 558 L415 618 L585 605 L585 558 L925 558 L925 458 L585 458 L585 393 L942 393 ZM942 728 L942 628 L58 628 L58 728 L207 728 L171 809 L339 809 L375 728 L625 728 L661 809 L829 809 L793 728 L942 728 Z" /><glyph glyph-name="uni8005" unicode="&#x8005;" d="M952 442 L585 442 L396 349 L890 349 L890 -86 L177 -86 L177 239 L332 220 L332 13 L735 13 L735 251 L196 251 L46 177 L46 307 L323 442 L56 442 L56 542 L302 542 L302 631 L97 631 L97 731 L302 731 L302 806 L462 806 L462 731 L653 731 L653 631 L462 631 L462 542 L511 542 L942 772 L942 637 L753 542 L952 542 L952 442 ZM359 181 L707 181 L707 82 L359 82 L359 181 Z" /><glyph glyph-name="uni804C" unicode="&#x804c;" d="M935 794 L935 283 L496 283 L496 681 L654 661 L654 385 L777 385 L777 693 L496 693 L496 794 L935 794 ZM486 -91 L549 257 L704 257 L641 -91 L486 -91 ZM895 257 L958 -91 L804 -91 L741 257 L895 257 ZM46 694 L46 794 L465 794 L465 694 L441 694 L441 98 L460 98 L460 -2 L441 -2 L441 -94 L295 -94 L295 -2 L46 -2 L46 98 L67 98 L67 684 L214 664 L214 562 L272 562 L272 462 L214 462 L214 330 L272 330 L272 230 L214 230 L214 98 L295 98 L295 694 L46 694 Z" /><glyph glyph-name="uni8054" unicode="&#x8054;" d="M947 691 L947 591 L490 591 L490 691 L539 691 L514 801 L664 801 L689 691 L738 691 L763 801 L911 801 L885 691 L947 691 ZM812 276 L962 -89 L812 -89 L718 154 L625 -89 L475 -89 L625 276 L485 276 L485 376 L638 376 L638 581 L798 561 L798 376 L952 376 L952 276 L812 276 ZM46 694 L46 794 L470 794 L470 694 L441 694 L441 98 L465 98 L465 -2 L441 -2 L441 -94 L295 -94 L295 -2 L46 -2 L46 98 L67 98 L67 684 L214 664 L214 562 L272 562 L272 462 L214 462 L214 330 L272 330 L272 230 L214 230 L214 98 L295 98 L295 694 L46 694 Z" /><glyph glyph-name="uni80B2" unicode="&#x80b2;" d="M349 673 L303 576 L709 576 L679 646 L841 646 L910 475 L87 475 L178 673 L42 673 L42 773 L410 773 L410 816 L590 816 L590 773 L958 773 L958 673 L349 673 ZM708 288 L708 189 L291 189 L291 288 L708 288 ZM291 50 L291 148 L708 148 L708 50 L291 50 ZM109 -90 L109 319 L267 299 L267 -90 L109 -90 ZM109 329 L109 427 L891 427 L891 -90 L568 -90 L568 9 L733 9 L733 329 L109 329 Z" /><glyph glyph-name="uni80CC" unicode="&#x80cc;" d="M698 285 L698 185 L312 185 L312 285 L698 285 ZM312 44 L312 144 L698 144 L698 44 L312 44 ZM127 -98 L127 317 L287 297 L287 -98 L127 -98 ZM127 327 L127 427 L883 427 L883 -98 L555 -98 L555 2 L723 2 L723 327 L127 327 ZM955 654 L715 654 L715 563 L955 563 L955 463 L550 463 L550 809 L715 809 L715 754 L955 754 L955 654 ZM275 452 L275 486 L45 486 L45 586 L275 586 L275 654 L45 654 L45 754 L275 754 L275 809 L435 809 L435 452 L275 452 Z" /><glyph glyph-name="uni80FD" unicode="&#x80fd;" d="M328 774 L472 774 L533 555 L38 555 L112 807 L259 807 L208 655 L359 655 L328 774 ZM344 329 L344 231 L235 231 L235 329 L344 329 ZM235 77 L235 175 L344 175 L344 77 L235 77 ZM61 -85 L61 394 L210 379 L210 -85 L61 -85 ZM61 405 L61 505 L518 505 L518 -85 L296 -85 L296 14 L369 14 L369 405 L61 405 ZM721 805 L721 464 L946 464 L946 375 L568 375 L568 805 L721 805 ZM734 715 L946 715 L946 626 L734 626 L734 715 ZM721 340 L721 4 L946 4 L946 -85 L568 -85 L568 340 L721 340 ZM734 158 L734 248 L946 248 L946 158 L734 158 Z" /><glyph glyph-name="uni8111" unicode="&#x8111;" d="M238 176 L192 176 L192 -85 L62 -85 L62 685 L192 665 L192 535 L238 535 L238 435 L192 435 L192 276 L238 276 L238 176 ZM62 694 L62 794 L386 794 L386 -85 L223 -85 L223 15 L256 15 L256 694 L62 694 ZM760 744 L949 744 L949 644 L410 644 L410 744 L600 744 L600 804 L760 804 L760 744 ZM662 50 L562 50 L596 334 L562 618 L662 618 L680 429 L697 618 L798 618 L763 334 L798 50 L697 50 L680 239 L662 50 ZM813 16 L813 588 L935 588 L935 -84 L424 -84 L424 588 L547 588 L547 16 L813 16 Z" /><glyph glyph-name="uni81EA" unicode="&#x81ea;" d="M276 258 L724 258 L724 158 L276 158 L276 258 ZM724 403 L276 403 L276 503 L724 503 L724 403 ZM927 749 L927 -88 L73 -88 L73 639 L243 619 L243 12 L757 12 L757 649 L73 649 L73 749 L410 749 L410 809 L590 809 L590 749 L927 749 Z" /><glyph glyph-name="uni8303" unicode="&#x8303;" d="M523 451 L523 14 L952 14 L952 -86 L363 -86 L363 551 L930 551 L930 193 L574 193 L574 293 L769 293 L769 451 L523 451 ZM42 -87 L146 187 L297 187 L197 -87 L42 -87 ZM60 579 L215 579 L310 407 L159 407 L60 579 ZM40 387 L195 387 L297 211 L147 211 L40 387 ZM831 753 L953 753 L953 653 L831 653 L831 600 L670 600 L670 653 L329 653 L329 600 L168 600 L168 653 L47 653 L47 753 L168 753 L168 806 L329 806 L329 753 L670 753 L670 806 L831 806 L831 753 Z" /><glyph glyph-name="uni8346" unicode="&#x8346;" d="M563 534 L563 434 L57 434 L57 534 L563 534 ZM519 409 L519 213 L575 213 L575 113 L519 113 L519 -89 L362 -89 L362 113 L254 113 L245 -89 L87 -89 L96 113 L45 113 L45 213 L100 213 L109 424 L266 409 L258 213 L362 213 L362 424 L519 409 ZM783 799 L938 799 L938 -86 L683 -86 L683 14 L783 14 L783 799 ZM742 710 L742 70 L617 70 L617 710 L742 710 ZM509 799 L509 730 L575 730 L575 630 L509 630 L509 554 L354 554 L354 630 L258 630 L258 554 L103 554 L103 630 L50 630 L50 730 L103 730 L103 799 L258 799 L258 730 L354 730 L354 799 L509 799 Z" /><glyph glyph-name="uni83B7" unicode="&#x83b7;" d="M947 304 L806 304 L979 -87 L823 -87 L695 212 L567 -87 L411 -87 L583 304 L444 304 L444 404 L615 404 L615 581 L775 581 L775 404 L947 404 L947 304 ZM808 447 L808 556 L934 556 L934 447 L808 447 ZM168 613 L168 661 L47 661 L47 761 L168 761 L168 806 L329 806 L329 761 L670 761 L670 806 L831 806 L831 761 L953 761 L953 661 L831 661 L831 613 L670 613 L670 661 L329 661 L329 613 L168 613 ZM184 222 L184 97 L55 39 L55 164 L184 222 ZM425 378 L355 349 L355 -90 L61 -90 L61 3 L199 3 L199 284 L55 225 L55 362 L199 422 L199 437 L55 475 L55 604 L355 518 L355 486 L425 515 L425 378 Z" /><glyph glyph-name="uni884C" unicode="&#x884c;" d="M692 10 L692 315 L865 300 L865 -90 L468 -90 L468 10 L692 10 ZM359 425 L962 425 L962 325 L359 325 L359 425 ZM944 784 L944 684 L409 684 L409 784 L944 784 ZM20 319 L162 557 L322 557 L185 319 L20 319 ZM20 567 L162 804 L322 804 L185 567 L20 567 ZM122 -99 L122 309 L282 309 L282 -99 L122 -99 Z" /><glyph glyph-name="uni8868" unicode="&#x8868;" d="M955 405 L955 303 L45 303 L45 405 L955 405 ZM410 584 L410 662 L66 662 L66 764 L410 764 L410 823 L590 823 L590 764 L934 764 L934 662 L590 662 L590 584 L927 584 L927 483 L590 483 L590 415 L410 432 L410 483 L73 483 L73 584 L410 584 ZM23 -84 L163 280 L327 280 L192 -84 L23 -84 ZM863 106 L968 -84 L787 -84 L590 280 L768 280 L807 208 L955 248 L955 130 L863 106 ZM553 280 L553 5 L644 5 L644 -92 L380 -92 L380 280 L553 280 Z" /><glyph glyph-name="uni8981" unicode="&#x8981;" d="M52 794 L948 794 L948 694 L690 694 L690 647 L925 647 L925 361 L75 361 L75 534 L219 516 L219 463 L781 463 L781 545 L690 545 L690 475 L544 487 L544 545 L456 545 L456 475 L310 487 L310 545 L75 545 L75 647 L310 647 L310 694 L52 694 L52 794 ZM544 647 L544 694 L456 694 L456 647 L544 647 ZM275 332 L275 292 L948 292 L948 192 L883 192 L883 70 L753 45 L935 16 L935 -105 L499 -6 L63 -105 L63 16 L246 46 L115 72 L115 192 L52 192 L52 292 L115 292 L115 332 L275 332 ZM723 192 L275 192 L275 146 L499 93 L723 146 L723 192 Z" /><glyph glyph-name="uni89C4" unicode="&#x89c4;" d="M434 279 L339 279 L457 -89 L311 -89 L240 165 L164 -89 L18 -89 L136 279 L42 279 L42 379 L158 379 L158 561 L47 561 L47 661 L158 661 L158 803 L318 803 L318 661 L429 661 L429 561 L318 561 L318 379 L434 379 L434 279 ZM578 693 L578 252 L458 252 L458 793 L939 793 L939 252 L819 252 L819 693 L578 693 ZM880 14 L962 14 L962 -86 L725 -86 L725 139 L633 -89 L468 -89 L619 271 L619 628 L779 628 L779 271 L750 199 L880 199 L880 14 Z" /><glyph glyph-name="uni8BA1" unicode="&#x8ba1;" d="M966 494 L966 394 L733 394 L733 -100 L563 -100 L563 394 L330 394 L330 494 L563 494 L563 809 L733 809 L733 494 L966 494 ZM252 797 L252 637 L82 637 L82 797 L252 797 ZM252 570 L252 14 L355 14 L355 -86 L85 -86 L85 470 L31 470 L31 570 L252 570 Z" /><glyph glyph-name="uni8BA9" unicode="&#x8ba9;" d="M713 16 L956 16 L956 -84 L334 -84 L334 16 L543 16 L543 814 L713 814 L713 569 L930 569 L930 469 L713 469 L713 16 ZM252 797 L252 637 L84 637 L84 797 L252 797 ZM252 570 L252 19 L300 19 L300 -81 L85 -81 L85 470 L31 470 L31 570 L252 570 Z" /><glyph glyph-name="uni8BBA" unicode="&#x8bba;" d="M237 797 L237 637 L67 637 L67 797 L237 797 ZM237 570 L237 19 L292 19 L292 -81 L70 -81 L70 470 L31 470 L31 570 L237 570 ZM507 404 L507 14 L936 14 L936 -86 L347 -86 L347 404 L507 404 ZM521 141 L521 275 L933 345 L933 211 L521 141 ZM618 686 L458 420 L268 420 L515 804 L723 804 L969 420 L778 420 L618 686 Z" /><glyph glyph-name="uni8BBE" unicode="&#x8bbe;" d="M237 797 L237 637 L67 637 L67 797 L237 797 ZM237 570 L237 19 L280 19 L280 -81 L70 -81 L70 470 L31 470 L31 570 L237 570 ZM906 796 L906 590 L954 590 L954 490 L749 490 L749 696 L508 696 L508 490 L352 490 L352 796 L906 796 ZM917 166 L799 111 L945 46 L945 -105 L636 36 L331 -105 L331 39 L478 108 L350 166 L350 326 L510 314 L510 239 L637 182 L757 239 L757 336 L350 336 L350 436 L917 436 L917 166 Z" /><glyph glyph-name="uni8BC4" unicode="&#x8bc4;" d="M244 797 L244 637 L74 637 L74 797 L244 797 ZM245 570 L245 19 L295 19 L295 -81 L78 -81 L78 470 L36 470 L36 570 L245 570 ZM949 231 L949 131 L703 131 L703 -104 L543 -104 L543 131 L298 131 L298 231 L543 231 L543 682 L703 667 L703 231 L949 231 ZM943 792 L943 692 L304 692 L304 792 L943 792 ZM347 273 L315 651 L457 651 L489 273 L347 273 ZM902 273 L757 273 L789 651 L934 651 L902 273 Z" /><glyph glyph-name="uni8BF4" unicode="&#x8bf4;" d="M844 11 L957 11 L957 -89 L692 -89 L692 251 L844 231 L844 11 ZM939 695 L939 260 L319 260 L319 584 L480 564 L480 361 L778 361 L778 594 L319 594 L319 695 L396 695 L353 803 L521 803 L565 695 L693 695 L737 803 L905 803 L861 695 L939 695 ZM342 -89 L430 251 L586 231 L508 -89 L342 -89 ZM242 797 L242 637 L72 637 L72 797 L242 797 ZM242 570 L242 19 L302 19 L302 -81 L75 -81 L75 470 L31 470 L31 570 L242 570 Z" /><glyph glyph-name="uni8BF7" unicode="&#x8bf7;" d="M237 797 L237 637 L67 637 L67 797 L237 797 ZM237 570 L237 19 L272 19 L272 -81 L70 -81 L70 470 L31 470 L31 570 L237 570 ZM704 512 L951 512 L951 420 L286 420 L286 512 L534 512 L534 550 L309 550 L309 642 L534 642 L534 680 L296 680 L296 772 L534 772 L534 808 L704 808 L704 772 L941 772 L941 680 L704 680 L704 642 L928 642 L928 550 L704 550 L704 512 ZM313 290 L313 382 L924 382 L924 -90 L648 -90 L648 2 L754 2 L754 290 L313 290 ZM313 -90 L313 280 L483 260 L483 -90 L313 -90 ZM727 254 L727 162 L510 162 L510 254 L727 254 ZM510 34 L510 126 L727 126 L727 34 L510 34 Z" /><glyph glyph-name="uni8D1F" unicode="&#x8d1f;" d="M100 154 L100 484 L25 484 L105 796 L798 796 L746 586 L900 586 L900 154 L740 154 L740 479 L260 479 L260 154 L100 154 ZM616 688 L242 688 L213 586 L588 586 L616 688 ZM580 166 L942 39 L942 -106 L501 49 L58 -106 L58 38 L420 166 L420 440 L580 426 L580 166 Z" /><glyph glyph-name="uni8D44" unicode="&#x8d44;" d="M469 700 L469 589 L309 589 L309 795 L938 795 L938 589 L777 589 L777 700 L469 700 ZM267 587 L111 587 L58 795 L213 795 L267 587 ZM267 563 L201 357 L43 357 L109 563 L267 563 ZM703 567 L954 480 L954 349 L626 463 L292 348 L292 479 L543 565 L543 668 L703 654 L703 567 ZM897 99 L747 99 L747 239 L253 239 L253 99 L103 99 L103 339 L897 339 L897 99 ZM580 198 L580 110 L940 25 L940 -105 L500 -1 L60 -105 L60 25 L420 110 L420 217 L580 198 Z" /><glyph glyph-name="uni8D5B" unicode="&#x8d5b;" d="M587 155 L587 87 L942 5 L942 -107 L500 -5 L58 -107 L58 5 L413 87 L413 172 L587 155 ZM116 187 L34 187 L111 314 L52 314 L52 396 L257 396 L257 436 L89 436 L89 518 L257 518 L257 558 L146 558 L146 597 L59 597 L59 782 L409 782 L409 817 L591 817 L591 782 L941 782 L941 597 L854 597 L854 558 L743 558 L743 518 L911 518 L911 436 L743 436 L743 396 L948 396 L948 314 L888 314 L965 187 L884 187 L884 77 L732 77 L732 188 L268 188 L268 77 L116 77 L116 187 ZM742 274 L718 314 L281 314 L256 274 L742 274 ZM218 640 L257 640 L257 671 L417 671 L417 640 L583 640 L583 671 L743 671 L743 640 L782 640 L782 700 L218 700 L218 640 ZM417 558 L417 518 L583 518 L583 558 L417 558 ZM417 436 L417 396 L583 396 L583 436 L417 436 Z" /><glyph glyph-name="uni8D77" unicode="&#x8d77;" d="M775 509 L775 690 L540 690 L540 790 L935 790 L935 409 L715 409 L715 210 L945 210 L945 110 L550 110 L550 509 L775 509 ZM517 486 L517 385 L48 385 L48 486 L517 486 ZM199 509 L199 627 L59 627 L59 728 L199 728 L199 810 L359 810 L359 728 L499 728 L499 627 L359 627 L359 496 L199 509 ZM445 16 L957 16 L957 -85 L390 -85 L193 11 L183 -97 L46 -97 L83 325 L220 325 L203 131 L265 102 L265 353 L419 353 L419 256 L497 256 L497 155 L419 155 L419 28 L445 16 Z" /><glyph glyph-name="uni8D85" unicode="&#x8d85;" d="M459 498 L459 398 L48 398 L48 498 L186 498 L186 628 L58 628 L58 728 L186 728 L186 810 L346 810 L346 728 L441 728 L441 628 L346 628 L346 498 L459 498 ZM428 16 L949 16 L949 -84 L391 -84 L187 14 L178 -92 L43 -92 L78 328 L213 328 L196 125 L241 104 L241 378 L391 363 L391 271 L468 271 L468 171 L391 171 L391 33 L428 16 ZM505 288 L665 268 L665 175 L779 175 L779 300 L505 300 L505 400 L939 400 L939 75 L505 75 L505 288 ZM498 451 L551 692 L488 692 L488 792 L939 792 L939 450 L716 450 L716 550 L779 550 L779 692 L711 692 L658 451 L498 451 Z" /><glyph glyph-name="uni8D8A" unicode="&#x8d8a;" d="M481 487 L481 387 L52 387 L52 487 L481 487 ZM187 510 L187 628 L62 628 L62 729 L187 729 L187 811 L346 811 L346 729 L470 729 L470 628 L346 628 L346 498 L187 510 ZM448 17 L956 17 L956 -83 L394 -83 L190 16 L182 -91 L45 -91 L77 331 L214 331 L199 136 L253 110 L253 354 L408 354 L408 270 L470 270 L470 169 L408 169 L408 37 L448 17 ZM933 787 L933 690 L839 690 L839 787 L933 787 ZM695 165 L695 65 L505 65 L505 657 L685 657 L661 802 L801 802 L824 657 L946 657 L946 557 L841 557 L879 318 L947 345 L947 209 L900 190 L921 58 L781 58 L768 138 L715 118 L715 254 L748 266 L701 557 L655 557 L655 165 L695 165 Z" /><glyph glyph-name="uni8F7D" unicode="&#x8f7d;" d="M954 493 L816 493 L854 240 L953 282 L953 129 L876 97 L905 -91 L747 -91 L728 34 L624 -10 L624 143 L706 178 L658 493 L45 493 L45 593 L236 593 L236 650 L63 650 L63 750 L236 750 L236 808 L396 808 L396 750 L570 750 L570 650 L396 650 L396 593 L643 593 L610 808 L768 808 L801 593 L954 593 L954 493 ZM934 781 L934 643 L820 643 L820 781 L934 781 ZM445 146 L445 95 L583 95 L583 -5 L445 -5 L445 -91 L285 -91 L285 -5 L57 -5 L57 95 L285 95 L285 146 L72 146 L98 337 L59 337 L59 437 L111 437 L115 469 L270 469 L266 437 L571 437 L571 337 L251 337 L238 246 L285 246 L285 310 L445 310 L445 246 L567 246 L567 146 L445 146 Z" /><glyph glyph-name="uni8FC4" unicode="&#x8fc4;" d="M234 802 L234 617 L69 617 L69 802 L234 802 ZM229 18 L951 18 L951 -82 L69 -82 L69 469 L30 469 L30 569 L229 569 L229 18 ZM947 736 L947 635 L349 635 L349 806 L509 806 L509 736 L947 736 ZM336 201 L722 432 L334 432 L334 533 L937 533 L937 415 L574 202 L947 202 L947 101 L336 101 L336 201 Z" /><glyph glyph-name="uni8FD9" unicode="&#x8fd9;" d="M491 59 L267 59 L503 249 L342 384 L342 615 L502 595 L502 440 L617 342 L738 440 L738 625 L293 625 L293 725 L548 725 L548 802 L718 802 L718 725 L951 725 L951 625 L898 625 L898 384 L728 248 L951 59 L729 59 L613 156 L491 59 ZM239 802 L239 617 L69 617 L69 802 L239 802 ZM237 18 L951 18 L951 -82 L69 -82 L69 469 L30 469 L30 569 L237 569 L237 18 Z" /></font>
</defs>
</svg>
