<?xml version="1.0" standalone="no"?><!DOCTYPE svg PUBLIC "-//W3C//DTD SVG 1.1//EN" "http://www.w3.org/Graphics/SVG/1.1/DTD/svg11.dtd" ><svg xmlns="http://www.w3.org/2000/svg"><metadata></metadata><defs><font id="fonteditor" horiz-adv-x="1010"><font-face font-family="Q¬RÑOS{OSN-e W5" font-weight="600" font-stretch="normal" units-per-em="1000" panose-1="2 11 6 0 0 0 0 0 0 0" ascent="860" descent="-140" x-height="0" bbox="5 -223 983 956" underline-thickness="50" underline-position="-75" unicode-range="U+0023-ff1b" /><missing-glyph horiz-adv-x="1000" d="M900 840 L900 -120 L100 -120 L100 840 L900 840 ZM186 788 L501 401 L815 788 L186 788 ZM848 746 L534 359 L848 -28 L848 746 ZM814 -68 L501 318 L187 -68 L814 -68 ZM467 359 L152 748 L152 -29 L467 359 Z" /><glyph glyph-name="numbersign" unicode="#" d="M349 760 L314 546 L454 546 L488 760 L576 760 L541 546 L660 546 L660 467 L529 467 L500 280 L618 280 L618 201 L488 201 L450 -28 L363 -28 L400 201 L260 201 L223 -28 L136 -28 L173 201 L51 201 L51 280 L185 280 L214 467 L93 467 L93 546 L227 546 L261 760 L349 760 ZM273 280 L412 280 L441 467 L302 467 L273 280 Z" /><glyph glyph-name="hyphen" unicode="-" d="M34 329 Q70 325 121 325 L278 325 Q331 325 366 329 L366 214 Q334 218 278 218 L121 218 Q66 218 34 214 L34 329 Z" /><glyph glyph-name="period" unicode="." d="M63 -25 L63 107 L195 107 L195 -25 L63 -25 Z" /><glyph glyph-name="zero" unicode="0" d="M350 -44 Q223 -44 144 35 Q98 81 79 134 Q40 241 40 364 Q40 539 100 640 Q182 776 351 776 Q479 776 558 697 Q604 651 623 598 Q662 493 662 366 Q662 173 589 72 Q505 -44 350 -44 ZM351 57 Q424 57 466 102 Q539 178 539 367 Q539 552 466 631 Q426 676 350 676 Q275 676 231 622 Q162 541 162 371 Q162 202 215 126 Q264 57 351 57 Z" /><glyph glyph-name="one" unicode="1" d="M301 -28 Q308 16 308 95 L308 660 L252 660 Q204 660 156 655 L156 765 Q184 760 249 760 L341 760 Q399 760 435 764 Q428 694 428 606 L428 95 Q428 19 435 -28 L301 -28 Z" /><glyph glyph-name="two" unicode="2" d="M176 -28 Q90 -28 55 -32 Q62 37 80 85 Q120 193 216 280 Q264 323 382 402 Q507 487 507 557 Q507 612 466 645 Q427 676 359 676 Q265 676 224 613 Q201 580 193 524 L65 540 Q82 632 131 689 Q206 776 356 776 Q486 776 560 718 Q634 661 634 561 Q634 470 565 405 Q532 375 396 282 Q318 227 274 180 Q236 138 211 75 L506 75 Q600 75 645 82 L645 -33 Q583 -28 500 -28 L176 -28 Z" /><glyph glyph-name="three" unicode="3" d="M170 174 Q184 121 218 94 Q271 53 345 53 Q423 53 469 90 Q517 129 517 192 Q517 270 456 305 Q413 331 336 331 Q271 331 236 327 L236 434 Q268 430 326 430 Q404 430 449 465 Q494 499 494 562 Q494 679 353 679 Q277 679 238 646 Q209 618 195 571 L67 593 Q96 680 157 724 Q231 778 350 778 Q474 778 547 721 Q620 664 620 570 Q620 477 553 428 Q528 409 421 380 Q553 359 599 309 Q645 257 645 175 Q645 92 587 33 Q504 -46 344 -46 Q175 -46 93 47 Q61 82 41 149 L170 174 Z" /><glyph glyph-name="four" unicode="4" d="M678 153 Q646 158 585 159 L541 159 L541 79 Q541 13 548 -28 L423 -28 Q430 11 430 81 L430 159 L142 159 Q61 159 24 156 L24 268 Q58 305 103 359 L342 652 Q398 720 424 760 L547 760 Q541 700 541 597 L541 258 L584 258 Q634 258 678 264 L678 153 ZM431 474 Q431 543 439 625 Q395 563 353 510 L148 257 L431 257 L431 474 Z" /><glyph glyph-name="five" unicode="5" d="M183 164 Q192 132 213 109 Q257 55 343 55 Q421 55 469 103 Q517 152 517 230 Q517 307 471 354 Q425 400 350 400 Q270 400 219 352 Q198 330 189 309 L77 320 Q87 392 89 417 L113 667 Q116 723 117 762 Q154 760 216 760 L464 760 Q554 760 596 767 L596 658 Q545 665 465 665 L220 665 L204 481 Q203 469 194 417 Q280 491 378 491 Q499 491 569 418 Q639 350 639 234 Q639 104 560 30 Q480 -46 343 -46 Q198 -46 119 39 Q84 76 60 138 L183 164 Z" /><glyph glyph-name="six" unicode="6" d="M516 581 Q480 681 375 681 Q263 681 209 572 Q174 498 165 362 Q254 482 391 482 Q550 482 619 366 Q654 309 654 219 Q654 102 575 29 Q494 -46 369 -46 Q245 -46 169 19 Q55 117 55 351 Q55 550 136 658 Q223 775 376 775 Q506 775 577 701 Q612 665 636 609 L516 581 ZM368 388 Q290 388 239 341 Q187 292 187 219 Q187 146 238 99 Q289 51 366 51 Q463 51 511 125 Q536 163 536 222 Q536 300 491 344 Q446 388 368 388 Z" /><glyph glyph-name="seven" unicode="7" d="M641 659 Q599 620 537 515 Q386 263 349 -28 L206 -28 Q249 186 326 351 Q386 481 511 657 L183 657 Q108 657 59 651 L59 766 Q115 760 189 760 L511 760 Q604 760 641 764 L641 659 Z" /><glyph glyph-name="eight" unicode="8" d="M255 383 Q163 408 124 446 Q77 496 77 574 Q77 667 150 722 Q224 777 351 777 Q534 777 600 671 Q626 628 626 574 Q626 433 448 382 Q548 369 592 332 Q660 276 660 180 Q660 71 581 14 Q501 -45 348 -45 Q180 -45 98 33 Q42 88 42 179 Q42 282 121 338 Q164 368 255 383 ZM351 684 Q282 684 240 651 Q196 616 196 560 Q196 501 239 466 Q282 432 353 432 Q424 432 464 466 Q506 500 506 559 Q506 616 463 651 Q421 684 351 684 ZM349 50 Q534 50 534 190 Q534 257 484 296 Q436 333 351 333 Q266 333 218 295 Q167 256 167 189 Q167 124 217 86 Q264 50 349 50 Z" /><glyph glyph-name="nine" unicode="9" d="M188 149 Q202 115 218 98 Q259 54 340 54 Q416 54 460 98 Q534 168 542 372 Q503 313 475 293 Q409 248 316 248 Q193 248 121 317 Q49 387 49 505 Q49 660 173 736 Q242 779 346 779 Q440 779 513 727 Q586 675 616 586 Q645 504 645 379 Q645 136 540 34 Q466 -40 331 -40 Q212 -40 141 17 Q98 51 65 117 L188 149 ZM336 341 Q414 341 466 390 Q518 439 518 513 Q518 589 468 636 Q418 684 340 684 Q264 684 216 635 Q167 586 167 510 Q167 433 213 388 Q259 341 336 341 Z" /><glyph glyph-name="at" unicode="@" d="M697 594 Q689 568 673 512 L605 254 Q600 238 600 223 Q600 189 637 189 Q671 189 715 221 Q809 290 809 430 Q809 554 724 632 Q640 707 502 707 Q342 707 236 607 Q131 508 131 355 Q131 208 228 116 Q324 25 479 25 Q569 25 644 52 Q691 69 736 101 L779 38 Q715 1 662 -16 Q573 -45 476 -45 Q276 -45 161 73 Q51 184 51 357 Q51 530 167 646 Q295 776 499 776 Q672 776 778 682 Q883 589 883 436 Q883 249 742 162 Q681 125 622 125 Q544 125 544 187 L544 217 Q495 155 456 140 Q428 132 403 132 Q335 132 297 176 Q260 221 260 304 Q260 435 330 525 Q400 613 501 613 Q578 613 604 530 L622 594 L697 594 ZM506 551 Q414 551 366 434 Q339 367 339 300 Q339 199 410 199 Q468 199 517 271 Q574 358 574 465 Q574 551 506 551 Z" /><glyph glyph-name="C" unicode="c" d="M740 203 Q717 116 676 63 Q588 -44 406 -44 Q244 -44 152 50 Q45 163 45 362 Q45 567 160 683 Q252 776 407 776 Q518 776 597 729 Q664 687 701 622 Q716 596 729 554 L605 525 Q588 578 562 608 Q508 673 408 673 Q296 673 233 591 Q170 509 170 367 Q170 226 234 143 Q298 59 408 59 Q526 59 578 137 Q603 173 612 225 L740 203 Z" /><glyph glyph-name="D" unicode="d" d="M79 640 Q79 712 72 762 Q123 760 191 760 L374 760 Q551 760 641 673 Q750 570 750 373 Q750 168 634 58 Q542 -28 375 -28 L191 -28 Q125 -28 72 -30 Q79 16 79 94 L79 640 ZM366 75 Q487 75 550 142 Q626 223 626 372 Q626 519 554 594 Q494 657 367 657 L197 657 L197 75 L366 75 Z" /><glyph glyph-name="G" unicode="g" d="M713 171 Q713 91 720 44 Q630 -5 565 -22 Q494 -41 418 -41 Q231 -41 138 72 Q45 182 45 374 Q45 615 203 722 Q291 780 422 780 Q563 780 649 696 Q694 651 719 587 L596 553 Q573 618 529 647 Q485 676 405 676 Q308 676 246 612 Q169 532 169 376 Q169 218 239 134 Q302 62 421 62 Q523 62 601 111 L601 288 L539 288 Q471 288 444 284 L444 395 Q478 390 557 390 L609 390 Q671 390 719 394 Q713 350 713 277 L713 171 Z" /><glyph glyph-name="J" unicode="j" d="M506 760 Q499 713 499 638 L499 185 Q499 82 447 25 Q384 -43 257 -43 Q127 -43 58 30 Q31 60 5 116 L123 159 Q141 103 178 80 Q209 59 258 59 Q320 59 352 94 Q378 124 378 187 L378 638 Q378 715 371 760 L506 760 Z" /><glyph glyph-name="M" unicode="m" d="M436 -28 Q430 12 392 103 L247 450 Q224 505 174 680 Q188 494 188 443 L188 111 Q188 16 195 -28 L72 -28 Q79 17 79 111 L79 619 Q79 713 72 760 L241 760 Q251 710 277 645 L490 125 L702 645 Q728 709 737 760 L907 760 Q900 704 900 619 L900 111 Q900 13 907 -28 L784 -28 Q791 19 791 111 L791 447 Q796 553 805 691 Q765 530 737 457 L586 102 Q552 23 542 -28 L436 -28 Z" /><glyph glyph-name="P" unicode="p" d="M72 -28 Q79 17 79 94 L79 641 Q79 711 72 762 Q128 760 191 760 L402 760 Q542 760 612 690 Q672 632 672 523 Q672 411 607 342 Q536 272 397 272 L196 272 L196 95 Q196 15 203 -28 L72 -28 ZM397 372 Q549 372 549 518 Q549 584 513 621 Q478 660 397 660 L196 660 L196 372 L397 372 Z" /><glyph glyph-name="Q" unicode="q" d="M696 -95 Q682 -76 601 5 Q514 -45 414 -45 Q254 -45 157 54 Q45 168 45 363 Q45 551 147 664 Q249 776 417 776 Q585 776 684 666 Q784 555 784 368 Q784 269 752 184 Q729 128 673 62 L706 29 Q737 1 766 -22 L696 -95 ZM508 224 Q522 207 588 142 Q658 228 658 370 Q658 528 575 611 Q511 675 414 675 Q318 675 252 611 Q169 528 169 365 Q169 225 236 141 Q303 56 416 56 Q468 56 521 82 Q467 134 438 156 L508 224 Z" /><glyph glyph-name="a" unicode="a" d="M446 49 Q383 -10 329 -25 Q287 -37 237 -37 Q147 -37 97 7 Q47 49 47 125 Q47 235 157 281 Q242 317 446 321 L446 380 Q446 477 322 477 Q252 477 212 446 Q185 427 171 384 L59 405 Q84 470 132 504 Q200 554 320 554 Q455 554 514 497 Q558 454 558 363 L558 91 Q558 25 565 -27 L446 -27 L446 49 ZM446 249 Q292 246 228 218 Q162 190 162 125 Q162 40 262 40 Q350 40 408 96 Q446 134 446 190 L446 249 Z" /><glyph glyph-name="c" unicode="c" d="M463 361 Q450 396 432 418 Q393 467 322 467 Q243 467 199 409 Q153 353 153 256 Q153 158 200 101 Q246 44 326 44 Q407 44 449 104 Q463 126 469 150 L577 128 Q561 83 539 53 Q467 -46 323 -46 Q193 -46 116 35 Q38 116 38 253 Q38 395 122 481 Q194 555 319 555 Q466 555 539 449 Q556 423 570 386 L463 361 Z" /><glyph glyph-name="d" unicode="d" d="M516 14 Q516 36 519 78 Q433 -42 305 -42 Q203 -42 141 8 Q39 87 39 255 Q39 390 111 470 Q182 549 304 549 Q396 549 452 504 Q475 487 518 430 L516 488 Q515 495 515 531 L515 632 Q515 709 509 760 L633 760 Q627 701 627 633 L627 100 Q627 26 633 -28 L516 -28 L516 14 ZM154 254 Q154 161 202 105 Q248 50 328 50 Q419 50 470 120 Q511 173 511 260 Q511 344 460 400 Q406 459 323 459 Q245 459 199 402 Q154 347 154 254 Z" /><glyph glyph-name="e" unicode="e" d="M150 230 Q158 144 190 104 Q237 44 322 44 Q401 44 449 97 Q468 119 477 145 L580 112 Q556 61 524 29 Q447 -46 322 -46 Q191 -46 115 34 Q38 116 38 254 Q38 391 114 473 Q189 555 315 555 Q497 555 559 400 Q584 338 588 249 L589 230 L150 230 ZM476 314 Q464 388 428 424 Q385 467 313 467 Q251 467 208 429 Q165 389 152 314 L476 314 Z" /><glyph glyph-name="h" unicode="h" d="M188 760 Q183 715 183 635 L183 490 Q183 472 178 421 Q277 546 398 546 Q491 546 542 495 Q593 444 593 350 L593 95 Q593 13 599 -28 L471 -28 Q477 27 477 95 L477 320 Q477 391 446 425 Q416 457 370 457 Q253 457 183 301 L183 95 Q183 21 189 -28 L63 -28 Q69 21 69 95 L69 636 Q69 712 63 760 L188 760 Z" /><glyph glyph-name="i" unicode="i" d="M196 760 L196 648 L63 648 L63 760 L196 760 ZM193 536 Q188 492 188 411 L188 96 Q188 23 194 -28 L64 -28 Q71 24 71 95 L71 412 Q71 489 65 536 L193 536 Z" /><glyph glyph-name="k" unicode="k" d="M189 760 Q183 715 183 636 L183 284 L349 448 Q407 503 427 536 L591 536 Q549 498 505 457 L357 315 L531 76 Q601 -18 610 -28 L456 -28 Q443 6 390 83 L276 250 L183 162 L183 93 Q183 10 189 -28 L65 -28 Q71 21 71 95 L71 636 Q71 715 65 760 L189 760 Z" /><glyph glyph-name="m" unicode="m" d="M63 -27 Q69 25 69 96 L69 414 Q69 492 63 537 L181 537 L181 493 Q181 472 177 415 Q241 549 376 549 Q456 549 501 506 Q522 487 542 434 Q594 503 633 524 Q680 549 742 549 Q838 549 888 494 Q933 445 933 346 L933 96 Q933 20 940 -27 L811 -27 Q818 20 818 96 L818 323 Q818 460 711 460 Q660 460 623 428 Q573 385 557 297 L557 96 Q557 22 563 -27 L436 -27 Q442 21 442 96 L442 323 Q442 458 336 458 Q269 458 226 402 Q196 362 181 297 L181 96 Q181 29 187 -27 L63 -27 Z" /><glyph glyph-name="n" unicode="n" d="M63 -27 Q69 22 69 96 L69 414 Q69 490 63 537 L183 537 L183 491 Q183 473 178 422 Q276 547 395 547 Q508 547 560 475 Q593 430 593 339 L593 96 Q593 14 599 -27 L471 -27 Q477 28 477 96 L477 321 Q477 385 459 414 Q431 459 367 459 Q252 459 183 302 L183 96 Q183 22 189 -27 L63 -27 Z" /><glyph glyph-name="o" unicode="o" d="M332 -46 Q197 -46 118 34 Q38 116 38 254 Q38 392 118 473 Q197 554 331 554 Q465 554 543 474 Q622 393 622 256 Q622 119 542 36 Q463 -46 332 -46 ZM331 465 Q247 465 200 408 Q152 352 152 254 Q152 158 200 101 Q247 45 330 45 Q413 45 460 101 Q508 157 508 252 Q508 353 461 409 Q416 465 331 465 Z" /><glyph glyph-name="q" unicode="q" d="M632 538 Q626 486 626 410 L626 -98 Q626 -165 632 -223 L508 -223 Q514 -172 514 -97 L514 -19 Q514 5 518 83 Q431 -33 302 -33 Q185 -33 114 37 Q38 114 38 258 Q38 440 160 516 Q222 552 309 552 Q437 552 519 434 Q515 492 515 499 L515 538 L632 538 ZM153 256 Q153 166 199 112 Q244 57 320 57 Q435 57 485 152 Q510 200 510 264 Q510 349 459 405 Q407 460 329 460 Q248 460 201 404 Q153 349 153 256 Z" /><glyph glyph-name="s" unicode="s" d="M159 138 Q183 43 298 43 Q357 43 391 64 Q427 88 427 128 Q427 164 398 185 Q378 198 289 218 Q192 239 145 261 Q61 302 61 388 Q61 440 90 477 Q150 553 286 553 Q409 553 470 497 Q504 464 520 409 L403 394 Q388 473 286 473 Q236 473 206 453 Q173 430 173 394 Q173 359 208 340 Q236 326 311 309 Q444 280 486 248 Q541 208 541 130 Q541 66 495 22 Q426 -42 291 -42 Q137 -42 72 45 Q49 76 37 123 L159 138 Z" /><glyph glyph-name="z" unicode="z" d="M501 -33 Q452 -27 376 -27 L144 -27 Q65 -27 28 -29 L28 66 Q67 104 103 150 L298 396 Q317 420 339 442 L310 442 Q302 441 274 441 L171 441 Q96 441 48 435 L48 543 Q103 537 171 537 L367 537 Q459 537 481 539 L481 451 Q434 401 406 366 L215 125 L169 69 Q210 71 248 71 L377 71 Q456 71 501 77 L501 -33 Z" /><glyph glyph-name="quotedblleft" unicode="&#x201c;" d="M803 683 Q803 747 825 778 Q846 809 906 833 L942 780 Q897 767 882 748 Q868 730 866 683 L950 683 L950 537 L803 537 L803 683 ZM606 683 Q606 747 627 778 Q648 809 709 833 L745 780 Q700 767 685 748 Q671 730 669 683 L753 683 L753 537 L606 537 L606 683 Z" /><glyph glyph-name="quotedblright" unicode="&#x201d;" d="M196 683 Q196 619 175 588 Q154 557 93 533 L58 586 Q103 599 118 618 Q132 637 133 683 L49 683 L49 829 L196 829 L196 683 ZM393 683 Q393 619 372 588 Q351 557 290 533 L255 586 Q300 599 315 618 Q329 637 330 683 L246 683 L246 829 L393 829 L393 683 Z" /><glyph glyph-name="uni2F00" unicode="&#x2f00;&#x4e00;" d="M942 319 Q886 325 797 325 L199 325 Q124 325 53 319 L53 435 Q105 429 199 429 L797 429 Q895 429 942 434 L942 319 Z" /><glyph glyph-name="uni2F06" unicode="&#x2f06;&#x4e8c;" d="M154 711 Q205 705 283 705 L704 705 Q797 705 836 710 L836 600 Q792 605 705 605 L285 605 Q199 605 154 600 L154 711 ZM934 12 Q879 19 796 19 L204 19 Q118 19 60 12 L60 126 Q111 120 201 120 L793 120 Q876 120 934 126 L934 12 Z" /><glyph glyph-name="uni2F08" unicode="&#x2f08;&#x4eba;" d="M543 803 Q538 782 538 718 Q538 483 638 306 Q700 199 800 112 Q875 45 948 6 Q909 -34 880 -92 Q727 14 633 140 Q547 254 491 442 Q460 309 406 210 Q350 109 252 19 Q188 -41 104 -92 Q77 -37 36 -1 Q163 66 249 164 Q435 380 435 726 Q435 777 432 803 L543 803 Z" /><glyph glyph-name="uni2F0A" unicode="&#x2f0a;&#x5165;" d="M346 809 Q441 758 494 698 Q546 639 573 567 Q582 547 614 454 Q685 247 771 151 Q829 85 952 11 Q907 -31 877 -85 Q727 11 646 132 Q578 232 495 481 Q435 299 370 195 Q319 112 231 23 Q170 -38 102 -86 Q82 -43 30 5 Q145 76 221 163 Q362 321 438 605 Q390 672 281 733 L346 809 Z" /><glyph glyph-name="uni2F0B" unicode="&#x2f0b;&#x516b;" d="M358 764 L355 740 L353 693 Q353 627 337 508 Q306 286 221 102 Q176 6 116 -76 Q67 -25 25 0 Q89 77 129 157 Q247 403 247 728 Q247 750 244 771 L358 764 ZM720 806 L719 767 Q719 658 739 531 Q764 353 830 210 Q873 116 962 3 Q905 -37 872 -75 Q737 108 685 282 Q646 405 632 521 Q625 573 615 716 L609 800 L720 806 Z" /><glyph glyph-name="uni2F12" unicode="&#x2f12;&#x529b;" d="M484 525 Q474 440 464 391 Q418 171 280 43 Q209 -24 112 -78 Q84 -24 40 13 Q236 99 317 263 Q360 349 382 525 L197 525 Q123 525 80 519 L80 622 Q122 616 200 616 L388 616 Q390 685 390 730 Q390 796 386 817 L501 817 Q498 801 491 616 L755 616 Q843 616 876 620 Q873 591 871 477 Q865 218 848 103 Q831 -15 793 -43 Q756 -68 674 -68 Q618 -68 530 -58 Q522 3 507 46 Q595 29 668 29 Q707 29 725 49 Q741 69 750 121 Q771 246 773 525 L484 525 Z" /><glyph glyph-name="uni2F17" unicode="&#x2f17;&#x5341;" d="M823 472 Q891 472 944 477 L944 369 Q889 374 823 374 L540 374 L540 32 Q540 -53 546 -102 L428 -102 Q434 -35 434 32 L434 374 L167 374 Q98 374 49 369 L49 477 Q101 472 167 472 L434 472 L434 700 Q434 775 428 820 L546 820 Q540 775 540 700 L540 472 L823 472 Z" /><glyph glyph-name="uni2F20" unicode="&#x2f20;&#x58eb;" d="M807 520 Q884 520 939 527 L939 419 Q884 425 811 425 L542 425 L542 47 L765 47 Q849 47 884 52 L884 -52 Q848 -47 766 -47 L226 -47 Q153 -47 107 -52 L107 52 Q149 47 225 47 L436 47 L436 425 L194 425 Q116 425 55 419 L55 527 Q109 520 194 520 L436 520 L436 704 Q436 765 431 811 L548 811 Q542 765 542 703 L542 520 L807 520 Z" /><glyph glyph-name="uni2F24" unicode="&#x2f24;&#x5927;" d="M538 481 Q580 326 688 203 Q796 81 959 13 Q922 -30 895 -88 Q737 -7 632 116 Q554 210 496 354 Q439 176 327 65 Q230 -30 95 -89 Q74 -42 34 3 Q121 38 189 86 Q384 224 420 481 L173 481 Q92 481 55 476 L55 585 Q89 579 174 579 L429 579 Q432 675 432 696 Q432 766 427 799 L541 799 Q536 767 535 689 Q535 666 533 579 L809 579 Q888 579 928 585 L928 475 Q880 481 810 481 L538 481 Z" /><glyph glyph-name="uni2F26" unicode="&#x2f26;&#x5b50;" d="M815 419 Q901 419 944 424 L944 320 Q894 325 815 325 L560 325 L560 22 Q560 -41 530 -60 Q498 -81 398 -81 Q378 -81 293 -78 Q283 -10 268 26 Q336 16 401 16 Q435 16 444 22 Q458 28 458 50 L458 325 L178 325 Q104 325 49 319 L49 424 Q97 419 181 419 L458 419 L458 471 Q458 514 455 540 L501 540 Q583 588 692 685 L268 685 Q199 685 154 680 L154 781 Q199 776 267 776 L724 776 Q788 776 809 781 L867 716 L777 632 Q692 553 560 475 L560 419 L815 419 Z" /><glyph glyph-name="uni2F29" unicode="&#x2f29;&#x5c0f;" d="M552 804 Q548 767 548 689 L548 22 Q548 -45 510 -66 Q484 -82 409 -82 Q364 -82 287 -78 Q280 -22 261 23 Q338 12 391 12 Q444 12 444 44 L444 690 Q444 767 439 804 L552 804 ZM775 595 Q864 416 964 139 L864 79 Q830 200 774 342 Q730 457 680 553 L775 595 ZM298 563 L290 535 Q230 260 114 80 Q65 120 21 143 Q175 353 193 590 L298 563 Z" /><glyph glyph-name="uni2F2D" unicode="&#x2f2d;&#x5c71;" d="M800 64 L800 537 Q800 591 795 626 L903 626 Q898 583 898 537 L898 26 Q898 -41 904 -90 L800 -90 L800 -30 L204 -30 Q145 -30 88 -35 Q93 16 93 76 L93 534 Q93 589 88 626 L195 626 Q191 600 191 535 L191 64 L436 64 L436 714 Q436 773 431 807 L544 807 Q538 768 538 714 L538 64 L800 64 Z" /><glyph glyph-name="uni2F2F" unicode="&#x2f2f;&#x5de5;" d="M541 79 L820 79 Q901 79 949 85 L949 -19 Q906 -13 820 -13 L176 -13 Q98 -13 47 -19 L47 85 Q96 79 178 79 L438 79 L438 636 L226 636 Q155 636 104 631 L104 732 Q149 727 227 727 L771 727 Q844 727 893 732 L893 631 Q840 636 772 636 L541 636 L541 79 Z" /><glyph glyph-name="uni2F30" unicode="&#x2f30;&#x5df1;" d="M745 773 Q797 773 846 777 Q843 743 843 678 L843 454 Q843 394 846 368 Q803 371 750 371 L227 371 L227 85 Q227 40 263 28 Q304 16 515 16 Q692 16 758 30 Q808 40 823 74 Q838 106 843 202 Q888 181 937 172 Q926 63 909 22 Q881 -46 793 -58 Q703 -73 539 -73 Q249 -73 198 -56 Q127 -34 127 51 L127 369 Q127 432 124 462 Q164 458 227 458 L743 458 L743 684 L232 684 Q152 684 109 679 L109 778 Q152 773 232 773 L745 773 Z" /><glyph glyph-name="uni2F32" unicode="&#x2f32;&#x5e72;" d="M539 452 L818 452 Q905 452 941 458 L941 353 Q900 359 820 359 L539 359 L539 23 Q539 -49 545 -96 L431 -96 Q437 -49 437 23 L437 359 L176 359 Q99 359 52 353 L52 458 Q93 452 175 452 L437 452 L437 687 L226 687 Q161 687 110 682 L110 787 Q158 782 225 782 L765 782 Q832 782 881 787 L881 682 Q832 687 766 687 L539 687 L539 452 Z" /><glyph glyph-name="uni2F34" unicode="&#x2f34;&#x5e7f;" d="M498 690 Q472 745 444 785 L538 822 Q587 751 608 690 L816 690 Q888 690 925 695 L925 595 Q875 600 814 600 L244 600 L244 525 Q243 89 116 -99 Q84 -57 33 -24 Q90 62 114 177 Q142 298 142 563 Q142 657 138 694 Q173 690 246 690 L498 690 Z" /><glyph glyph-name="uni2F3F" unicode="&#x2f3f;&#x624b;" d="M556 532 L773 532 Q850 532 891 537 L891 442 Q848 447 775 447 L556 447 L556 308 L822 308 Q896 308 937 313 L937 217 Q893 223 822 223 L556 223 L556 16 Q556 -48 521 -63 Q485 -78 411 -78 Q358 -78 281 -72 Q276 -20 257 21 Q356 8 410 8 Q459 8 459 48 L459 223 L169 223 Q98 223 53 217 L53 313 Q95 308 169 308 L459 308 L459 447 L225 447 Q150 447 107 442 L107 537 Q149 532 224 532 L459 532 L459 669 Q436 666 384 662 Q301 654 142 650 Q130 692 110 738 L148 738 Q393 738 601 772 Q726 792 785 819 L856 732 Q719 695 556 678 L556 532 Z" /><glyph glyph-name="uni2F40" unicode="&#x2f40;&#x652f;" d="M814 687 Q891 687 929 692 L929 596 Q895 600 815 600 L535 600 L535 455 L679 455 Q741 455 762 459 L821 400 Q800 374 773 332 Q698 221 582 128 Q738 38 945 6 Q920 -30 899 -95 Q754 -62 658 -19 Q566 23 498 69 Q306 -50 92 -91 Q75 -45 45 1 Q245 30 421 125 Q294 229 219 373 Q162 372 127 368 L127 460 Q161 455 241 455 L434 455 L434 600 L170 600 Q95 600 56 595 L56 692 Q96 687 171 687 L434 687 L434 735 Q434 787 430 816 L539 816 Q535 795 535 735 L535 687 L814 687 ZM320 373 Q333 357 334 353 Q392 257 502 178 Q612 262 681 373 L320 373 Z" /><glyph glyph-name="uni2F42" unicode="&#x2f42;&#x6587;" d="M769 576 Q732 448 689 369 Q640 278 565 193 Q736 61 957 12 Q923 -29 897 -92 Q656 -12 496 127 Q408 52 293 -8 Q214 -49 86 -92 Q65 -40 31 2 Q278 69 427 193 Q343 289 302 360 Q252 446 210 576 L157 576 Q88 576 42 571 L42 667 Q86 661 160 661 L452 661 Q426 731 396 785 L499 816 Q537 746 565 661 L824 661 Q900 661 943 667 L943 571 Q897 576 828 576 L769 576 ZM310 576 Q343 469 391 391 Q435 320 494 257 Q554 323 593 392 Q633 462 666 576 L310 576 Z" /><glyph glyph-name="uni2F45" unicode="&#x2f45;&#x65b9;" d="M456 669 Q426 739 394 791 L497 825 Q542 749 569 669 L819 669 Q899 669 938 675 L938 571 Q901 576 823 576 L446 576 Q441 493 435 451 L724 451 Q800 451 820 455 Q817 431 816 383 Q810 145 781 31 Q765 -38 735 -62 Q705 -84 631 -84 Q593 -84 503 -78 Q499 -23 480 21 Q547 9 617 9 Q655 9 670 27 Q682 42 694 97 Q709 173 717 361 L423 361 Q364 75 108 -93 Q79 -42 38 -9 Q147 59 210 136 Q310 256 331 445 Q338 500 339 576 L165 576 Q90 576 47 571 L47 675 Q88 669 165 669 L456 669 Z" /><glyph glyph-name="uni2F46" unicode="&#x2f46;&#x65e0;" d="M488 400 Q445 213 336 90 Q254 -2 100 -91 Q78 -52 29 1 Q171 71 254 157 Q346 253 390 400 L164 400 Q99 400 56 394 L56 495 Q96 490 164 490 L408 490 Q420 579 423 686 L206 686 Q140 686 98 681 L98 782 Q135 777 206 777 L778 777 Q848 777 886 782 L886 681 Q849 686 778 686 L519 686 Q515 575 504 490 L819 490 Q886 490 927 495 L927 395 Q889 400 820 400 L610 400 L610 52 Q610 27 632 19 Q649 14 709 14 Q827 14 840 47 Q855 83 856 198 Q895 178 948 167 Q942 78 935 39 Q919 -39 879 -58 Q838 -78 715 -78 Q589 -78 550 -62 Q515 -47 515 3 L515 400 L488 400 Z" /><glyph glyph-name="uni2F47" unicode="&#x2f47;&#x65e5;" d="M153 673 Q153 726 148 772 Q179 768 252 768 L740 768 Q813 768 840 772 Q836 734 836 678 L836 26 Q836 -42 841 -88 L736 -88 L736 -28 L251 -28 L251 -88 L148 -88 Q153 -45 153 26 L153 673 ZM251 427 L736 427 L736 677 L251 677 L251 427 ZM251 62 L736 62 L736 337 L251 337 L251 62 Z" /><glyph glyph-name="uni2F4C" unicode="&#x2f4c;&#x6b62;" d="M493 694 Q493 770 488 803 L599 803 Q594 759 594 694 L594 490 L784 490 Q847 490 893 495 L893 393 Q839 397 784 397 L594 397 L594 35 L826 35 Q895 35 945 40 L945 -65 Q890 -59 826 -59 L172 -59 Q106 -59 51 -65 L51 40 Q105 35 172 35 L209 35 L209 510 Q209 580 204 624 L315 624 Q310 578 310 510 L310 35 L493 35 L493 694 Z" /><glyph glyph-name="uni2F50" unicode="&#x2f50;&#x6bd4;" d="M131 692 Q131 766 126 797 L234 797 Q229 768 229 692 L229 516 L388 516 Q453 516 477 520 L477 420 Q455 425 388 425 L229 425 L229 41 Q364 81 472 123 L470 27 Q376 -11 130 -90 L94 3 Q129 19 131 74 L131 692 ZM632 456 L672 479 Q823 567 879 642 L945 564 Q935 556 915 540 Q793 442 632 357 L632 43 Q632 19 654 14 Q670 9 726 9 Q823 9 839 30 Q859 57 860 224 Q906 200 952 187 Q941 -3 906 -43 Q873 -79 719 -79 Q601 -79 569 -62 Q536 -44 536 15 L536 690 Q536 769 532 796 L637 796 Q632 765 632 690 L632 456 Z" /><glyph glyph-name="uni2F51" unicode="&#x2f51;&#x6bdb;" d="M483 522 L761 549 Q839 556 868 563 L874 472 Q872 472 859 472 Q831 472 768 466 L483 438 L483 306 L818 334 Q894 341 926 348 L931 254 Q927 254 911 254 Q881 254 824 249 L483 220 L483 58 Q483 24 515 14 Q542 6 647 6 Q752 6 787 13 Q825 18 838 41 Q851 69 851 149 L851 161 Q895 141 941 134 Q935 -20 886 -51 Q842 -78 627 -78 Q468 -78 420 -52 Q388 -33 388 33 L388 211 L160 191 Q86 184 52 178 L46 272 Q49 272 64 272 Q80 272 153 277 L388 298 L388 428 L204 410 Q129 403 96 397 L91 489 Q93 489 106 489 Q137 489 198 494 L388 512 L388 640 Q272 623 105 611 Q93 659 74 697 Q554 711 761 822 L824 739 L763 722 Q634 682 483 654 L483 522 Z" /><glyph glyph-name="uni2F52" unicode="&#x2f52;&#x6c0f;" d="M807 464 Q868 464 920 469 L920 368 Q873 373 807 373 L603 373 Q637 222 701 128 Q765 34 808 34 Q833 34 844 77 Q852 109 854 143 L857 177 Q895 143 944 124 Q930 30 909 -15 Q877 -79 818 -79 Q720 -79 616 77 Q535 196 506 373 L237 373 L237 42 Q412 84 504 112 L507 16 Q464 3 250 -59 Q179 -80 141 -92 L103 3 Q133 17 137 60 L137 634 Q137 693 134 724 Q135 724 148 724 Q415 724 648 770 Q749 791 792 814 L864 725 L820 714 Q722 689 579 669 Q585 518 589 464 L807 464 ZM494 464 Q489 514 482 658 Q445 654 237 638 L237 464 L494 464 Z" /><glyph glyph-name="uni2F53" unicode="&#x2f53;&#x6c14;" d="M768 727 Q846 727 886 732 L886 641 Q845 646 768 646 L253 646 Q233 610 206 569 Q246 566 286 566 L710 566 Q787 566 809 570 L809 485 Q783 489 710 489 L306 489 Q244 489 218 485 L218 587 Q156 500 101 442 Q75 483 30 510 Q147 616 212 760 Q229 802 234 832 L333 806 L332 804 Q324 789 316 770 Q312 760 305 747 L296 727 L768 727 ZM198 328 Q120 328 90 323 L90 411 Q117 407 169 407 L657 407 Q733 407 764 410 Q761 385 761 317 Q761 150 804 62 Q829 10 849 10 Q879 10 881 154 Q906 129 954 114 Q946 22 925 -36 Q902 -99 850 -99 Q801 -99 757 -40 Q675 69 669 328 L198 328 Z" /><glyph glyph-name="uni2F54" unicode="&#x2f54;&#x6c34;" d="M544 638 Q559 555 616 443 Q769 578 809 662 L897 594 Q894 591 882 576 Q775 456 664 366 Q722 284 784 225 Q864 149 952 103 Q913 64 877 8 Q779 77 712 152 Q614 265 536 458 Q544 294 544 254 L545 13 Q545 -42 521 -62 Q496 -83 428 -83 Q364 -83 305 -79 Q299 -23 282 20 Q348 11 405 11 Q446 11 446 43 L446 710 Q446 775 440 808 L549 808 Q544 772 544 709 L544 638 ZM400 528 Q394 514 380 464 Q335 308 253 180 Q185 78 108 13 Q68 59 26 87 Q101 141 164 225 Q249 338 288 485 L151 485 Q85 485 58 481 L58 585 Q83 581 158 581 L264 581 Q328 581 350 585 L400 528 Z" /><glyph glyph-name="uni2F5A" unicode="&#x2f5a;&#x7247;" d="M538 578 L538 706 Q538 772 532 816 L641 816 Q637 783 637 706 L637 578 L813 578 Q893 578 927 584 L927 484 Q890 489 813 489 L262 489 L262 467 Q262 410 255 329 L604 329 Q667 329 699 332 Q695 304 695 240 L695 19 Q695 -63 700 -101 L587 -101 Q592 -55 592 20 L592 240 L246 240 Q216 38 118 -94 Q82 -43 38 -12 Q96 52 129 159 Q167 285 167 487 L167 685 Q167 757 162 803 L268 803 Q262 752 262 689 L262 578 L538 578 Z" /><glyph glyph-name="uni2F5F" unicode="&#x2f5f;&#x7389;" d="M537 444 L736 444 Q798 444 845 449 L845 350 Q809 354 737 354 L537 354 L537 47 L829 47 Q908 47 941 52 L941 -51 Q893 -45 822 -45 L182 -45 Q106 -45 55 -51 L55 52 Q88 47 180 47 L436 47 L436 354 L266 354 Q186 354 150 350 L150 449 Q185 444 266 444 L436 444 L436 670 L218 670 Q139 670 93 665 L93 767 Q128 761 218 761 L776 761 Q864 761 904 767 L904 665 Q851 670 779 670 L537 670 L537 444 ZM707 309 Q791 220 848 141 L768 82 Q703 176 630 257 L707 309 Z" /><glyph glyph-name="uni2F63" unicode="&#x2f63;&#x751f;" d="M455 616 L455 701 Q455 770 449 814 L560 814 Q555 773 555 702 L555 616 L773 616 Q848 616 901 622 L901 528 Q845 534 776 534 L555 534 L555 332 L737 332 Q813 332 854 337 L854 244 Q808 249 737 249 L555 249 L555 19 L805 19 Q890 19 937 25 L937 -72 Q879 -66 808 -66 L190 -66 Q113 -66 55 -72 L55 25 Q107 19 187 19 L455 19 L455 249 L291 249 Q220 249 177 244 L177 337 Q217 332 290 332 L455 332 L455 534 L235 534 Q176 410 104 327 Q73 373 33 400 Q144 513 199 692 Q216 749 220 778 L319 754 Q319 754 312 737 Q310 731 302 703 Q277 632 269 616 L455 616 Z" /><glyph glyph-name="uni2F64" unicode="&#x2f64;&#x7528;" d="M550 45 Q550 -39 554 -67 L453 -67 Q458 -30 458 44 L458 219 L210 219 Q189 20 113 -96 Q72 -57 28 -27 Q88 60 108 192 Q128 323 128 649 Q128 739 124 782 Q162 778 231 778 L797 778 Q872 778 905 781 Q901 745 901 676 L901 13 Q901 -46 875 -65 Q848 -84 764 -84 Q714 -84 658 -81 Q653 -39 635 7 Q705 1 750 1 Q784 1 795 7 Q808 13 808 34 L808 219 L550 219 L550 45 ZM808 303 L808 457 L550 457 L550 303 L808 303 ZM458 457 L219 457 L215 303 L458 303 L458 457 ZM808 540 L808 688 L550 688 L550 540 L808 540 ZM458 688 L222 688 L221 540 L458 540 L458 688 Z" /><glyph glyph-name="uni2F69" unicode="&#x2f69;&#x767d;" d="M756 684 Q826 684 863 688 Q859 637 859 572 L859 36 Q859 -44 864 -89 L760 -89 L760 -37 L231 -37 L231 -89 L129 -89 Q134 -44 134 38 L134 573 Q134 642 130 688 Q164 684 232 684 L376 684 Q423 766 436 822 L547 807 L536 783 Q515 737 484 684 L756 684 ZM231 375 L760 375 L760 594 L231 594 L231 375 ZM231 56 L760 56 L760 285 L231 285 L231 56 Z" /><glyph glyph-name="uni2F6C" unicode="&#x2f6c;&#x76ee;" d="M743 775 Q815 775 842 779 Q838 738 838 684 L838 22 Q838 -47 843 -92 L739 -92 L739 -36 L251 -36 L251 -92 L147 -92 Q152 -49 152 14 L152 680 Q152 733 147 779 Q179 775 252 775 L743 775 ZM739 539 L739 683 L251 683 L251 539 L739 539 ZM251 303 L739 303 L739 449 L251 449 L251 303 ZM251 55 L739 55 L739 213 L251 213 L251 55 Z" /><glyph glyph-name="uni2F70" unicode="&#x2f70;&#x793a;" d="M553 28 Q553 -44 523 -63 Q497 -81 408 -81 Q345 -81 300 -78 Q296 -22 278 17 Q339 8 392 8 Q429 8 439 13 Q452 19 452 41 L452 443 L171 443 Q106 443 58 438 L58 540 Q92 535 172 535 L814 535 Q882 535 928 540 L928 438 Q879 443 815 443 L553 443 L553 28 ZM829 674 Q785 679 715 679 L264 679 Q204 679 152 674 L152 771 Q200 766 265 766 L716 766 Q783 766 829 771 L829 674 ZM325 330 Q260 132 128 -14 Q94 25 45 51 Q178 169 231 363 L325 330 ZM747 366 Q875 190 950 41 L862 -19 Q781 157 664 322 L747 366 Z" /><glyph glyph-name="uni2F74" unicode="&#x2f74;&#x7acb;" d="M476 666 Q427 737 377 781 L458 829 Q504 791 563 713 L494 666 L789 666 Q875 666 910 671 L910 569 Q869 574 789 574 L201 574 Q122 574 82 569 L82 671 Q116 666 201 666 L476 666 ZM827 45 Q905 45 947 50 L947 -53 Q907 -47 827 -47 L169 -47 Q83 -47 46 -53 L46 50 Q91 45 169 45 L532 45 Q661 318 686 526 L797 494 Q793 485 767 405 Q708 206 633 45 L827 45 ZM296 517 Q350 373 407 140 L309 105 Q270 316 203 484 L296 517 Z" /><glyph glyph-name="uni2F79" unicode="&#x2f79;&#x7f51;" d="M723 143 Q707 183 668 246 Q603 96 523 11 Q487 58 456 74 Q558 167 613 328 Q557 408 490 480 L542 532 Q586 485 638 418 Q673 565 673 634 L765 618 Q758 597 750 550 Q730 429 700 336 Q749 267 789 202 L723 143 ZM168 84 Q279 207 326 340 Q272 414 203 483 L253 537 Q291 500 353 428 Q373 511 382 584 Q386 613 386 645 L478 629 L473 612 Q471 606 434 425 Q428 396 414 351 Q453 304 514 216 L450 159 Q425 202 382 264 Q332 148 249 37 Q219 78 168 110 L168 20 Q168 -66 172 -96 L73 -96 Q78 -47 78 23 L78 683 Q78 747 75 783 Q111 779 195 779 L806 779 Q888 779 921 783 Q917 751 917 671 L917 9 Q917 -38 893 -60 Q866 -82 766 -82 Q727 -82 665 -79 Q656 -27 638 13 Q710 3 786 3 Q809 3 818 9 Q827 17 827 38 L827 694 L168 694 L168 84 Z" /><glyph glyph-name="uni2F7C" unicode="&#x2f7c;&#x8001;" d="M692 611 Q781 711 806 763 L897 710 L875 684 Q786 577 697 494 L827 494 Q897 494 934 499 L934 404 Q888 409 822 409 L597 409 Q500 333 379 259 L379 199 Q531 236 660 286 Q727 313 753 330 L825 251 L818 248 Q811 246 783 234 Q720 208 605 173 Q498 142 379 115 L379 51 Q379 18 416 11 Q447 4 570 4 Q732 4 755 28 Q776 48 779 155 Q824 131 873 120 Q861 -29 819 -59 Q779 -84 531 -84 Q364 -84 322 -66 Q282 -49 282 18 L282 205 Q186 157 88 117 Q69 161 32 203 Q234 269 453 409 L162 409 Q93 409 48 404 L48 499 Q85 494 162 494 L397 494 L397 612 L236 612 Q156 612 127 609 L127 702 Q161 697 237 697 L397 697 L397 735 Q397 784 392 815 L497 815 Q493 793 493 733 L493 697 L589 697 Q657 697 692 702 L692 611 ZM565 494 Q625 544 690 609 Q652 612 597 612 L493 612 L493 494 L565 494 Z" /><glyph glyph-name="uni2F7D" unicode="&#x2f7d;&#x800c;" d="M545 694 Q517 606 497 562 L813 562 Q868 562 902 565 Q898 536 898 473 L898 7 Q898 -51 874 -70 Q849 -89 771 -89 Q738 -89 718 -88 Q715 -36 699 5 Q735 0 765 0 Q804 0 804 34 L804 475 L653 475 L653 28 Q653 -33 656 -63 L562 -63 Q566 -23 566 34 L566 475 L422 475 L422 34 Q422 -26 426 -65 L331 -65 Q335 -33 335 33 L335 475 L190 475 L190 29 Q190 -64 195 -96 L91 -96 Q97 -52 97 30 L97 472 Q97 533 93 564 Q122 562 176 562 L395 562 Q427 627 444 694 L160 694 Q76 694 44 690 L44 784 Q89 779 160 779 L832 779 Q901 779 948 784 L948 689 Q901 694 832 694 L545 694 Z" /><glyph glyph-name="uni2F83" unicode="&#x2f83;&#x81ea;" d="M734 693 Q813 693 849 697 Q845 664 845 582 L845 17 Q845 -63 850 -93 L752 -93 L752 -41 L236 -41 L236 -93 L140 -93 Q145 -63 145 17 L145 582 Q145 662 141 697 Q176 693 255 693 L383 693 Q419 765 431 826 L540 815 Q517 754 487 693 L734 693 ZM237 476 L753 476 L753 606 L237 606 L237 476 ZM237 264 L753 264 L753 395 L237 395 L237 264 ZM237 45 L753 45 L753 183 L237 183 L237 45 Z" /><glyph glyph-name="uni2F84" unicode="&#x2f84;&#x81f3;" d="M465 693 Q383 585 289 498 Q546 507 704 520 Q658 569 606 612 L676 656 Q811 542 903 430 L827 373 Q794 416 769 448 Q563 431 430 425 Q242 416 147 409 L128 496 Q163 504 213 540 Q288 606 354 693 L190 693 Q125 693 74 688 L74 783 Q113 778 190 778 L809 778 Q879 778 926 783 L926 688 Q880 693 814 693 L465 693 ZM734 277 Q808 277 847 281 L847 189 Q802 193 738 193 L538 193 L538 22 L826 22 Q894 22 943 27 L943 -68 Q894 -63 827 -63 L172 -63 Q104 -63 56 -68 L56 27 Q102 22 174 22 L442 22 L442 193 L257 193 Q193 193 148 189 L148 282 Q184 277 257 277 L442 277 L442 328 Q442 361 439 389 L542 389 Q538 361 538 329 L538 277 L734 277 Z" /><glyph glyph-name="uni2F8A" unicode="&#x2f8a;&#x8272;" d="M782 551 Q834 551 864 555 Q861 531 861 488 L861 301 Q861 260 864 234 Q826 238 784 238 L245 238 L245 69 Q245 32 278 22 Q319 11 531 11 Q768 11 802 34 Q829 54 830 166 Q877 143 930 134 Q923 40 909 2 Q895 -34 861 -48 Q799 -74 534 -74 Q242 -74 185 -46 Q149 -28 149 36 L149 487 Q93 448 79 440 Q61 489 28 522 Q161 597 254 720 Q304 785 319 829 L422 811 Q422 810 407 786 Q398 769 384 752 L568 752 Q650 752 665 757 L721 711 Q723 713 687 668 Q635 601 587 551 L782 551 ZM472 551 Q521 595 580 674 L333 674 Q291 616 221 551 L472 551 ZM245 469 L245 318 L452 318 L452 469 L245 469 ZM767 318 L767 469 L539 469 L539 318 L767 318 Z" /><glyph glyph-name="uni2F8D" unicode="&#x2f8d;&#x866b;" d="M441 266 L254 266 Q200 266 127 260 Q131 309 131 367 L131 549 Q131 622 127 651 Q176 647 268 647 L441 647 L441 712 Q441 772 436 808 L543 808 Q537 774 537 711 L537 647 L730 647 Q813 647 867 651 Q862 607 862 550 L862 364 Q862 310 867 262 Q826 266 735 266 L537 266 L537 65 Q624 73 754 94 L691 180 L772 218 Q875 81 950 -48 L862 -95 Q834 -38 803 15 Q476 -39 164 -60 Q113 -63 87 -67 L71 37 Q97 35 124 35 Q219 35 441 56 L441 266 ZM441 564 L225 564 L225 348 L441 348 L441 564 ZM537 348 L768 348 L768 564 L537 564 L537 348 Z" /><glyph glyph-name="uni2F8E" unicode="&#x2f8e;&#x8840;" d="M770 661 Q839 661 873 665 Q869 630 869 559 L869 43 L901 43 Q945 43 964 46 L964 -49 Q915 -44 842 -44 L160 -44 Q88 -44 35 -49 L35 46 Q55 43 97 43 L128 43 L128 562 Q128 620 123 665 Q159 661 230 661 L379 661 Q421 738 439 812 L546 799 Q512 717 481 661 L770 661 ZM222 579 L222 43 L347 43 L347 579 L222 579 ZM434 579 L434 43 L560 43 L560 579 L434 579 ZM646 43 L774 43 L774 579 L646 579 L646 43 Z" /><glyph glyph-name="uni2F8F" unicode="&#x2f8f;&#x884c;" d="M790 15 Q790 -49 759 -68 Q731 -85 645 -85 Q607 -85 541 -83 Q534 -27 518 13 Q591 3 643 3 Q676 3 685 9 Q696 15 696 36 L696 425 L495 425 Q418 425 379 420 L379 514 Q416 509 495 509 L838 509 Q923 509 954 514 L954 420 Q913 425 841 425 L790 425 L790 15 ZM347 763 L322 735 Q227 621 99 539 Q78 582 45 620 Q147 676 219 756 Q250 793 265 820 L347 763 ZM419 771 Q453 766 529 766 L802 766 Q872 766 909 771 L909 677 Q865 682 804 682 L529 682 Q461 682 419 677 L419 771 ZM179 199 Q179 243 181 339 Q125 272 85 244 Q70 290 41 336 Q220 451 282 593 L361 541 Q353 533 334 503 Q302 456 274 423 L274 22 Q274 -60 280 -98 L173 -98 Q179 -63 179 23 L179 199 Z" /><glyph glyph-name="uni2F9D" unicode="&#x2f9d;&#x8eab;" d="M778 374 Q866 462 882 490 L947 416 Q925 396 914 382 Q854 316 778 255 L778 2 Q778 -48 750 -66 Q721 -85 637 -85 L535 -82 Q532 -38 513 11 Q570 2 616 2 Q657 2 669 7 Q686 13 686 32 L686 184 Q562 100 445 41 Q273 -43 111 -89 Q90 -39 62 -3 Q319 61 566 210 L206 210 Q121 210 73 205 L73 299 Q103 295 201 294 L201 647 Q201 695 199 735 Q231 732 298 732 L384 732 Q414 784 430 830 L530 817 Q509 774 481 732 L683 732 Q755 732 781 735 Q778 708 778 634 L778 374 ZM686 582 L686 655 L293 655 L293 582 L686 582 ZM293 513 L293 439 L686 439 L686 513 L293 513 ZM293 370 L293 294 L686 294 L686 370 L293 370 Z" /><glyph glyph-name="uni2FA6" unicode="&#x2fa6;&#x91d1;" d="M553 809 L541 790 Q624 702 692 654 Q819 564 965 515 Q936 478 915 424 Q830 456 734 511 L734 457 Q708 461 643 461 L532 461 L532 347 L797 347 Q867 347 898 351 L898 258 Q866 263 796 263 L532 263 L532 20 L815 20 Q884 20 925 25 L925 -72 Q881 -66 813 -66 L175 -66 Q108 -66 57 -72 L57 26 Q103 20 174 20 L436 20 L436 263 L189 263 Q125 263 88 258 L88 352 Q122 347 190 347 L436 347 L436 461 L334 461 Q273 461 244 457 L244 506 Q144 450 82 424 Q68 463 27 515 Q167 565 269 638 Q387 722 448 828 L553 809 ZM689 539 Q571 622 487 716 Q418 633 292 539 L689 539 ZM259 236 Q299 167 334 83 L248 48 Q221 132 175 201 L259 236 ZM802 200 Q794 185 757 111 Q755 106 719 46 L639 75 Q681 142 713 234 L802 200 Z" /><glyph glyph-name="uni2FAE" unicode="&#x2fae;&#x975e;" d="M841 671 Q913 671 936 675 L936 584 Q916 587 841 587 L653 587 L653 450 L821 450 Q894 450 916 454 L916 364 Q890 368 821 368 L653 368 L653 218 L851 218 Q925 218 948 221 L948 128 Q922 133 851 133 L653 133 L653 21 Q653 -63 657 -96 L555 -96 Q560 -64 560 21 L560 702 Q560 784 556 817 L657 817 Q653 788 653 702 L653 671 L841 671 ZM146 133 Q75 133 49 128 L49 221 Q73 218 146 218 L343 218 L343 368 L175 368 Q107 368 81 364 L81 454 Q103 450 175 450 L343 450 L343 587 L156 587 Q81 587 61 584 L61 675 Q84 671 156 671 L343 671 L343 702 Q343 788 339 817 L440 817 Q436 784 436 702 L436 21 Q436 -64 441 -96 L339 -96 Q343 -63 343 21 L343 133 L146 133 Z" /><glyph glyph-name="uni2FAF" unicode="&#x2faf;&#x9762;" d="M165 700 Q95 700 49 694 L49 788 Q95 783 164 783 L829 783 Q898 783 944 788 L944 694 Q898 700 829 700 L540 700 Q522 642 487 580 L803 580 Q880 580 913 584 Q908 547 908 463 L908 24 Q908 -59 913 -105 L816 -105 L816 -56 L178 -56 L178 -104 L81 -104 Q86 -62 86 25 L86 464 Q86 532 81 584 Q111 580 191 580 L382 580 Q410 635 434 700 L165 700 ZM394 215 L593 215 L593 322 L394 322 L394 215 ZM593 503 L394 503 L394 397 L593 397 L593 503 ZM394 26 L593 26 L593 140 L394 140 L394 26 ZM178 503 L178 26 L310 26 L310 503 L178 503 ZM678 26 L816 26 L816 503 L678 503 L678 26 Z" /><glyph glyph-name="uni2FBC" unicode="&#x2fbc;&#x9ad8;" d="M441 746 L409 803 L508 833 Q530 795 548 746 L843 746 Q902 746 941 751 L941 667 Q909 671 844 671 L148 671 Q84 671 52 667 L52 751 Q91 746 154 746 L441 746 ZM205 554 Q205 592 203 619 Q233 615 292 615 L712 615 Q765 615 793 619 Q791 589 791 554 L791 467 Q791 428 793 401 Q766 404 707 404 L289 404 Q233 404 203 401 Q205 424 205 467 L205 554 ZM294 472 L701 472 L701 550 L294 550 L294 472 ZM80 270 Q80 321 77 353 Q111 350 174 350 L826 350 Q891 350 917 353 Q914 321 914 271 L914 14 Q914 -48 893 -67 Q868 -90 776 -90 Q749 -90 719 -88 Q702 -86 693 -86 Q690 -33 677 -3 Q747 -11 785 -11 Q819 -11 819 19 L819 278 L175 278 L175 1 Q175 -68 180 -102 L75 -102 Q80 -77 80 1 L80 270 ZM704 83 Q704 42 706 25 Q687 27 631 27 L358 27 Q324 27 283 24 Q285 44 285 83 L285 168 Q285 204 283 225 Q309 223 356 223 L632 223 Q670 223 706 225 Q704 204 704 168 L704 83 ZM369 90 L623 90 L623 162 L369 162 L369 90 Z" /><glyph glyph-name="uni2FC7" unicode="&#x2fc7;&#x9ebb;" d="M679 529 Q679 580 675 612 L770 612 Q767 590 767 530 L767 491 L838 491 Q904 491 925 496 L925 404 Q900 408 841 408 L779 408 Q808 314 852 242 Q896 168 965 104 Q939 75 911 20 Q825 119 759 301 Q766 164 766 127 L766 -11 Q766 -77 770 -101 L674 -101 Q679 -67 679 -8 L679 118 Q679 174 684 285 Q632 165 589 105 Q551 53 515 20 L507 35 Q492 62 465 92 Q534 151 588 233 Q627 293 665 408 Q605 408 573 404 L573 495 Q595 491 661 491 L679 491 L679 529 ZM435 374 L463 344 Q487 319 509 294 Q535 265 547 249 L497 184 L435 285 L435 -8 Q435 -73 439 -101 L343 -101 Q349 -70 349 -7 L349 124 Q349 184 354 307 Q294 123 219 34 Q191 87 162 125 Q138 -10 93 -87 Q60 -47 19 -14 Q99 135 99 611 Q99 700 96 739 Q132 736 192 736 L480 736 Q465 771 445 803 L542 826 Q572 770 584 736 L828 736 Q908 736 941 741 L941 645 Q891 649 828 649 L190 649 Q189 287 159 108 Q290 239 331 408 L304 408 Q251 408 224 405 L224 495 Q244 491 308 491 L348 491 L348 540 Q348 587 344 612 L438 612 Q435 590 435 541 L435 491 L447 491 Q510 491 531 495 L531 404 Q498 408 451 408 L435 408 L435 374 Z" /><glyph glyph-name="uni2FCE" unicode="&#x2fce;&#x9f13;" d="M502 683 Q537 679 596 679 L666 679 L666 721 Q666 789 662 815 L760 815 Q756 789 756 721 L756 679 L862 679 Q932 679 960 683 L960 593 Q934 596 862 596 L756 596 L756 470 L827 470 Q875 470 895 473 L931 431 Q929 427 907 371 Q860 245 776 129 Q863 48 976 -3 Q945 -48 928 -95 Q804 -31 717 59 Q626 -37 495 -101 Q481 -60 445 -18 Q571 36 662 127 Q618 192 587 262 Q573 292 545 389 L522 387 Q517 387 504 385 L504 474 Q526 470 586 470 L666 470 L666 596 L598 596 Q526 596 502 593 L502 654 Q479 656 417 656 L318 656 L318 582 L384 582 Q444 582 468 586 L468 506 Q442 508 387 508 L152 508 Q94 508 67 505 L67 586 Q91 582 152 582 L229 582 L229 656 L129 656 Q67 656 39 653 L39 738 Q63 734 129 734 L229 734 L229 754 Q229 789 225 818 L322 818 Q318 796 318 753 L318 734 L413 734 Q476 734 502 738 L502 683 ZM632 389 Q660 279 718 193 Q782 290 822 389 L632 389 ZM39 21 Q53 21 96 27 Q147 33 296 66 Q317 120 342 212 L427 186 L386 87 Q434 101 473 114 L474 36 Q366 -4 243 -33 Q158 -53 86 -65 Q68 -67 53 -72 L39 21 ZM84 378 Q84 424 82 448 Q95 446 153 446 L386 446 Q436 446 458 449 Q455 425 455 380 L455 304 Q455 253 458 235 Q434 237 387 237 L155 237 Q114 237 82 234 Q84 262 84 307 L84 378 ZM172 306 L368 306 L368 384 L172 384 L172 306 ZM145 63 Q128 127 97 182 L180 212 Q208 164 229 95 L145 63 Z" /><glyph glyph-name="uni3001" unicode="&#x3001;" d="M160 209 Q282 116 385 -11 L292 -98 Q193 37 75 130 L160 209 Z" /><glyph glyph-name="uni3002" unicode="&#x3002;" d="M244 240 Q314 240 363 190 Q413 141 413 71 Q413 1 363 -49 Q314 -99 244 -99 Q174 -99 125 -49 Q75 1 75 71 Q75 141 125 190 Q174 240 244 240 ZM244 162 Q207 162 180 135 Q153 109 153 71 Q153 33 180 6 Q206 -21 244 -21 Q282 -21 308 6 Q335 33 335 71 Q335 109 308 135 Q282 162 244 162 Z" /><glyph glyph-name="uni300A" unicode="&#x300a;" d="M971 -108 L883 -108 L683 360 L883 828 L971 828 L772 360 L971 -108 ZM830 -108 L742 -108 L542 360 L742 828 L830 828 L631 360 L830 -108 Z" /><glyph glyph-name="uni300B" unicode="&#x300b;" d="M30 828 L118 828 L318 360 L118 -108 L30 -108 L228 360 L30 828 ZM171 828 L259 828 L459 360 L259 -108 L171 -108 L369 360 L171 828 Z" /><glyph glyph-name="uni4E03" unicode="&#x4e03;" d="M459 73 Q459 44 480 37 Q491 34 543 32 L595 29 Q681 29 728 44 Q754 52 765 84 Q782 135 786 242 Q839 213 884 203 Q870 37 837 -7 Q809 -45 752 -52 Q671 -62 593 -62 Q492 -62 422 -51 Q381 -46 367 -18 Q357 2 357 51 L357 398 L159 361 Q86 347 54 335 L34 438 Q81 441 146 454 L357 494 L357 685 Q357 755 352 798 L464 798 Q459 748 459 685 L459 513 L800 578 Q863 589 911 606 L931 502 Q894 501 823 486 L459 417 L459 73 Z" /><glyph glyph-name="uni4E09" unicode="&#x4e09;" d="M127 762 Q168 756 248 756 L740 756 Q821 756 866 762 L866 653 Q824 658 741 658 L250 658 Q161 658 127 653 L127 762 ZM192 431 Q229 426 300 426 L692 426 Q757 426 801 431 L801 324 Q760 329 693 329 L302 329 Q229 329 192 325 L192 431 ZM934 -37 Q887 -31 806 -31 L195 -31 Q112 -31 58 -37 L58 73 Q112 68 192 68 L803 68 Q879 68 934 73 L934 -37 Z" /><glyph glyph-name="uni4E0A" unicode="&#x4e0a;" d="M768 514 Q831 514 877 520 L877 417 Q831 423 768 423 L522 423 L522 35 L821 35 Q902 35 949 40 L949 -63 Q898 -57 823 -57 L182 -57 Q106 -57 51 -63 L51 40 Q102 35 182 35 L420 35 L420 695 Q420 754 414 803 L528 803 Q522 759 522 695 L522 514 L768 514 Z" /><glyph glyph-name="uni4E0B" unicode="&#x4e0b;" d="M520 545 Q720 458 880 361 L831 275 Q691 371 520 448 L520 41 Q520 -43 526 -90 L413 -90 Q419 -45 419 41 L419 676 L179 676 Q104 676 52 671 L52 771 Q101 766 179 766 L813 766 Q888 766 940 771 L940 671 Q885 676 813 676 L520 676 L520 545 Z" /><glyph glyph-name="uni4E0D" unicode="&#x4e0d;" d="M606 672 Q580 622 531 555 L531 22 Q531 -52 537 -97 L425 -97 Q431 -38 431 22 L431 325 Q431 378 433 444 Q366 355 272 278 Q200 219 89 150 Q71 191 27 239 Q203 331 338 471 Q425 560 490 672 L174 672 Q96 672 44 667 L44 768 Q96 763 170 763 L812 763 Q899 763 938 768 L938 667 Q886 672 815 672 L606 672 ZM895 155 Q722 341 565 451 L625 516 Q808 383 959 235 L895 155 Z" /><glyph glyph-name="uni4E0E" unicode="&#x4e0e;" d="M737 695 Q815 695 853 700 L853 602 Q808 606 742 606 L306 606 Q304 572 291 471 L753 471 Q827 471 847 474 Q845 457 841 382 Q825 95 787 0 Q765 -52 731 -69 Q696 -87 613 -87 Q568 -87 458 -80 Q445 -14 426 24 Q552 7 617 7 Q664 7 681 24 Q697 41 709 100 Q730 195 740 385 L324 385 Q253 385 177 379 Q199 498 209 596 Q219 719 219 771 Q219 790 218 796 L217 812 L325 812 Q322 792 320 773 L313 695 L737 695 ZM677 160 Q628 165 563 165 L169 165 Q101 165 49 160 L49 257 Q95 252 170 252 L564 252 Q628 252 677 257 L677 160 Z" /><glyph glyph-name="uni4E13" unicode="&#x4e13;" d="M302 157 Q432 114 495 88 L679 267 L328 267 Q292 267 224 264 Q224 264 234 283 Q252 312 272 367 L307 457 L163 457 Q108 457 54 452 L54 547 Q102 542 163 542 L337 542 L372 646 L231 646 Q172 646 128 642 L128 733 Q164 729 230 729 L400 729 Q411 782 415 824 L523 814 Q524 819 516 804 Q513 798 511 788 Q510 787 492 729 L749 729 Q817 729 850 733 L850 642 Q806 646 748 646 L467 646 L436 542 L813 542 Q875 542 921 547 L921 452 Q875 457 812 457 L406 457 L363 350 L707 350 Q758 350 791 354 L845 289 L785 242 Q747 212 661 127 Q608 75 582 53 L733 -11 L686 -105 Q469 3 248 78 L302 157 Z" /><glyph glyph-name="uni4E14" unicode="&#x4e14;" d="M193 671 Q193 733 188 785 Q224 781 298 781 L697 781 Q770 781 806 785 Q801 730 801 671 L801 26 L852 26 Q917 26 955 31 L955 -71 Q907 -65 833 -65 L161 -65 Q86 -65 39 -71 L39 32 Q80 26 142 26 L193 26 L193 671 ZM703 198 L292 198 L292 26 L703 26 L703 198 ZM703 446 L292 446 L292 285 L703 285 L703 446 ZM703 691 L292 691 L292 533 L703 533 L703 691 Z" /><glyph glyph-name="uni4E16" unicode="&#x4e16;" d="M439 587 L439 706 Q439 768 434 808 L536 808 Q531 764 531 707 L531 587 L717 587 L717 708 Q717 765 712 808 L817 808 Q811 769 811 707 L811 587 L855 587 Q920 587 958 592 L958 497 Q917 502 855 502 L811 502 L811 272 Q811 221 814 190 Q783 192 738 192 L515 192 Q475 192 437 190 Q439 210 439 267 L439 502 L260 502 L260 26 L794 26 Q861 26 913 31 L913 -69 Q861 -63 794 -63 L258 -63 Q193 -63 161 -67 Q164 -39 164 24 L164 502 L135 502 Q71 502 32 497 L32 592 Q72 587 135 587 L164 587 L164 694 Q164 755 159 807 L265 807 Q260 771 260 694 L260 587 L439 587 ZM531 274 L717 274 L717 502 L531 502 L531 274 Z" /><glyph glyph-name="uni4E1A" unicode="&#x4e1a;" d="M178 610 Q229 487 284 251 L194 217 Q139 469 93 581 L178 610 ZM895 571 Q888 547 876 498 Q825 308 779 210 L695 247 Q752 372 805 605 L895 571 ZM650 795 Q642 736 642 685 L642 34 L833 34 Q900 34 944 39 L944 -60 Q892 -55 833 -55 L158 -55 Q100 -55 48 -60 L48 39 Q93 34 158 34 L338 34 L337 687 Q337 736 330 795 L438 795 Q433 759 433 684 L433 34 L548 34 L548 687 Q548 753 542 795 L650 795 Z" /><glyph glyph-name="uni4E1C" unicode="&#x4e1c;" d="M109 396 Q146 406 172 448 Q217 531 256 619 L163 619 Q96 619 53 614 L53 712 Q105 706 161 706 L289 706 L306 747 Q320 783 324 812 L433 793 Q420 775 413 754 L394 706 L812 706 Q874 706 923 712 L923 613 Q873 619 812 619 L371 619 Q334 550 259 399 L456 400 L456 476 Q456 490 452 537 L558 537 Q556 511 555 477 L555 400 L752 400 Q808 400 855 406 L855 308 Q809 314 752 314 L555 314 L555 -2 Q555 -67 512 -83 Q486 -93 419 -93 L327 -92 Q322 -43 306 -1 Q355 -8 408 -8 Q437 -8 445 -2 Q456 4 456 25 L456 314 L230 314 L126 309 L109 396 ZM336 192 Q252 46 101 -56 Q75 -13 40 23 Q182 111 251 232 L336 192 ZM864 -58 Q816 9 778 51 Q696 145 656 179 L732 235 Q870 109 945 11 L864 -58 Z" /><glyph glyph-name="uni4E25" unicode="&#x4e25;" d="M198 358 Q194 180 174 93 Q148 -21 91 -100 Q64 -59 22 -16 Q73 53 89 143 Q107 239 107 359 Q107 413 104 444 Q135 441 207 441 L368 441 L368 698 L207 700 Q185 700 103 696 L103 786 Q140 781 211 781 L805 781 Q869 781 912 786 L912 696 L805 700 L645 698 L645 441 L819 441 Q894 441 937 446 L937 354 Q901 358 815 358 L198 358 ZM457 441 L556 441 L556 699 L457 699 L457 441 ZM226 653 Q275 581 303 516 L223 479 Q194 551 149 621 L226 653 ZM863 617 Q828 547 776 476 L701 513 Q755 582 783 653 L863 617 Z" /><glyph glyph-name="uni4E2A" unicode="&#x4e2a;" d="M550 803 L537 779 Q623 675 690 619 Q738 578 842 514 Q884 489 954 460 Q939 446 899 365 Q755 432 633 542 Q553 614 486 699 Q404 592 308 515 Q193 423 86 366 Q68 415 23 459 Q104 494 176 541 Q282 608 356 692 Q410 754 444 823 L550 803 ZM431 -94 Q436 -50 436 18 L436 421 Q436 484 431 524 L541 524 Q536 484 536 420 L536 19 Q536 -49 542 -94 L431 -94 Z" /><glyph glyph-name="uni4E2D" unicode="&#x4e2d;" d="M824 647 Q881 647 907 650 Q904 622 904 570 L904 262 Q904 197 908 169 L806 169 L806 230 L539 230 L539 17 Q539 -60 545 -101 L435 -101 Q440 -57 440 17 L440 230 L186 230 L186 169 L84 169 Q88 202 88 262 L88 571 Q88 616 85 650 Q115 647 167 647 L440 647 L440 717 Q440 787 436 819 L544 819 Q539 781 539 721 L539 647 L824 647 ZM539 321 L806 321 L806 556 L539 556 L539 321 ZM440 556 L186 556 L186 321 L440 321 L440 556 Z" /><glyph glyph-name="uni4E30" unicode="&#x4e30;" d="M443 717 Q443 786 439 819 L545 819 Q540 779 540 721 L540 672 L775 672 Q856 672 906 677 L906 578 Q860 582 776 582 L540 582 L540 446 L739 446 Q804 446 864 450 L864 353 Q814 357 740 357 L540 357 L540 216 L813 216 Q890 216 945 221 L945 119 Q910 125 816 125 L540 125 L540 17 Q540 -59 546 -101 L438 -101 Q443 -57 443 17 L443 125 L197 125 Q112 125 58 119 L58 221 Q110 216 193 216 L443 216 L443 357 L260 357 Q179 357 134 353 L134 450 Q179 446 258 446 L443 446 L443 582 L223 582 Q133 582 95 578 L95 677 Q140 672 221 672 L443 672 L443 717 Z" /><glyph glyph-name="uni4E39" unicode="&#x4e39;" d="M533 427 Q505 474 451 536 Q409 583 365 621 L432 675 Q534 587 607 488 L533 427 ZM863 404 Q927 404 959 408 L959 307 Q926 312 865 312 L828 312 L828 22 Q828 -39 802 -57 Q776 -76 686 -76 Q638 -76 584 -73 Q576 -22 557 22 Q622 11 685 11 Q712 11 722 17 Q733 23 733 44 L733 312 L253 312 Q232 51 104 -99 Q68 -54 26 -25 Q99 50 131 164 Q146 215 155 312 L118 312 Q75 312 29 307 L29 409 Q68 404 125 404 L160 404 L165 673 Q165 739 161 786 Q200 782 267 782 L721 782 Q801 782 831 785 Q828 754 828 680 L828 404 L863 404 ZM733 695 L261 695 L261 576 Q261 491 257 404 L733 404 L733 695 Z" /><glyph glyph-name="uni4E3A" unicode="&#x4e3a;" d="M756 577 Q844 577 877 581 Q874 554 872 438 Q867 169 838 39 Q824 -23 790 -45 Q756 -68 675 -68 Q613 -68 531 -58 Q524 0 508 46 Q596 29 666 29 Q707 29 726 48 Q742 67 751 121 Q773 254 774 485 L508 485 Q486 359 447 277 Q391 163 298 68 Q226 -6 113 -78 Q86 -27 40 14 Q133 61 199 121 Q294 208 351 318 Q384 381 406 485 L198 485 Q133 485 81 480 L81 583 Q129 577 201 577 L423 577 Q438 682 438 769 Q438 805 435 817 L554 817 Q541 741 526 577 L756 577 ZM238 797 Q305 728 351 658 L269 600 Q222 679 156 746 L238 797 ZM566 348 Q643 286 696 224 L628 160 Q569 234 497 290 L566 348 Z" /><glyph glyph-name="uni4E3B" unicode="&#x4e3b;" d="M540 344 L743 344 Q802 344 844 348 L844 252 Q813 256 746 256 L540 256 L540 31 L818 31 Q888 31 943 36 L943 -65 Q888 -59 821 -59 L178 -59 Q103 -59 49 -65 L49 36 Q94 31 174 31 L438 31 L438 256 L250 256 Q176 256 144 252 L144 347 Q171 344 241 344 L438 344 L438 536 L202 536 Q113 536 87 532 L87 629 Q121 624 201 624 L785 624 Q853 624 899 630 L899 532 Q865 536 785 536 L540 536 L540 344 ZM390 826 Q500 790 637 726 L572 648 Q434 726 322 759 L390 826 Z" /><glyph glyph-name="uni4E3D" unicode="&#x4e3d;" d="M34 777 Q54 774 147 773 L172 772 L861 772 Q950 775 962 777 L962 683 Q948 684 835 687 L149 687 Q61 685 34 682 L34 777 ZM539 -85 Q542 -49 542 41 L542 485 Q542 545 538 586 Q570 582 640 582 L790 582 Q858 582 889 586 Q886 560 886 484 L886 23 Q886 -42 858 -64 Q829 -87 746 -87 Q720 -87 705 -86 Q702 -44 683 9 Q720 2 747 2 Q796 2 796 44 L796 200 L728 159 Q704 221 632 338 L632 43 Q632 -34 635 -85 L539 -85 ZM632 347 L706 379 Q752 305 796 212 L796 500 L632 500 L632 347 ZM345 583 Q417 583 451 587 Q449 549 449 489 L449 5 Q449 -28 440 -44 Q417 -85 314 -85 Q289 -85 277 -84 Q271 -36 255 9 Q288 2 312 2 Q338 2 349 9 Q359 18 359 41 L359 202 L285 163 Q271 203 205 332 L205 45 Q205 -34 208 -85 L109 -85 Q115 -40 115 43 L115 490 Q115 556 111 587 Q143 583 228 583 L345 583 ZM205 356 L270 384 L286 357 Q326 288 360 206 L359 501 L205 501 L205 356 Z" /><glyph glyph-name="uni4E3E" unicode="&#x4e3e;" d="M472 669 Q444 737 402 801 L489 829 Q538 755 560 707 L472 669 ZM232 663 Q196 739 161 784 L245 814 Q293 755 319 706 L232 663 ZM217 369 Q132 308 75 281 Q53 325 21 359 Q211 433 291 562 L176 562 Q124 562 75 557 L75 644 Q124 640 176 640 L647 640 Q709 728 739 815 L833 791 Q786 700 735 640 L823 640 Q874 640 924 644 L924 557 Q878 562 823 562 L693 562 Q799 425 965 363 Q925 317 910 282 Q849 312 774 367 L774 283 Q743 286 696 286 L538 286 L538 174 L818 174 Q875 174 919 179 L919 93 Q869 98 818 98 L538 98 L538 20 Q538 -54 544 -100 L439 -100 Q444 -71 444 15 L444 98 L164 98 Q102 98 63 93 L63 179 Q111 174 163 174 L444 174 L444 286 L289 286 Q245 286 217 283 L217 369 ZM388 562 Q352 487 268 411 Q252 396 208 364 Q244 361 284 361 L444 361 L444 407 Q444 427 438 477 L543 477 Q538 437 538 408 L538 361 L706 361 Q746 361 778 364 Q660 461 595 562 L388 562 Z" /><glyph glyph-name="uni4E45" unicode="&#x4e45;" d="M599 682 Q652 682 675 687 L724 639 L709 601 Q656 456 592 350 Q636 267 704 191 Q761 128 858 63 Q905 33 956 10 Q918 -28 888 -89 Q661 42 536 266 Q473 182 377 95 Q312 36 219 -25 Q170 -56 104 -89 Q75 -31 39 -1 Q229 85 365 221 Q508 363 596 596 L369 596 Q284 439 138 318 Q106 365 63 394 Q214 506 303 683 Q345 769 352 815 L461 798 Q456 790 446 761 L412 682 L599 682 Z" /><glyph glyph-name="uni4E4B" unicode="&#x4e4b;" d="M491 640 Q435 711 362 765 L431 819 Q498 772 563 700 L490 640 L726 640 Q791 640 817 644 L871 582 Q868 578 842 540 Q758 420 638 308 Q522 198 382 108 Q496 35 705 35 Q846 35 964 53 L943 0 Q943 -3 941 -13 L934 -37 Q933 -38 928 -59 Q833 -65 737 -65 Q547 -65 459 -39 Q379 -14 321 37 Q268 84 246 84 Q205 84 158 7 Q123 -52 110 -82 L30 -11 Q38 -3 60 28 Q111 103 153 145 Q199 191 248 191 Q276 191 303 172 Q415 241 506 320 Q630 429 717 548 L218 548 Q148 548 102 543 L102 646 Q151 640 219 640 L491 640 Z" /><glyph glyph-name="uni4E50" unicode="&#x4e50;" d="M183 343 Q132 343 80 337 L62 424 Q92 434 106 468 Q156 609 163 774 Q201 771 219 771 Q406 771 560 790 Q676 804 751 827 L819 744 Q633 704 255 689 Q238 565 195 430 L451 430 L451 569 Q451 620 449 630 L553 630 Q550 600 550 570 L550 431 L800 431 Q856 431 903 436 L903 339 Q859 344 802 344 L550 344 L550 -2 Q550 -69 499 -86 Q467 -96 392 -96 Q354 -96 318 -92 Q313 -44 294 4 Q363 -5 404 -5 Q432 -5 440 1 Q451 7 451 28 L451 343 L183 343 ZM337 223 Q241 57 102 -49 Q83 -17 38 29 Q173 122 252 264 L337 223 ZM859 -47 Q778 84 642 214 L730 265 Q836 163 946 22 L859 -47 Z" /><glyph glyph-name="uni4E5D" unicode="&#x4e5d;" d="M196 504 Q117 504 77 499 L77 602 Q116 597 196 597 L342 597 L342 614 Q346 663 346 714 Q346 780 342 810 L450 810 Q447 785 446 726 Q443 643 441 597 L617 597 Q681 597 732 602 Q728 559 728 495 L726 44 Q726 21 736 15 Q745 10 777 10 Q840 10 851 44 Q869 101 870 221 Q902 200 959 188 Q949 21 925 -29 Q911 -57 878 -68 Q843 -79 763 -79 Q677 -79 651 -63 Q626 -49 626 0 L629 504 L434 504 Q422 388 405 324 Q357 132 238 12 Q173 -53 102 -95 Q73 -46 31 -10 Q183 71 257 214 Q315 323 331 470 L335 504 L196 504 Z" /><glyph glyph-name="uni4E5F" unicode="&#x4e5f;" d="M466 712 Q466 785 461 819 L563 819 Q558 786 558 715 L558 596 L777 650 Q828 662 869 677 Q869 553 854 404 Q840 264 811 234 Q783 202 714 202 Q668 202 631 207 Q627 257 613 295 Q653 286 694 286 Q727 286 740 310 Q749 330 757 399 Q766 476 766 562 L558 509 L558 253 Q558 177 562 149 L461 149 Q466 174 466 257 L466 485 L283 439 L283 85 Q283 40 316 26 Q349 13 554 13 Q708 13 755 20 Q804 26 820 51 Q843 87 846 185 Q896 159 940 150 Q929 23 890 -24 Q864 -54 804 -64 Q753 -73 558 -73 Q349 -73 291 -61 Q231 -48 211 -21 Q190 7 190 75 L190 416 L133 401 Q68 384 43 376 L32 473 Q67 475 125 489 L190 505 L190 645 Q190 714 185 748 L288 748 Q283 718 283 646 L283 528 L466 573 L466 712 Z" /><glyph glyph-name="uni4E66" unicode="&#x4e66;" d="M904 620 Q883 638 847 664 Q837 631 833 589 Q833 581 832 575 L811 376 L942 379 Q939 363 935 301 Q921 92 892 40 Q863 -10 763 -10 L677 -7 Q669 45 651 89 Q718 79 761 79 Q801 79 815 113 Q825 135 832 206 Q833 207 836 250 L839 289 L520 289 L520 -16 Q520 -62 525 -96 L514 -96 Q526 -109 526 -98 L416 -98 L416 -103 Q416 -98 419 -76 Q423 -15 423 15 L423 289 L158 289 L67 285 L68 380 Q101 376 161 376 L423 376 L423 558 L252 558 Q196 558 145 553 L145 650 Q187 645 252 645 L423 645 L423 733 Q423 776 419 801 L526 801 Q520 761 520 696 L520 645 L745 645 Q837 645 868 648 Q790 705 726 734 L784 799 Q885 750 958 694 L904 620 ZM520 376 L713 376 L735 558 L520 558 L520 376 Z" /><glyph glyph-name="uni4E7E" unicode="&#x4e7e;" d="M393 723 Q457 723 483 726 L483 642 Q458 645 399 645 L305 645 L305 562 L362 562 Q426 562 450 564 L447 521 Q582 688 594 820 L693 804 L680 767 Q668 732 653 693 L853 693 Q919 693 955 698 L955 602 Q916 607 854 607 L612 607 Q584 556 544 498 Q589 495 624 495 L781 495 Q833 495 860 499 L914 435 L887 410 Q790 320 685 191 Q611 102 611 51 Q611 23 638 14 Q659 6 720 6 Q826 6 848 33 Q872 58 873 170 Q915 146 959 135 Q954 11 925 -28 Q890 -79 705 -79 Q585 -79 543 -50 Q512 -29 512 21 Q512 92 564 172 Q617 253 776 415 Q719 412 688 412 L622 412 Q567 412 541 408 L541 493 L508 454 Q488 475 447 508 L447 315 Q447 243 450 213 Q416 216 362 216 L305 216 L305 130 L387 130 Q447 130 471 133 L471 45 Q442 48 387 48 L304 48 L304 -9 Q304 -71 310 -104 L215 -104 Q219 -78 219 -9 L219 48 L130 48 Q73 48 46 44 L46 133 Q71 130 130 130 L219 130 L219 216 L167 216 Q116 216 78 213 Q81 245 81 316 L81 476 Q81 533 78 564 Q98 562 167 562 L220 562 L220 645 L129 645 Q76 645 45 642 L45 726 Q71 723 131 723 L220 723 L220 750 Q220 802 216 819 L310 819 Q305 797 305 749 L305 723 L393 723 ZM163 423 L369 423 L369 494 L163 494 L163 423 ZM162 283 L369 283 L369 356 L162 356 L162 283 Z" /><glyph glyph-name="uni4E88" unicode="&#x4e88;" d="M352 658 Q416 623 499 571 L521 583 Q568 608 684 692 L266 692 Q186 692 151 688 L151 782 Q185 777 268 777 L717 777 Q772 777 801 781 L855 716 Q791 659 745 626 Q657 566 578 518 L628 485 L590 448 L791 448 Q868 448 900 453 L955 394 Q954 393 941 374 Q895 309 854 263 Q805 207 741 152 Q702 196 666 217 Q747 278 815 362 L555 362 L555 7 Q555 -51 527 -70 Q497 -90 410 -90 Q349 -90 298 -88 Q291 -35 274 7 Q338 -1 409 -1 Q437 -1 446 5 Q457 12 457 34 L457 362 L182 362 Q108 362 63 357 L63 453 Q102 448 187 448 L524 448 Q382 550 290 601 L352 658 Z" /><glyph glyph-name="uni4E89" unicode="&#x4e89;" d="M768 579 Q832 579 855 582 Q855 575 853 497 L853 404 L877 404 Q933 404 964 409 L964 318 Q941 322 877 322 L853 322 L853 185 Q853 117 856 90 L763 90 L763 135 L539 135 L539 17 Q539 -45 525 -63 Q502 -94 390 -94 Q354 -94 297 -92 Q288 -36 269 -1 Q339 -11 398 -11 Q425 -11 435 -4 Q445 5 445 26 L445 135 L223 135 Q168 135 143 132 L143 221 Q172 217 219 217 L445 217 L445 322 L134 322 Q72 322 32 317 L32 409 Q71 404 133 404 L445 404 L445 497 L276 497 Q219 497 199 494 L199 551 Q148 511 119 492 Q89 537 60 567 Q183 635 268 745 Q308 799 320 832 L427 813 Q418 800 407 783 L391 759 L565 759 Q633 759 659 763 L715 713 Q711 710 690 682 Q659 638 597 579 L768 579 ZM488 579 Q534 622 568 677 L330 677 Q301 643 233 579 L488 579 ZM539 404 L763 404 L763 497 L539 497 L539 404 ZM539 322 L539 217 L763 217 L763 322 L539 322 Z" /><glyph glyph-name="uni4E8B" unicode="&#x4e8b;" d="M867 265 Q930 265 955 269 L955 192 Q938 194 867 195 L867 129 Q867 55 871 28 L775 28 L775 67 L535 67 L535 2 Q535 -62 510 -81 Q484 -100 394 -100 Q344 -100 305 -96 Q298 -50 280 -13 Q350 -21 395 -21 Q421 -21 431 -16 Q442 -8 442 11 L442 67 L197 67 Q135 67 105 63 L105 139 Q133 136 193 136 L442 136 L442 195 L145 195 Q66 195 41 192 L41 269 Q66 265 142 265 L442 265 L442 326 L195 326 Q138 326 110 323 L110 392 Q134 389 197 389 L442 389 L442 444 L220 444 Q170 444 144 442 Q147 465 147 500 L147 567 Q147 602 144 629 Q174 627 221 627 L442 627 L442 681 L158 681 Q93 681 48 676 L48 758 Q86 753 164 753 L443 753 Q441 804 438 822 L540 822 Q536 805 535 753 L827 753 Q904 753 943 758 L943 676 Q900 681 833 681 L535 681 L535 627 L772 627 Q821 627 848 629 Q845 605 845 567 L845 500 Q845 466 848 442 Q824 444 776 444 L535 444 L535 389 L770 389 Q836 389 869 392 Q867 376 867 308 L867 265 ZM535 136 L775 136 L775 195 L535 195 L535 136 ZM775 265 L775 326 L535 326 L535 265 L775 265 ZM442 564 L237 564 L237 506 L442 506 L442 564 ZM755 506 L755 564 L535 564 L535 506 L755 506 Z" /><glyph glyph-name="uni4E8E" unicode="&#x4e8e;" d="M555 452 L807 452 Q895 452 934 458 L934 355 Q883 361 809 361 L555 361 L555 18 Q555 -45 525 -67 Q499 -86 385 -86 Q343 -86 292 -83 Q289 -40 271 14 Q337 5 406 5 Q435 5 445 11 Q457 20 457 41 L457 361 L183 361 Q113 361 58 355 L58 458 Q114 452 181 452 L457 452 L457 686 L237 686 Q174 686 120 682 L120 782 Q160 777 236 777 L755 777 Q827 777 871 782 L871 682 Q816 686 755 686 L555 686 L555 452 Z" /><glyph glyph-name="uni4E92" unicode="&#x4e92;" d="M423 697 Q404 609 391 557 L688 557 Q769 557 790 560 Q785 539 768 440 Q720 173 683 20 L822 20 Q898 20 945 26 L945 -72 Q898 -66 816 -66 L177 -66 Q98 -66 47 -72 L47 26 Q90 20 172 20 L581 20 Q599 89 619 176 L265 176 Q212 176 157 174 L157 172 Q192 240 231 355 Q290 536 320 697 L194 697 Q121 697 73 692 L73 788 Q118 783 191 783 L798 783 Q870 783 917 788 L917 692 Q868 697 798 697 L423 697 ZM368 472 Q333 350 302 259 L637 259 Q664 387 676 472 L368 472 Z" /><glyph glyph-name="uni4E94" unicode="&#x4e94;" d="M830 42 Q911 42 945 47 L945 -53 Q894 -47 823 -47 L172 -47 Q101 -47 49 -53 L49 48 Q90 42 169 42 L258 42 Q313 199 353 375 L255 375 Q199 375 157 371 L157 466 Q187 461 258 461 L369 461 Q394 593 403 680 L224 680 Q154 680 103 675 L103 773 Q148 768 222 768 L777 768 Q849 768 896 773 L896 675 Q855 680 777 680 L504 680 Q500 656 498 632 Q490 570 470 461 L670 461 Q741 461 780 464 Q776 413 776 360 L776 42 L830 42 ZM678 375 L453 375 Q412 188 364 42 L678 42 L678 375 Z" /><glyph glyph-name="uni4EA4" unicode="&#x4ea4;" d="M364 414 L371 401 Q414 313 489 230 Q536 277 569 331 Q594 368 613 414 L694 360 Q626 243 557 168 Q701 53 942 -2 Q915 -44 898 -96 Q647 -27 489 105 Q331 -27 94 -100 Q76 -47 47 -8 Q160 21 267 72 Q353 113 422 168 Q339 263 287 364 L364 414 ZM447 709 Q429 748 402 795 L495 830 Q520 785 552 709 L814 709 Q897 709 931 714 L931 618 Q906 623 812 623 L170 623 Q90 623 52 618 L52 714 Q87 709 170 709 L447 709 ZM390 544 Q332 460 258 393 Q191 331 118 283 Q93 323 54 358 Q210 439 309 589 L390 544 ZM847 286 Q729 420 589 537 L656 590 Q815 467 911 359 L847 286 Z" /><glyph glyph-name="uni4EA7" unicode="&#x4ea7;" d="M466 747 Q450 784 438 803 L544 824 Q559 797 575 747 L805 747 Q869 747 912 752 L912 663 Q876 666 805 666 L742 666 L719 590 Q710 563 688 507 L819 507 Q896 507 937 512 L937 422 L932 423 Q886 426 819 426 L197 426 L197 330 Q197 49 91 -100 Q61 -54 22 -14 Q86 84 100 208 Q107 269 107 450 Q107 468 104 511 Q134 507 209 507 L329 507 Q309 605 283 666 L210 666 Q135 666 103 663 L103 752 Q140 747 211 747 L466 747 ZM593 507 Q624 592 641 666 L381 666 Q415 578 428 507 L593 507 Z" /><glyph glyph-name="uni4ECB" unicode="&#x4ecb;" d="M549 809 Q551 812 546 803 L537 786 Q620 687 688 633 Q814 532 963 476 Q947 457 914 372 Q792 427 673 518 Q576 591 486 708 Q406 594 286 506 Q205 447 142 408 Q99 381 81 372 Q69 413 29 470 Q103 502 181 551 Q281 615 357 699 Q411 762 443 829 L549 809 ZM383 461 Q381 448 380 385 Q376 182 319 81 Q261 -28 123 -103 Q97 -57 52 -14 Q111 14 148 41 Q221 97 249 173 Q278 248 278 384 Q278 426 273 461 L383 461 ZM703 461 Q698 429 698 357 L698 22 Q698 -43 704 -90 L593 -90 Q599 -47 599 21 L599 358 Q599 423 593 461 L703 461 Z" /><glyph glyph-name="uni4ECD" unicode="&#x4ecd;" d="M547 679 Q540 447 508 302 Q475 154 408 35 Q375 -21 326 -84 Q290 -45 238 -8 Q241 -78 242 -93 L140 -93 Q145 -47 145 30 L145 285 Q145 370 148 449 Q99 359 72 329 Q60 381 31 445 Q129 560 185 734 Q209 809 212 833 L308 814 Q306 808 291 757 Q272 693 239 608 L239 -12 Q357 118 400 269 Q440 406 446 597 L448 679 L418 679 Q351 679 325 675 L325 768 Q362 764 431 764 L704 764 Q774 764 797 767 Q797 768 790 721 Q783 670 766 573 Q757 520 749 469 L841 469 Q915 469 937 472 Q933 436 930 370 Q917 87 879 -6 Q864 -46 836 -60 Q806 -75 740 -75 Q697 -75 623 -70 Q619 -15 604 24 Q662 11 723 11 Q767 11 784 29 Q801 46 810 98 Q828 196 832 272 L839 387 L743 387 Q675 387 639 383 Q669 490 691 679 L547 679 Z" /><glyph glyph-name="uni4ED6" unicode="&#x4ed6;" d="M590 719 Q590 768 585 811 L684 811 Q679 774 679 722 L679 576 L837 627 Q888 643 908 652 Q907 644 907 611 Q904 402 890 285 Q882 231 862 213 Q841 194 784 194 Q766 194 737 197 Q730 244 715 281 Q740 275 770 275 Q792 275 800 290 Q808 304 812 347 Q818 413 818 536 L679 490 L679 222 Q679 161 684 129 L585 129 Q590 157 590 225 L590 461 L470 422 L470 63 Q470 31 503 24 Q538 16 633 16 Q786 16 817 35 Q838 50 845 88 Q848 111 851 157 Q893 140 945 130 Q931 -7 892 -35 Q845 -70 606 -70 Q467 -70 422 -51 Q379 -33 379 23 L379 392 L348 383 Q312 371 299 364 L292 460 Q318 463 379 481 L379 606 Q379 676 374 705 L474 705 Q470 679 470 610 L470 509 L590 548 L590 719 ZM148 305 Q148 330 152 448 Q102 364 61 316 Q47 358 15 418 Q122 524 192 695 Q223 775 230 824 L327 795 L310 745 Q281 663 239 578 L239 14 Q239 -45 243 -101 L143 -101 Q148 -55 148 15 L148 305 Z" /><glyph glyph-name="uni4EE5" unicode="&#x4ee5;" d="M113 680 Q113 752 106 792 L217 792 Q212 764 212 685 L213 182 Q387 263 473 320 L483 209 Q326 123 114 26 L71 120 Q108 143 113 209 L113 680 ZM894 -97 Q805 43 696 159 Q572 -6 352 -99 Q324 -43 296 -13 Q542 82 651 256 Q761 433 761 736 Q761 772 758 794 L867 793 Q865 783 865 771 Q849 424 747 237 Q763 223 782 204 Q876 106 972 -27 L894 -97 ZM420 731 Q521 627 612 492 L530 423 Q446 563 337 678 L420 731 Z" /><glyph glyph-name="uni4EEC" unicode="&#x4eec;" d="M214 23 Q214 -64 218 -96 L123 -96 Q129 -38 129 25 L129 300 Q129 367 135 447 Q91 358 56 313 Q41 370 13 412 Q117 542 168 714 Q185 774 189 810 L279 779 L269 749 Q239 641 214 576 L214 23 ZM575 768 Q606 764 663 764 L845 764 Q893 764 923 768 Q920 743 920 659 L920 14 Q920 -47 894 -67 Q867 -87 786 -87 Q761 -87 710 -85 Q702 -24 689 8 Q738 0 784 0 Q810 0 819 6 Q829 14 829 34 L829 677 L659 677 Q631 677 575 671 L575 768 ZM316 -96 Q321 -55 321 22 L321 493 Q321 546 318 602 L416 602 Q412 563 412 493 L412 15 Q412 -80 416 -96 L316 -96 ZM463 596 Q426 681 364 777 L437 814 Q486 749 543 639 L463 596 Z" /><glyph glyph-name="uni4EF6" unicode="&#x4ef6;" d="M436 522 Q403 444 359 379 Q338 402 281 441 Q344 527 387 644 Q413 720 417 765 L511 741 Q505 724 495 688 L470 608 L589 608 L589 710 Q589 771 583 808 L689 808 Q684 779 684 709 L684 608 L818 608 Q886 608 919 613 L919 516 Q860 522 819 522 L684 522 L684 317 L850 317 Q915 317 955 322 L955 224 Q912 229 852 229 L684 229 L684 11 Q684 -64 690 -98 L583 -98 Q589 -56 589 11 L589 229 L408 229 Q340 229 303 224 L303 321 Q339 317 408 317 L589 317 L589 522 L436 522 ZM145 300 Q145 345 149 445 Q98 353 59 311 Q40 382 19 418 Q128 538 191 703 Q219 779 226 826 L323 799 L310 762 Q282 676 239 584 L239 9 Q239 -44 243 -100 L140 -100 Q145 -59 145 11 L145 300 Z" /><glyph glyph-name="uni4EFB" unicode="&#x4efb;" d="M665 405 L849 405 Q917 405 955 411 L955 313 Q915 318 849 318 L665 318 L665 33 L813 33 Q883 33 921 38 L921 -58 Q881 -52 813 -52 L438 -52 Q369 -52 329 -58 L329 38 Q368 33 438 33 L571 33 L571 318 L403 318 Q336 318 296 313 L296 410 Q333 405 403 405 L571 405 L571 622 Q447 599 363 589 Q347 641 325 676 Q705 708 850 800 L911 718 Q903 716 865 702 Q767 668 665 641 L665 405 ZM145 305 Q145 331 149 454 Q104 375 62 328 Q49 374 20 430 Q116 522 184 681 Q224 774 231 823 L327 793 Q276 652 234 576 L234 24 Q234 -45 241 -94 L139 -94 Q145 -50 145 25 L145 305 Z" /><glyph glyph-name="uni4EFD" unicode="&#x4efd;" d="M748 818 L749 813 Q751 812 752 808 Q782 723 843 633 Q890 566 960 498 Q921 467 880 416 Q877 418 858 440 Q855 415 855 399 Q849 127 818 14 Q804 -36 775 -53 Q744 -71 674 -71 Q639 -71 571 -67 Q567 -18 551 22 Q613 12 660 12 Q698 12 713 26 Q726 39 735 87 Q758 197 758 365 L598 365 Q587 226 546 134 Q503 37 419 -32 Q384 -61 330 -89 Q303 -42 267 -10 Q409 53 467 188 Q500 261 506 365 L463 365 Q415 365 371 361 L371 454 L336 417 Q299 460 260 486 Q329 551 378 631 Q416 693 452 800 L541 765 Q493 643 457 578 Q414 504 366 452 Q412 447 450 447 L775 447 Q804 447 852 450 Q813 493 788 533 Q747 594 680 741 L662 781 L748 818 ZM134 303 Q134 333 139 449 Q93 366 62 326 Q49 376 21 427 Q118 532 177 692 Q208 775 215 826 L314 803 L298 755 Q270 666 227 580 L227 8 Q227 -56 233 -101 L128 -101 Q134 -50 134 10 L134 303 Z" /><glyph glyph-name="uni4F0A" unicode="&#x4f0a;" d="M404 460 Q340 460 304 455 L304 548 Q334 544 405 544 L547 544 L547 683 L452 683 Q391 683 359 678 L359 771 Q401 766 469 766 L805 766 Q873 766 895 769 Q892 749 892 680 L892 544 Q946 544 968 548 L968 456 Q945 460 892 460 L892 296 Q892 230 897 185 L802 185 L802 234 L617 234 Q575 10 386 -102 Q356 -57 318 -25 Q487 55 526 234 L429 234 Q365 234 335 229 L335 322 Q371 318 426 318 L539 318 Q544 372 547 460 L404 460 ZM636 460 Q633 379 627 318 L803 318 L803 460 L636 460 ZM803 544 L803 683 L636 683 L636 544 L803 544 ZM327 789 L313 750 Q289 682 244 587 L244 20 Q244 -50 250 -96 L148 -96 Q154 -44 154 21 L154 313 Q154 364 158 460 Q112 376 72 330 Q58 378 27 433 Q196 611 230 823 L327 789 Z" /><glyph glyph-name="uni4F18" unicode="&#x4f18;" d="M382 486 Q319 486 296 483 L296 578 Q317 574 382 574 L514 574 Q516 665 516 700 Q516 785 511 812 L608 812 Q606 791 606 744 L606 711 Q606 688 603 574 L854 574 Q922 574 945 578 L945 482 Q917 486 854 486 L598 486 Q577 276 510 126 Q457 7 351 -104 Q319 -63 281 -31 Q364 50 410 135 Q487 270 509 486 L382 486 ZM725 425 Q720 383 720 302 L720 38 Q720 16 736 10 Q747 5 786 5 Q824 5 838 11 Q853 18 857 40 Q865 76 865 159 L865 181 Q909 158 959 149 Q954 4 930 -36 Q905 -81 780 -81 Q694 -81 664 -70 Q633 -56 633 -11 L633 320 Q633 387 629 425 L725 425 ZM229 26 Q229 -56 234 -97 L140 -97 Q145 -51 145 26 L145 301 Q145 361 149 450 Q98 374 62 339 Q40 393 8 430 Q112 524 175 699 Q203 778 211 823 L303 790 L282 729 Q261 663 229 590 L229 26 ZM766 803 Q834 742 895 667 L829 611 Q767 705 703 758 L766 803 Z" /><glyph glyph-name="uni4F1A" unicode="&#x4f1a;" d="M555 810 Q553 807 542 792 Q624 703 693 655 Q816 566 966 516 Q937 476 917 420 Q828 456 743 505 L743 426 Q717 429 661 429 L323 429 Q272 429 244 426 L244 506 Q178 465 81 421 Q70 458 29 517 Q118 550 182 587 Q371 696 449 829 L555 810 ZM721 518 Q579 612 488 717 Q404 615 264 518 L721 518 ZM118 13 Q148 17 170 34 Q236 93 333 231 L182 231 Q113 231 71 226 L71 325 Q113 320 182 320 L810 320 Q879 320 920 325 L920 226 Q879 231 810 231 L442 231 L428 210 Q347 99 262 16 Q519 27 701 52 Q666 93 601 161 L685 199 Q808 71 894 -48 L810 -103 L757 -23 Q473 -63 268 -72 Q147 -80 136 -83 L118 13 Z" /><glyph glyph-name="uni4F1F" unicode="&#x4f1f;" d="M136 -94 Q142 -47 142 24 L142 304 Q142 338 146 453 Q98 370 60 327 Q48 369 17 429 Q115 525 181 680 Q221 773 228 822 L324 792 L294 708 Q271 647 232 575 L232 23 Q232 -40 238 -94 L136 -94 ZM654 8 Q654 -76 658 -105 L559 -105 Q564 -72 564 8 L564 219 L413 219 Q356 219 308 213 L308 309 Q352 304 410 304 L564 304 L564 426 L458 426 Q400 426 365 422 L365 512 Q401 507 459 507 L564 507 L564 613 L413 613 Q352 613 320 609 L320 698 Q343 695 414 695 L564 695 L564 726 Q564 777 559 811 L659 811 Q659 818 658 814 Q656 803 654 726 L654 695 L839 695 Q914 695 935 698 L935 608 Q898 613 841 613 L654 613 L654 507 L774 507 Q839 507 867 512 L867 422 Q835 426 774 426 L654 426 L654 304 L875 304 Q906 304 939 307 Q940 308 938 268 Q932 100 909 31 Q888 -28 801 -28 L744 -26 Q743 18 727 56 Q751 51 785 51 Q824 51 833 82 Q844 115 850 219 L654 219 L654 8 Z" /><glyph glyph-name="uni4F20" unicode="&#x4f20;" d="M242 9 Q242 -50 247 -94 L144 -94 Q150 -46 150 18 L150 297 Q150 347 154 442 Q99 353 67 315 Q52 369 23 416 Q123 524 184 665 Q225 758 235 819 L331 786 Q295 680 242 574 L242 9 ZM369 449 Q316 448 286 444 L286 537 Q325 532 369 532 L490 532 L516 647 L424 647 Q377 647 346 643 L346 733 Q380 729 423 729 L535 729 L544 766 L544 770 Q550 807 550 818 L644 812 Q641 804 629 755 L622 729 L827 729 Q880 729 904 732 L904 643 Q872 647 827 647 L607 647 L594 592 Q588 560 580 532 L878 532 Q926 532 960 537 L960 444 Q926 449 876 449 L556 450 Q544 410 521 346 L796 346 Q836 346 860 349 L909 284 Q844 235 697 51 Q758 -6 777 -26 L716 -104 Q616 4 456 106 L515 170 Q587 129 623 107 Q647 134 759 265 L499 265 Q475 265 430 263 Q406 261 392 261 L389 261 Q442 383 459 450 L369 449 Z" /><glyph glyph-name="uni4F24" unicode="&#x4f24;" d="M244 18 Q244 -45 248 -91 L148 -91 Q153 -48 153 19 L153 316 Q153 352 157 458 Q97 361 58 320 Q46 370 18 425 Q134 547 199 716 Q220 773 228 820 L325 787 Q321 778 318 766 L315 759 Q284 670 244 589 L244 18 ZM276 532 Q347 588 403 663 Q458 742 478 819 L585 802 L573 779 Q538 709 522 681 L807 681 Q902 681 942 686 L942 589 Q889 594 808 594 L471 594 Q408 513 353 466 Q331 498 276 539 L276 532 ZM625 335 Q591 171 536 84 Q474 -12 353 -96 Q322 -51 284 -21 Q390 44 444 118 Q502 196 527 335 L430 335 Q361 335 335 331 L335 419 Q366 416 430 416 L538 416 Q541 446 541 473 Q541 521 537 535 L647 535 Q647 543 646 541 Q646 538 645 537 Q641 519 637 457 Q637 451 635 438 L631 416 L815 416 Q885 416 911 418 Q908 405 905 313 Q898 98 866 5 Q848 -48 815 -66 Q780 -84 694 -84 Q678 -84 601 -82 Q597 -41 578 7 Q639 -1 704 -1 Q745 -1 762 23 Q802 84 804 335 L625 335 Z" /><glyph glyph-name="uni4F46" unicode="&#x4f46;" d="M231 12 Q231 -53 237 -98 L135 -98 Q141 -51 141 13 L141 305 Q141 338 145 450 Q95 366 59 325 Q43 381 19 429 Q125 541 185 697 Q218 778 224 822 L320 787 Q290 686 231 574 L231 12 ZM464 153 Q399 153 371 150 Q373 176 373 237 L373 666 Q373 729 370 766 Q394 763 466 763 L790 763 Q865 763 888 766 Q886 732 886 653 L886 258 Q886 191 888 150 Q864 153 798 153 L464 153 ZM466 506 L792 506 L792 678 L466 678 L466 506 ZM466 239 L792 239 L792 422 L466 422 L466 239 ZM293 41 Q333 36 406 36 L844 36 Q922 36 960 41 L960 -59 Q922 -54 845 -54 L407 -54 Q330 -54 293 -59 L293 41 Z" /><glyph glyph-name="uni4F4D" unicode="&#x4f4d;" d="M822 655 Q893 655 929 660 L929 565 Q884 569 821 569 L428 569 Q352 569 317 565 L317 659 Q347 655 425 655 L594 655 Q566 746 537 793 L632 826 Q661 772 685 692 L567 655 L822 655 ZM848 32 Q919 32 956 37 L956 -60 Q916 -54 844 -54 L406 -54 Q329 -54 294 -60 L294 37 Q331 32 403 32 L629 32 Q730 305 753 506 L859 481 L824 350 Q796 238 723 32 L848 32 ZM137 299 Q137 349 141 442 Q85 356 58 324 Q47 369 18 426 Q122 538 183 701 Q215 782 221 828 L320 803 Q277 677 228 572 L228 11 Q228 -53 234 -98 L131 -98 Q137 -51 137 13 L137 299 ZM460 104 Q422 308 361 464 L451 496 Q513 337 554 140 L460 104 Z" /><glyph glyph-name="uni4F4E" unicode="&#x4f4e;" d="M845 438 Q906 438 924 441 L924 354 Q901 358 846 358 L733 358 Q748 242 769 177 Q788 120 817 74 Q849 26 872 26 Q891 26 897 59 Q903 88 907 162 Q934 134 973 111 Q964 4 939 -43 Q917 -87 875 -87 Q838 -87 792 -38 Q744 15 707 100 Q662 198 643 358 L458 358 L458 33 Q508 48 559 69 L561 -16 Q529 -30 376 -91 L340 -8 Q365 13 368 80 L368 646 Q368 708 365 730 Q365 730 380 730 Q673 730 834 821 L904 737 Q791 701 719 687 Q721 494 725 438 L845 438 ZM635 438 Q631 507 630 630 Q630 648 629 671 Q552 660 458 652 L458 438 L635 438 ZM137 311 Q137 392 147 459 Q93 370 56 328 Q43 376 16 433 Q117 538 176 688 Q209 768 217 825 L316 800 Q276 674 227 577 L227 10 Q227 -44 232 -100 L132 -100 Q137 -59 137 11 L137 311 ZM641 126 L676 69 Q693 43 721 -13 L740 -48 L663 -87 Q625 10 571 91 L641 126 Z" /><glyph glyph-name="uni4F50" unicode="&#x4f50;" d="M465 282 Q408 175 320 70 Q297 106 239 154 L239 10 Q239 -48 243 -98 L143 -98 Q148 -50 148 16 L148 307 Q148 359 152 450 Q87 346 65 321 Q48 378 17 419 Q116 526 178 671 Q218 761 230 829 L326 802 Q319 786 306 748 Q274 658 239 584 L239 132 Q383 280 482 550 L422 550 Q338 550 307 546 L307 644 Q349 639 422 639 L507 639 Q530 721 537 783 Q541 808 541 820 L644 808 Q636 776 632 755 Q617 682 605 639 L827 639 Q900 639 946 644 L946 546 Q896 550 828 550 L580 550 L574 537 Q546 448 508 366 L790 366 Q868 366 901 370 L901 278 Q873 282 790 282 L707 282 L707 25 L834 25 Q895 25 952 30 L952 -66 Q919 -61 830 -61 L487 -61 Q409 -61 360 -66 L360 30 Q409 25 483 25 L618 25 L618 282 L465 282 Z" /><glyph glyph-name="uni4F51" unicode="&#x4f51;" d="M397 561 Q332 561 290 557 L290 653 Q323 648 396 648 L507 648 Q536 755 537 823 L643 810 L632 765 Q625 740 616 701 L603 648 L842 648 Q916 648 950 653 L950 557 Q910 561 845 561 L576 561 Q542 460 498 374 L814 374 Q870 374 888 377 Q885 346 885 280 L885 20 Q885 -47 890 -96 L791 -96 L791 -42 L500 -42 L500 -96 L404 -96 Q409 -50 409 14 L409 143 Q409 164 410 186 L414 239 Q350 155 309 118 Q289 156 252 200 Q396 323 482 561 L397 561 ZM500 41 L791 41 L791 292 L500 292 L500 41 ZM138 308 Q138 361 142 452 Q84 357 63 331 Q47 386 23 433 Q120 540 180 705 Q205 773 213 827 L311 804 L289 738 Q267 669 227 584 L227 6 Q227 -52 232 -103 L132 -103 Q138 -50 138 7 L138 308 Z" /><glyph glyph-name="uni4F53" unicode="&#x4f53;" d="M232 152 Q423 294 518 542 L398 542 Q341 542 299 537 L299 632 Q343 628 401 628 L557 628 L557 728 Q557 781 551 814 L652 814 Q647 777 647 727 L647 628 L842 628 Q911 628 950 633 L950 537 Q908 542 845 542 L685 542 Q735 424 809 326 Q870 241 975 161 Q945 126 915 71 Q856 125 796 197 L796 89 Q776 91 730 91 L646 91 L646 2 Q646 -58 652 -100 L551 -100 Q557 -56 557 2 L557 91 L478 91 Q434 91 414 89 L414 197 Q358 126 302 77 Q279 115 232 168 L232 10 Q232 -69 236 -100 L135 -100 Q140 -50 140 11 L140 289 Q140 359 144 435 Q92 347 60 312 Q44 369 21 416 Q185 596 230 821 L325 795 Q278 662 232 566 L232 152 ZM557 305 Q557 383 561 472 Q502 331 467 275 Q441 231 400 179 Q438 174 482 174 L557 174 L557 305 ZM728 174 Q766 174 811 179 Q719 296 644 470 L646 308 L646 174 L728 174 Z" /><glyph glyph-name="uni4F55" unicode="&#x4f55;" d="M875 18 Q875 -42 845 -60 Q811 -79 705 -79 L630 -78 Q622 -14 608 17 Q656 11 719 11 Q756 11 769 16 Q784 24 784 45 L784 678 L463 678 Q393 678 354 674 L354 767 Q396 762 462 762 L844 762 Q906 762 950 767 L950 675 Q933 677 875 678 L875 18 ZM246 23 Q246 -45 250 -100 L150 -100 Q155 -47 155 23 L155 304 Q155 356 159 449 Q111 369 73 321 Q52 377 24 418 Q121 522 184 664 Q227 760 237 827 L331 793 Q291 677 246 576 L246 23 ZM676 246 Q676 202 678 176 Q657 178 609 178 L450 178 L450 105 L361 105 Q365 128 365 177 L365 486 Q365 535 362 559 Q380 556 433 556 L609 556 Q657 556 678 558 Q676 533 676 488 L676 246 ZM450 258 L593 258 L593 477 L450 477 L450 258 Z" /><glyph glyph-name="uni4F59" unicode="&#x4f59;" d="M542 797 Q623 715 692 667 Q815 585 962 538 Q950 522 918 442 Q846 468 762 512 L762 451 Q734 454 678 454 L540 454 L540 338 L810 338 Q873 338 913 343 L913 251 Q875 256 810 256 L540 256 L540 -2 Q540 -69 501 -83 Q472 -94 404 -94 L314 -92 Q308 -38 294 -1 Q346 -8 396 -8 Q424 -8 434 -2 Q444 4 444 25 L444 256 L170 256 Q109 256 67 251 L67 343 Q106 338 170 338 L444 338 L444 454 L304 454 Q251 454 219 451 L219 518 Q127 469 72 446 Q60 488 24 536 Q154 581 265 653 Q385 732 445 830 L551 810 L542 797 ZM719 536 Q588 615 486 724 Q392 621 252 536 L719 536 ZM327 179 Q239 21 101 -69 Q77 -28 41 9 Q173 89 243 218 L327 179 ZM862 -68 Q819 -11 771 43 Q689 129 650 163 L724 218 Q866 96 940 1 L862 -68 Z" /><glyph glyph-name="uni4F5C" unicode="&#x4f5c;" d="M644 445 L816 445 Q871 445 908 450 L908 359 Q868 364 815 364 L644 364 L644 219 L817 219 Q883 219 910 223 L910 132 Q869 137 817 137 L644 137 L644 13 Q644 -70 649 -101 L546 -101 Q551 -74 551 13 L551 590 L518 590 Q450 454 359 350 Q335 391 296 431 Q399 535 462 685 Q500 776 507 824 L603 796 Q598 782 586 751 Q568 700 557 672 L844 672 Q911 672 945 677 L945 586 Q905 590 844 590 L644 590 L644 445 ZM348 794 Q337 770 328 745 Q317 714 259 582 L259 21 Q259 -53 265 -97 L162 -97 Q168 -52 168 21 L168 308 Q168 337 172 449 Q108 363 70 323 Q56 368 23 424 Q133 524 212 701 Q246 784 253 827 L348 794 Z" /><glyph glyph-name="uni4F60" unicode="&#x4f60;" d="M675 11 Q675 -47 648 -68 Q619 -88 536 -88 Q495 -88 457 -87 Q451 -26 438 5 Q484 -2 520 -2 Q557 -2 568 3 Q582 11 582 33 L582 595 L454 595 Q404 505 338 422 Q302 466 265 488 Q372 607 419 744 Q432 783 438 821 L539 801 L522 758 L494 678 L806 678 Q878 678 902 682 L950 635 Q946 628 934 596 Q903 509 871 453 Q834 475 788 485 Q813 522 841 595 L675 595 L675 11 ZM230 20 Q230 -63 235 -99 L134 -99 Q140 -53 140 21 L140 301 Q140 366 143 444 Q101 374 73 337 Q53 394 25 438 Q122 541 179 694 Q210 773 218 825 L320 802 L307 767 L289 714 Q267 652 230 572 L230 20 ZM863 23 Q819 219 737 417 L824 445 Q871 336 898 252 Q933 153 956 62 L863 23 ZM506 425 Q476 275 443 184 Q420 121 366 21 Q331 56 287 75 Q381 207 422 446 L506 425 Z" /><glyph glyph-name="uni4F69" unicode="&#x4f69;" d="M616 456 L668 456 Q725 456 740 458 Q737 437 737 383 L737 104 Q737 58 720 42 Q701 26 654 26 Q648 84 640 104 Q637 104 650 104 Q673 104 673 130 L673 381 L616 381 L616 16 Q616 -42 621 -84 L540 -84 Q546 -42 546 16 L546 381 L488 381 L488 98 Q488 37 490 9 L418 9 Q423 49 423 110 L423 377 Q423 431 420 459 Q439 456 492 456 L546 456 L546 553 L478 553 Q437 553 418 551 L418 632 Q445 630 478 630 L688 630 Q721 630 746 632 L746 551 Q724 553 688 553 L616 553 L616 456 ZM210 -35 Q302 121 302 561 Q302 730 297 796 Q331 792 406 792 L767 792 Q832 792 873 796 Q866 722 866 528 Q866 310 877 168 Q883 90 889 77 Q893 68 899 68 Q924 68 924 175 Q940 155 974 127 Q967 31 946 -32 Q928 -87 892 -87 Q842 -87 814 27 Q784 147 784 505 L784 705 L381 705 L381 554 Q381 283 356 121 Q337 -1 296 -86 Q258 -38 210 -11 Q211 -72 214 -98 L114 -98 Q119 -52 119 25 L119 285 Q119 320 122 451 Q79 366 48 330 Q32 395 8 444 Q99 547 156 712 Q181 786 190 830 L277 797 L268 768 Q254 710 237 677 L210 605 L210 -35 Z" /><glyph glyph-name="uni4F73" unicode="&#x4f73;" d="M843 481 Q905 481 944 485 L944 396 Q898 400 845 400 L399 400 Q341 400 297 396 L297 485 Q331 481 401 481 L567 481 L567 612 L439 612 Q376 612 346 609 L346 696 Q383 692 440 692 L567 692 L567 709 Q567 786 562 813 L663 813 Q660 788 660 709 L660 692 L809 692 Q871 692 905 697 L905 609 Q874 612 810 612 L660 612 L660 481 L843 481 ZM820 259 Q881 259 916 264 L916 174 Q889 178 819 178 L659 178 L659 27 L848 27 Q918 27 955 32 L955 -61 Q915 -56 847 -56 L388 -56 Q318 -56 278 -61 L278 31 Q311 27 389 27 L566 27 L566 178 L422 178 Q357 178 326 174 L326 263 Q354 259 423 259 L566 259 L565 283 Q565 331 562 359 L662 359 Q660 340 659 259 L820 259 ZM140 305 Q140 359 144 446 Q88 359 60 327 Q45 386 20 430 Q121 537 182 692 Q215 777 222 823 L320 798 Q274 666 231 583 L231 13 Q231 -47 237 -97 L134 -97 Q140 -49 140 14 L140 305 Z" /><glyph glyph-name="uni4F7F" unicode="&#x4f7f;" d="M642 263 Q626 170 581 97 Q734 14 958 4 Q932 -48 921 -92 Q690 -67 528 35 Q446 -45 308 -95 Q285 -49 256 -14 Q374 18 459 87 Q421 121 390 162 Q376 180 366 192 L437 230 Q452 199 509 147 Q540 201 552 263 L394 263 Q345 263 321 260 Q324 290 324 336 L324 476 Q324 529 321 552 Q357 550 406 550 L571 550 L571 598 Q571 618 569 639 L395 639 Q336 639 306 635 L306 725 Q343 721 407 721 L570 721 Q570 785 565 823 L663 823 Q661 803 661 721 L845 721 Q908 721 951 726 L951 635 Q922 639 858 639 L661 639 L661 550 L817 550 Q870 550 903 552 Q901 524 901 473 L901 343 Q901 287 903 260 Q873 263 814 263 L642 263 ZM563 343 Q567 393 570 469 L413 469 L413 343 L563 343 ZM811 343 L811 469 L659 469 Q657 395 651 343 L811 343 ZM131 306 Q131 336 136 451 Q90 372 59 330 Q44 381 19 431 Q174 601 205 825 L303 802 Q263 676 222 585 L222 8 Q222 -59 227 -101 L126 -101 Q131 -52 131 10 L131 306 Z" /><glyph glyph-name="uni4F9B" unicode="&#x4f9b;" d="M442 535 L404 535 Q343 535 316 530 L316 626 Q350 622 404 622 L442 622 L442 734 Q442 775 437 808 L538 808 Q534 786 534 733 L534 622 L698 622 L698 732 Q698 786 694 808 L796 808 Q791 777 791 731 L791 622 L845 622 Q900 622 933 626 L933 530 Q902 535 845 535 L791 535 L791 309 L872 309 Q934 309 960 314 L960 218 Q926 223 872 223 L376 223 Q322 223 288 218 L288 314 Q319 309 376 309 L442 309 L442 535 ZM534 309 L698 309 L698 535 L534 535 L534 309 ZM316 800 L304 767 Q272 666 232 585 L232 10 Q232 -51 237 -99 L134 -99 Q140 -56 140 12 L140 298 Q140 369 145 446 Q93 355 55 313 Q38 371 16 417 Q187 595 218 827 L316 800 ZM751 195 Q894 66 965 -24 L888 -96 Q816 5 676 138 L751 195 ZM554 139 Q465 -1 339 -98 Q301 -52 264 -24 Q330 18 380 73 Q430 125 470 193 L554 139 Z" /><glyph glyph-name="uni4FB5" unicode="&#x4fb5;" d="M415 197 Q366 197 350 195 L350 235 L282 235 Q285 255 285 291 L285 359 Q285 390 283 410 Q307 407 368 407 L854 407 Q916 407 943 410 Q941 392 941 355 L941 295 Q941 259 944 239 L843 239 L863 219 Q860 215 810 158 Q767 112 687 54 Q804 11 963 -6 Q940 -46 924 -97 Q739 -63 605 3 Q481 -62 313 -99 Q296 -48 272 -12 Q400 5 525 53 Q456 104 405 157 L516 197 L415 197 ZM471 197 Q537 132 607 93 Q673 129 741 197 L471 197 ZM854 335 L373 335 L373 267 Q401 266 425 266 L738 266 Q787 266 816 270 L854 228 L854 335 ZM439 594 Q395 594 368 592 L368 659 Q396 657 439 657 L785 657 L785 718 L420 718 Q371 718 348 715 L348 791 Q373 787 424 787 L801 787 Q853 787 876 790 Q874 763 874 721 L874 532 Q874 486 876 464 Q835 466 795 466 L404 466 Q366 466 342 463 L342 532 Q358 530 404 530 L785 530 L785 594 L439 594 ZM220 6 Q220 -47 225 -103 L126 -103 Q131 -62 131 7 L131 305 Q131 339 136 449 Q89 363 59 327 Q46 376 20 428 Q112 534 171 699 Q198 775 205 826 L300 798 Q295 782 281 739 Q260 668 220 581 L220 6 Z" /><glyph glyph-name="uni4FCA" unicode="&#x4fca;" d="M736 309 Q792 309 815 313 L860 269 L836 231 Q783 148 701 74 Q820 18 965 -3 Q942 -41 927 -98 Q758 -60 623 18 Q486 -67 307 -100 Q291 -51 267 -13 Q417 6 548 73 Q492 119 444 174 Q396 133 321 86 Q299 128 268 158 Q344 199 404 252 Q480 320 524 411 L611 383 Q588 343 564 309 L736 309 ZM513 242 L500 229 Q564 157 622 119 Q687 167 740 242 L513 242 ZM577 784 Q521 712 468 659 Q657 668 771 678 Q713 723 691 739 L759 781 Q881 698 962 612 L882 561 Q858 591 838 614 Q688 600 544 590 Q461 584 338 572 L317 648 Q353 657 373 673 Q450 758 486 826 L577 784 ZM136 309 Q136 356 141 453 Q85 366 56 333 Q41 388 17 437 Q118 537 184 700 Q216 778 222 823 L324 796 L308 754 Q277 665 226 574 L226 8 Q226 -41 231 -101 L131 -101 Q136 -62 136 10 L136 309 ZM558 520 Q465 398 352 340 Q328 368 278 403 Q349 435 396 473 Q439 509 467 553 L558 520 ZM886 352 Q785 450 672 513 L737 565 Q844 510 961 419 L886 352 Z" /><glyph glyph-name="uni4FCF" unicode="&#x4fcf;" d="M796 531 Q865 531 884 533 Q881 506 881 437 L881 -4 Q881 -52 861 -69 Q840 -92 765 -92 Q715 -92 666 -88 Q663 -48 647 -2 Q698 -10 746 -10 Q788 -10 788 23 L788 121 L439 121 L439 13 Q439 -57 443 -97 L342 -97 Q347 -52 347 13 L347 450 Q347 493 344 534 Q367 531 428 531 L564 531 L564 735 Q564 785 559 820 L663 820 Q658 786 658 739 L658 531 L796 531 ZM788 358 L788 452 L439 452 L439 358 L788 358 ZM439 285 L439 193 L788 193 L788 285 L439 285 ZM217 17 Q217 -66 221 -102 L121 -102 Q126 -56 126 18 L126 298 Q126 363 129 441 Q87 371 59 335 Q40 398 14 437 Q108 537 167 691 Q196 771 204 822 L306 799 L293 764 L276 711 Q254 649 217 569 L217 17 ZM414 780 Q470 692 510 597 L433 556 Q391 657 338 739 L414 780 ZM902 745 Q845 632 801 558 L723 601 Q778 685 816 787 L902 745 Z" /><glyph glyph-name="uni4FDD" unicode="&#x4fdd;" d="M844 364 Q906 364 946 369 L946 274 Q899 279 848 279 L695 279 Q758 202 815 154 Q892 90 969 54 Q936 10 911 -39 Q835 12 791 51 Q724 110 654 219 Q660 145 660 82 L660 -14 Q660 -60 665 -99 L564 -99 Q569 -59 569 -13 L569 82 L571 219 Q504 108 428 39 Q369 -13 315 -46 Q291 2 256 40 Q343 86 423 158 Q475 205 530 279 L394 279 Q332 279 292 274 L292 368 Q337 364 394 364 L569 364 L569 463 L454 463 Q387 463 360 460 Q363 491 363 549 L363 696 Q363 749 360 779 Q386 775 463 775 L785 775 Q860 775 887 779 Q884 747 884 690 L884 547 Q884 489 887 461 Q885 461 867 461 Q855 461 845 462 Q826 463 796 463 L660 463 L660 364 L844 364 ZM453 546 L792 546 L792 692 L453 692 L453 546 ZM139 299 Q139 352 143 441 Q93 360 59 324 Q41 384 17 429 Q124 535 185 695 Q216 775 223 825 L318 794 Q316 788 306 756 Q279 669 228 568 L228 12 Q228 -56 233 -98 L134 -98 Q139 -45 139 13 L139 299 Z" /><glyph glyph-name="uni4FDE" unicode="&#x4fde;" d="M557 812 L544 792 Q623 712 687 668 Q810 585 951 541 Q935 527 892 446 Q777 490 666 565 L666 480 Q646 483 600 483 L373 483 Q316 483 305 481 L305 563 Q224 511 176 487 Q113 457 83 444 Q67 493 35 541 Q114 569 188 607 Q287 656 363 727 Q412 771 451 831 L557 812 ZM666 564 Q561 641 490 723 Q410 635 311 566 L369 564 L666 564 ZM129 314 Q129 386 126 416 Q148 411 193 411 L407 411 Q458 411 488 416 Q486 394 486 308 L486 23 Q486 -47 461 -68 Q435 -89 350 -89 Q330 -89 328 -89 Q325 -58 312 -14 Q339 -18 367 -18 Q404 -18 404 15 L404 62 L211 62 L211 20 Q211 -56 215 -101 L124 -101 Q129 -50 129 29 L129 314 ZM211 129 L404 129 L404 203 L211 203 L211 129 ZM404 345 L211 345 L211 270 L404 270 L404 345 ZM574 70 Q576 95 576 139 L576 316 Q576 346 573 386 L665 386 Q662 358 662 316 L662 140 Q662 104 664 70 L574 70 ZM861 409 Q857 379 857 320 L857 16 Q857 -60 827 -83 Q798 -107 700 -107 L656 -107 Q648 -57 633 -17 Q665 -22 701 -22 Q739 -22 754 -10 Q769 1 769 33 L769 320 Q769 377 765 409 L861 409 Z" /><glyph glyph-name="uni4FE1" unicode="&#x4fe1;" d="M572 704 Q552 761 533 795 L621 820 Q648 766 666 704 L864 704 Q920 704 951 709 L951 624 Q914 628 864 628 L375 628 Q322 628 299 624 L299 708 Q322 704 375 704 L572 704 ZM226 12 Q226 -56 231 -98 L132 -98 Q138 -46 138 13 L138 314 Q138 352 142 460 Q97 379 61 334 Q46 385 21 435 Q115 538 172 694 Q202 776 209 825 L303 792 L282 732 Q261 666 226 590 L226 12 ZM876 460 Q855 463 805 463 L418 463 Q377 463 355 460 L355 538 Q374 535 418 535 L804 535 Q852 535 876 538 L876 460 ZM876 295 Q851 298 806 298 L418 298 Q373 298 355 296 L355 373 Q374 370 418 370 L805 370 Q853 370 876 373 L876 295 ZM437 -99 L345 -99 Q349 -64 349 -13 L349 130 Q349 185 346 208 Q368 205 419 205 L802 205 Q855 205 879 208 Q876 184 876 131 L876 -12 Q876 -68 880 -98 L786 -98 L786 -59 L437 -59 L437 -99 ZM786 20 L786 129 L437 129 L437 20 L786 20 Z" /><glyph glyph-name="uni4FEE" unicode="&#x4fee;" d="M914 685 Q911 683 884 646 Q821 561 735 489 Q837 436 972 416 Q951 380 938 329 Q767 372 665 440 Q573 386 434 344 Q417 389 398 415 Q525 445 603 490 Q558 533 514 595 Q476 550 443 521 Q408 556 370 582 L370 147 Q370 73 373 53 L283 53 Q288 78 288 149 L288 560 Q288 616 285 647 L372 647 Q371 635 369 569 Q509 693 545 824 L636 807 Q625 782 602 736 L808 736 Q838 736 852 741 L914 685 ZM555 662 Q607 581 670 532 Q738 582 800 662 L555 662 ZM133 301 Q133 354 138 458 Q89 363 62 330 Q44 391 20 431 Q176 603 209 821 L305 796 Q303 788 293 758 Q264 667 217 571 L217 14 Q217 -60 221 -100 L128 -100 Q133 -48 133 14 L133 301 ZM837 252 Q673 122 461 66 Q449 101 422 135 Q680 185 767 300 L837 252 ZM724 333 L697 314 Q614 254 453 209 Q439 239 413 273 Q590 308 664 377 L724 333 ZM953 161 Q927 139 922 134 Q730 -35 428 -99 Q410 -57 385 -24 Q604 11 758 105 Q847 160 884 210 L953 161 Z" /><glyph glyph-name="uni5029" unicode="&#x5029;" d="M650 506 L858 506 Q922 506 950 511 L950 432 Q919 436 858 436 L374 436 Q310 436 279 432 L279 511 Q300 506 374 506 L564 506 L564 558 L423 558 Q378 558 347 555 L347 625 Q373 622 424 622 L564 622 L564 672 L406 672 Q345 672 318 669 L318 748 Q352 743 413 743 L564 743 L564 757 Q564 800 560 820 L654 820 Q650 800 650 757 L650 743 L829 743 Q896 743 923 747 L923 669 Q895 672 834 672 L650 672 L650 622 L810 622 Q862 622 886 625 L886 555 Q861 558 808 558 L650 558 L650 506 ZM436 72 L436 4 Q436 -71 440 -100 L345 -100 Q349 -72 349 7 L349 308 Q349 357 346 386 Q380 383 419 383 L784 383 Q843 383 866 386 Q863 363 863 292 L863 1 Q863 -54 839 -73 Q814 -92 737 -92 L669 -90 Q666 -40 651 -2 Q689 -9 730 -9 Q755 -9 764 -3 Q775 4 775 23 L775 72 L436 72 ZM775 192 L436 192 L436 134 L775 134 L775 192 ZM775 310 L436 310 L436 254 L775 254 L775 310 ZM137 317 Q137 358 141 466 Q95 381 57 334 Q47 385 17 437 Q121 547 184 729 Q204 792 208 827 L307 802 Q307 800 299 778 Q260 661 226 588 L226 9 Q226 -45 232 -100 L131 -100 Q137 -60 137 11 L137 317 Z" /><glyph glyph-name="uni505A" unicode="&#x505a;" d="M961 566 Q954 567 904 568 Q895 349 814 176 Q880 73 971 1 Q940 -28 910 -80 Q821 14 770 95 Q706 -4 606 -95 Q581 -49 546 -18 Q662 70 725 182 Q675 308 657 430 L623 374 Q612 389 581 416 Q577 366 577 319 L577 103 Q577 53 578 35 L375 36 L375 -38 L289 -38 Q293 -1 293 59 L293 327 Q293 370 291 394 Q308 392 345 392 L391 392 L391 559 L344 559 Q303 559 264 556 L264 645 Q296 641 344 641 L391 641 L391 729 Q391 788 387 810 L481 810 Q477 781 477 734 L477 641 L518 641 Q572 641 603 645 L603 556 Q574 559 514 559 L477 559 L477 392 L525 392 Q560 392 603 396 Q575 422 558 433 Q633 537 677 702 Q695 773 697 818 L787 797 Q785 793 778 764 Q774 746 748 654 L888 654 Q938 654 961 658 L961 566 ZM719 568 Q713 555 710 545 Q728 389 769 269 Q816 404 827 568 L719 568 ZM374 115 L500 115 L500 316 L374 316 L374 115 ZM123 287 Q123 345 128 442 Q86 361 59 323 Q39 390 11 429 Q94 529 157 711 Q182 781 187 823 L281 798 Q279 794 271 766 Q243 673 208 588 L208 19 Q208 -55 212 -95 L118 -95 Q123 -43 123 19 L123 287 Z" /><glyph glyph-name="uni505C" unicode="&#x505c;" d="M286 194 Q289 214 289 253 L289 304 Q289 347 286 365 Q318 363 369 363 L851 363 Q916 363 947 367 Q945 343 945 304 L945 253 Q945 213 947 193 L880 193 L880 135 Q857 139 790 139 L676 139 L676 -3 Q676 -58 650 -73 Q623 -90 531 -90 Q503 -90 453 -88 Q449 -41 432 0 Q473 -8 534 -8 Q561 -8 570 -2 Q582 5 582 24 L582 139 L448 139 Q381 139 359 135 L359 194 L286 194 ZM377 217 Q401 216 445 216 L793 216 Q831 216 856 217 L856 285 L377 285 L377 217 ZM573 741 Q573 752 547 799 L647 820 Q670 770 680 741 L835 741 Q902 741 936 746 L936 660 Q904 663 847 663 L403 663 Q346 663 314 660 L314 745 Q341 741 411 741 L573 741 ZM136 301 Q136 344 140 447 Q84 351 57 318 Q42 370 17 420 Q90 502 140 611 Q196 735 207 821 L305 798 Q257 648 224 576 L224 6 Q224 -62 229 -104 L130 -104 Q136 -51 136 7 L136 301 ZM366 552 Q366 586 363 611 Q390 608 452 608 L778 608 Q839 608 865 611 Q862 588 862 553 L862 471 Q862 435 865 415 Q832 418 776 418 L452 418 Q395 418 363 415 Q366 439 366 474 L366 552 ZM453 482 L772 482 L772 545 L453 545 L453 482 Z" /><glyph glyph-name="uni5065" unicode="&#x5065;" d="M411 470 Q460 470 474 472 L470 439 Q447 233 405 117 Q470 50 552 28 Q632 5 798 5 Q867 5 964 13 Q945 -32 939 -76 Q890 -77 823 -77 Q640 -77 543 -52 Q446 -27 373 45 Q331 -28 272 -95 Q252 -58 200 -7 Q201 -65 204 -98 L112 -98 Q117 -46 117 16 L117 281 Q117 338 122 437 Q62 334 50 318 Q37 369 15 417 Q103 540 152 684 Q184 777 191 819 L278 794 L263 752 Q297 748 332 748 L383 748 Q421 748 439 750 L475 709 Q473 705 434 618 Q407 558 355 470 L411 470 ZM299 345 Q311 276 353 189 Q379 285 393 398 L305 398 Q278 398 233 395 L231 395 L255 433 Q328 557 376 671 L319 671 Q288 671 277 669 L277 796 Q237 665 200 580 L200 -38 Q277 36 319 112 Q271 182 225 320 L299 345 ZM535 534 Q492 534 477 531 L477 609 Q498 605 565 605 L628 605 L628 678 L584 678 Q535 678 517 676 L517 747 Q537 744 584 744 L628 744 L628 755 Q628 795 625 812 L712 812 Q709 793 709 755 L709 744 L833 744 Q884 744 899 746 Q898 735 898 687 L898 605 Q946 605 962 609 L962 530 Q935 534 898 534 L898 445 Q898 419 900 390 Q866 391 830 391 L709 391 L709 321 L829 321 Q886 321 911 324 L911 254 Q882 257 828 257 L709 257 L709 182 L855 182 Q909 182 943 186 L943 109 Q909 113 855 113 L709 113 Q710 61 713 48 L625 48 Q628 67 628 113 L545 113 Q493 113 461 109 L461 185 Q489 182 545 182 L628 182 L628 257 L575 257 Q520 257 499 254 L499 323 Q520 321 575 321 L628 321 L628 391 L579 391 Q543 391 518 389 L518 459 Q541 456 581 456 L628 456 L628 534 L535 534 ZM709 456 L821 456 L821 534 L709 534 L709 456 ZM821 605 L821 678 L709 678 L709 605 L821 605 Z" /><glyph glyph-name="uni50A8" unicode="&#x50a8;" d="M414 70 L504 126 L504 29 Q462 7 402 -25 Q368 -42 342 -58 L303 29 Q328 46 332 95 L332 389 L314 389 Q273 389 244 385 L244 485 Q276 480 315 480 L355 480 Q402 480 419 483 L418 478 Q414 437 414 378 L414 70 ZM401 566 Q359 631 285 691 L355 752 Q422 691 467 635 L401 566 ZM457 272 Q518 306 585 362 Q621 392 661 436 L538 436 Q492 436 459 433 L459 516 Q488 513 538 513 L620 513 L620 626 L570 626 Q517 626 487 623 L487 702 Q508 698 570 698 L620 698 L620 737 Q620 783 617 805 L706 805 Q701 780 701 736 L701 698 L755 698 Q812 698 826 701 L826 619 Q871 705 890 762 L965 726 L935 671 Q887 578 839 513 L883 513 Q939 513 960 516 L960 433 Q928 436 874 436 L767 436 Q745 405 686 352 L841 352 Q902 352 921 355 Q918 328 918 253 L918 -3 Q918 -62 922 -97 L836 -97 L836 -51 L641 -51 L641 -97 L559 -97 Q563 -62 563 -1 L563 259 Q531 226 491 198 Q463 241 440 263 L457 272 ZM698 513 L747 513 Q790 559 829 624 Q799 626 758 626 L698 626 L698 513 ZM642 185 L836 185 L836 281 L642 281 L642 185 ZM641 20 L836 20 L836 120 L641 120 L641 20 ZM211 14 Q211 -22 218 -100 L119 -100 Q124 -52 124 14 L124 297 Q124 348 129 452 Q88 378 50 328 Q37 379 13 427 Q79 508 123 611 Q164 710 185 821 L272 788 L236 673 Q224 633 211 596 L211 14 Z" /><glyph glyph-name="uni50CF" unicode="&#x50cf;" d="M598 403 Q589 390 564 366 Q610 320 650 256 L663 264 Q749 310 831 381 L907 324 L842 280 L799 253 Q856 124 972 34 Q932 -7 910 -46 Q799 49 733 214 L682 188 Q708 110 708 44 Q708 -53 666 -80 Q633 -99 545 -99 L487 -98 Q481 -57 453 3 Q374 -38 290 -70 Q281 -38 254 1 Q453 62 605 170 Q589 207 578 228 Q455 152 291 92 Q275 131 255 155 Q419 197 547 277 Q532 298 509 324 Q434 277 293 237 Q279 277 257 305 Q419 336 508 403 L398 403 Q355 403 326 401 Q328 425 328 467 L328 541 Q302 519 285 507 Q268 540 217 589 L217 16 Q217 -59 221 -99 L123 -99 Q128 -57 128 15 L128 290 Q128 337 133 450 Q81 366 56 334 Q39 392 18 436 Q110 544 170 703 Q200 780 206 825 L306 803 L282 738 Q247 643 206 555 Q299 615 341 654 Q432 737 472 825 L572 809 L543 764 L688 764 Q737 764 770 767 L808 732 Q806 731 780 697 Q777 691 761 674 L711 617 L846 617 Q893 617 917 619 Q915 594 915 548 L915 474 Q915 425 917 401 Q892 403 846 403 L598 403 ZM548 461 Q566 502 579 557 L413 557 L413 461 L548 461 ZM826 461 L826 557 L660 557 Q650 505 631 461 L826 461 ZM611 617 Q638 645 674 696 L493 696 Q467 664 422 617 L611 617 ZM425 -11 Q507 -24 547 -24 Q592 -24 608 -7 Q623 11 623 60 Q623 67 620 106 Q532 45 425 -11 Z" /><glyph glyph-name="uni5143" unicode="&#x5143;" d="M651 54 Q651 29 670 20 Q684 15 736 15 Q791 15 811 22 Q833 30 840 56 Q848 84 855 187 Q897 166 946 157 Q933 3 910 -31 Q881 -77 713 -77 Q602 -77 572 -51 Q555 -37 555 7 L555 430 L393 430 Q393 230 335 112 Q291 19 204 -43 Q174 -65 105 -101 Q75 -47 40 -13 Q189 52 246 159 Q294 248 294 430 L152 430 Q89 430 47 425 L47 527 Q89 522 152 522 L827 522 Q891 522 931 527 L931 425 Q888 430 827 430 L651 430 L651 54 ZM837 670 Q809 674 742 674 L239 674 Q175 674 145 670 L145 771 Q175 766 243 766 L740 766 Q807 766 837 771 L837 670 Z" /><glyph glyph-name="uni5144" unicode="&#x5144;" d="M632 43 Q632 17 654 10 Q670 5 732 5 Q831 5 846 36 Q861 68 861 184 L861 197 Q905 175 952 165 Q945 1 916 -38 Q896 -64 858 -71 Q817 -80 707 -80 Q601 -80 567 -63 Q537 -48 537 3 L537 381 L422 381 Q419 297 407 244 Q374 84 252 -10 Q187 -61 87 -101 Q62 -47 32 -13 Q208 45 276 160 Q323 240 327 381 L245 381 Q180 381 149 378 Q152 402 152 464 L152 705 Q152 758 149 785 Q183 781 255 781 L726 781 Q802 781 832 785 Q829 759 829 703 L829 466 Q829 406 832 378 Q801 381 737 381 L632 381 L632 43 ZM247 693 L247 468 L733 468 L733 693 L247 693 Z" /><glyph glyph-name="uni5149" unicode="&#x5149;" d="M819 457 Q880 457 927 462 L927 367 Q890 372 821 372 L628 372 L628 39 Q628 14 648 7 Q664 3 727 3 Q821 3 834 29 Q849 58 852 166 Q891 144 943 132 Q932 -23 887 -59 Q856 -85 708 -85 Q592 -85 564 -70 Q536 -55 536 3 L536 372 L406 372 Q399 247 377 181 Q339 57 240 -18 Q177 -66 87 -97 Q58 -43 29 -10 Q168 27 237 117 Q289 183 305 292 Q309 317 310 372 L158 372 Q99 372 53 367 L53 462 Q98 457 160 457 L433 457 L433 713 Q433 770 429 806 L534 806 Q529 781 529 713 L529 457 L819 457 ZM187 760 Q264 665 328 543 L243 494 Q179 625 104 718 L187 760 ZM864 721 Q794 584 713 485 L631 532 Q712 625 773 761 L864 721 Z" /></font>
</defs>
</svg>
