<?xml version="1.0" standalone="no"?><!DOCTYPE svg PUBLIC "-//W3C//DTD SVG 1.1//EN" "http://www.w3.org/Graphics/SVG/1.1/DTD/svg11.dtd" ><svg xmlns="http://www.w3.org/2000/svg"><metadata></metadata><defs><font id="fonteditor" horiz-adv-x="261"><font-face font-family="e¹kcQpN­N-|Ñ_GBK" font-weight="400" font-stretch="normal" units-per-em="256" panose-1="2 0 0 0 0 0 0 0 0 0" ascent="229" descent="-76" x-height="0" bbox="0 -68 253 217" underline-thickness="0" underline-position="0" unicode-range="U+0023-ff1a" /><missing-glyph horiz-adv-x="256"  /><glyph glyph-name="numbersign" unicode="#" d="M159 113 L129 113 L119 66 L151 66 L146 44 L115 44 L103 -15 L79 -15 L91 44 L59 44 L47 -15 L23 -15 L35 44 L3 44 L8 66 L40 66 L49 113 L16 113 L20 135 L54 135 L65 193 L88 193 L77 135 L109 135 L121 193 L144 193 L133 135 L163 135 L159 113 ZM90 66 L100 113 L68 113 L58 66 L90 66 Z" /><glyph glyph-name="hyphen" unicode="-" d="M159 77 L16 77 L16 101 L159 101 L159 77 Z" /><glyph glyph-name="period" unicode="." d="M65 27 L65 -12 L25 -12 L25 27 L65 27 Z" /><glyph glyph-name="zero" unicode="0" d="M88 197 Q162 196 163 90 Q164 -17 88 -16 Q13 -14 12 90 Q14 194 88 197 ZM88 9 Q126 8 126 89 Q127 171 88 170 Q49 170 49 89 Q49 9 88 9 Z" /><glyph glyph-name="one" unicode="1" d="M71 -13 L71 144 Q46 122 7 106 Q7 121 7 137 Q58 159 78 195 L105 195 L105 -13 L71 -13 Z" /><glyph glyph-name="two" unicode="2" d="M51 15 L155 15 L155 -12 L9 -12 L9 8 Q31 47 73 78 Q124 114 120 135 Q119 169 83 169 Q52 169 43 131 L11 139 Q25 197 89 197 Q152 195 156 139 Q161 102 107 68 Q67 41 51 15 Z" /><glyph glyph-name="three" unicode="3" d="M10 38 L45 45 Q52 9 86 9 Q124 10 125 46 Q125 80 77 80 Q65 80 58 80 L58 106 Q65 106 73 106 Q118 107 119 139 Q119 170 86 170 Q53 169 48 135 L14 143 Q28 196 88 197 Q151 195 154 143 Q154 105 113 94 Q158 86 161 44 Q158 -13 85 -15 Q22 -17 10 38 Z" /><glyph glyph-name="four" unicode="4" d="M136 58 L163 58 L163 33 L136 33 L136 -13 L105 -13 L105 33 L4 33 L4 55 L104 195 L136 195 L136 58 ZM37 58 L105 58 L105 136 Q105 154 106 159 Q106 158 105 158 Q105 156 103 153 Q102 151 102 151 Q99 147 96 141 Q94 139 89 131 Q78 116 72 107 Q70 105 67 100 Q66 98 65 97 Q48 73 37 58 Z" /><glyph glyph-name="five" unicode="5" d="M12 39 L46 46 Q52 9 87 9 Q124 12 127 52 Q126 95 86 96 Q61 96 48 77 L20 78 L29 193 L150 193 L150 164 L58 164 L52 105 Q71 121 95 121 Q159 118 162 55 Q160 -13 88 -15 Q25 -15 12 39 Z" /><glyph glyph-name="six" unicode="6" d="M157 147 L125 141 Q118 171 90 170 Q46 171 45 93 Q60 120 97 120 Q157 116 162 55 Q158 -13 90 -16 Q10 -17 11 87 Q13 195 90 197 Q145 196 157 147 ZM89 9 Q126 11 128 52 Q127 93 89 94 Q49 92 47 56 Q49 11 89 9 Z" /><glyph glyph-name="seven" unicode="7" d="M84 -12 L47 -12 Q59 76 120 163 L13 163 L13 192 L159 192 L159 167 Q91 77 84 -12 Z" /><glyph glyph-name="eight" unicode="8" d="M56 95 Q20 105 19 142 Q24 194 89 197 Q152 194 158 142 Q158 105 119 94 Q162 84 164 42 Q163 -15 86 -16 Q14 -14 12 42 Q14 82 56 95 ZM88 8 Q127 9 129 42 Q128 74 87 81 Q49 75 48 43 Q50 9 88 8 ZM89 172 Q57 171 55 141 Q56 113 89 107 Q121 113 122 140 Q120 170 89 172 Z" /><glyph glyph-name="nine" unicode="9" d="M16 32 L48 39 Q55 8 83 9 Q127 8 128 86 Q112 60 76 59 Q15 62 12 125 Q16 194 84 197 Q164 199 162 94 Q162 -16 82 -16 Q27 -16 16 32 ZM127 123 Q126 169 85 170 Q48 168 46 127 Q48 88 84 86 Q125 88 127 123 Z" /><glyph glyph-name="colon" unicode=":" d="M65 -11 L25 -11 L25 28 L65 28 L65 -11 ZM65 94 L25 94 L25 135 L65 135 L65 94 Z" /><glyph glyph-name="at" unicode="@" d="M214 -8 L224 -21 Q189 -61 127 -60 Q14 -56 10 62 Q19 189 131 197 Q235 192 241 85 Q239 1 178 -1 Q148 -1 149 30 Q139 -2 108 -2 Q68 0 67 57 Q71 133 125 138 Q149 137 154 114 L156 135 L180 135 Q173 60 171 42 Q168 13 184 15 Q215 20 217 84 Q214 171 132 175 Q42 168 36 62 Q38 -35 129 -38 Q183 -37 214 -8 ZM102 99 Q93 84 92 55 Q92 18 116 18 Q130 18 140 33 Q147 42 150 59 Q151 62 151 70 Q152 78 152 82 Q150 113 128 115 Q113 115 102 99 Z" /><glyph glyph-name="A" unicode="a" d="M123 194 L205 -13 L166 -13 L146 40 L58 40 L38 -13 L0 -13 L81 194 L123 194 ZM102 164 Q102 162 99 155 Q97 148 96 146 Q95 144 67 68 L138 68 Q109 144 108 146 Q107 150 103 160 Q102 163 102 164 Z" /><glyph glyph-name="B" unicode="b" d="M118 -13 L22 -13 L22 194 L113 194 Q178 192 183 144 Q182 105 142 95 Q188 87 192 46 Q192 -13 118 -13 ZM111 80 L57 80 L57 13 L112 13 Q154 13 154 47 Q151 79 111 80 ZM106 167 L57 167 L57 107 L106 107 Q145 108 146 138 Q145 167 106 167 Z" /><glyph glyph-name="C" unicode="c" d="M199 135 L164 126 Q152 164 112 166 Q56 162 52 90 Q55 18 112 13 Q158 13 166 64 L201 53 Q186 -16 112 -16 Q19 -11 14 90 Q19 191 112 197 Q178 194 199 135 Z" /><glyph glyph-name="D" unicode="d" d="M91 -13 L22 -13 L22 194 L90 194 Q195 192 197 91 Q200 -16 91 -13 ZM89 164 L57 164 L57 15 L88 15 Q160 15 160 91 Q158 162 89 164 Z" /><glyph glyph-name="E" unicode="e" d="M182 -12 L22 -12 L22 194 L177 194 L177 164 L58 164 L58 107 L170 107 L170 78 L58 78 L58 15 L182 15 L182 -12 Z" /><glyph glyph-name="G" unicode="g" d="M209 102 L209 26 Q188 -15 118 -16 Q20 -11 15 90 Q20 192 114 197 Q185 197 208 142 L174 130 Q159 166 114 166 Q57 161 53 90 Q56 18 118 13 Q160 13 176 37 L176 73 L111 73 L111 102 L209 102 Z" /><glyph glyph-name="L" unicode="l" d="M167 -13 L22 -13 L22 193 L57 193 L57 15 L167 15 L167 -13 Z" /><glyph glyph-name="M" unicode="m" d="M176 194 L233 194 L233 -13 L199 -13 L198 166 Q190 138 142 -12 L108 -12 L47 165 L47 -13 L14 -13 L14 194 L70 194 L125 25 L176 194 Z" /><glyph glyph-name="P" unicode="p" d="M106 63 L58 63 L58 -13 L22 -13 L22 194 L109 194 Q180 191 184 130 Q183 64 106 63 ZM102 165 L58 165 L58 91 L102 91 Q146 91 147 129 Q145 164 102 165 Z" /><glyph glyph-name="R" unicode="r" d="M206 -13 L160 -13 L100 72 L58 72 L58 -13 L23 -13 L23 193 L118 193 Q190 191 193 134 Q193 81 138 74 L206 -13 ZM58 165 L58 99 L111 99 Q156 99 156 132 Q157 166 111 165 L58 165 Z" /><glyph glyph-name="T" unicode="t" d="M182 164 L112 164 L112 -13 L76 -13 L76 164 L6 164 L6 193 L182 193 L182 164 Z" /><glyph glyph-name="a" unicode="a" d="M164 -12 L131 -12 Q125 -3 124 12 Q105 -14 59 -15 Q13 -13 11 26 Q11 66 66 73 Q113 81 122 89 Q125 117 88 115 Q55 115 48 90 L16 96 Q27 141 88 140 Q159 142 156 80 Q156 55 156 19 Q156 0 164 -12 ZM124 52 L124 68 Q111 58 81 54 Q44 48 45 27 Q44 7 74 8 Q120 11 124 52 Z" /><glyph glyph-name="c" unicode="c" d="M160 92 L125 86 Q116 111 89 112 Q49 110 47 61 Q48 11 89 10 Q121 11 126 43 L162 38 Q150 -17 88 -15 Q13 -13 11 61 Q14 137 88 140 Q143 138 160 92 Z" /><glyph glyph-name="i" unicode="i" d="M19 -12 L19 136 L53 136 L53 -12 L19 -12 ZM18 162 L18 196 L53 196 L53 162 L18 162 Z" /><glyph glyph-name="l" unicode="l" d="M18 -12 L18 202 L53 202 L53 -12 L18 -12 Z" /><glyph glyph-name="m" unicode="m" d="M243 -12 L209 -12 L209 75 Q210 114 180 113 Q149 111 148 73 L148 -12 L113 -12 L113 75 Q114 114 84 113 Q54 112 52 72 L52 -12 L18 -12 L18 136 L52 136 L52 111 Q67 140 100 140 Q134 140 145 109 Q160 139 195 140 Q243 140 243 81 L243 -12 Z" /><glyph glyph-name="o" unicode="o" d="M87 139 Q160 136 163 61 Q161 -14 86 -16 Q14 -12 10 60 Q13 136 87 139 ZM86 9 Q126 10 127 60 Q126 110 86 112 Q46 111 45 60 Q46 11 86 9 Z" /><glyph glyph-name="q" unicode="q" d="M121 136 L155 136 L155 -68 L121 -68 L121 7 Q106 -15 71 -16 Q13 -12 10 58 Q11 138 75 139 Q107 138 121 111 L121 136 ZM121 56 L121 71 Q118 110 83 112 Q46 111 45 59 Q45 10 82 9 Q121 10 121 56 Z" /><glyph glyph-name="uni3002" unicode="&#x3002;" d="M35 16 Q39 54 78 58 Q116 54 120 16 Q116 -20 78 -24 Q39 -20 35 16 ZM53 16 Q55 -4 78 -6 Q100 -4 102 16 Q100 38 78 40 Q55 38 53 16 Z" /><glyph glyph-name="uni300A" unicode="&#x300a;" d="M151 217 L103 90 L151 -35 L127 -35 L78 90 L127 217 L151 217 ZM196 217 L148 90 L197 -35 L172 -35 L123 90 L172 217 L196 217 Z" /><glyph glyph-name="uni300B" unicode="&#x300b;" d="M129 217 L177 90 L129 -35 L104 -35 L153 90 L104 217 L129 217 ZM83 217 L132 90 L83 -35 L59 -35 L108 90 L59 217 L83 217 Z" /><glyph glyph-name="uni4E00" unicode="&#x4e00;" d="M6 78 L6 111 L249 111 L249 78 L6 78 Z" /><glyph glyph-name="uni4E09" unicode="&#x4e09;" d="M24 159 L24 190 L231 190 L231 159 L24 159 ZM9 -12 L9 18 L247 18 L247 -12 L9 -12 ZM36 76 L36 106 L220 106 L220 76 L36 76 Z" /><glyph glyph-name="uni4E0A" unicode="&#x4e0a;" d="M9 -16 L9 13 L99 13 L99 208 L133 208 L133 138 L229 138 L229 108 L133 108 L133 13 L247 13 L247 -16 L9 -16 Z" /><glyph glyph-name="uni4E0B" unicode="&#x4e0b;" d="M9 164 L9 195 L247 195 L247 164 L135 164 L135 107 L152 127 Q162 121 181 109 Q217 85 237 72 L215 44 Q175 74 135 101 L135 -27 L100 -27 L100 164 L9 164 Z" /><glyph glyph-name="uni4E0E" unicode="&#x4e0e;" d="M118 -26 Q118 -24 117 -21 Q115 -11 111 5 Q127 4 160 4 Q195 2 194 29 Q197 60 198 91 L38 91 L48 210 L80 210 L78 179 L244 179 L244 150 L75 150 L73 120 L232 120 Q230 73 227 25 Q226 -27 172 -25 Q162 -25 143 -26 Q126 -26 118 -26 ZM6 34 L6 63 L179 63 L179 34 L6 34 Z" /><glyph glyph-name="uni4E13" unicode="&#x4e13;" d="M20 157 L20 183 L88 183 Q96 198 100 212 L136 211 Q130 196 124 183 L236 183 L236 157 L112 157 Q109 151 104 141 Q101 136 100 133 L249 133 L249 106 L87 106 Q81 94 75 84 L226 84 L226 54 L165 10 L205 -2 L188 -31 Q131 -7 40 25 L55 50 Q90 38 64 47 Q90 38 132 23 L185 58 L39 58 L39 83 Q46 92 52 106 L7 106 L7 133 L65 133 L77 157 L20 157 Z" /><glyph glyph-name="uni4E3A" unicode="&#x4e3a;" d="M31 -30 Q25 -23 10 -5 Q9 -4 8 -3 Q91 46 97 124 L15 124 L15 153 L100 153 Q102 181 102 211 L136 211 Q136 209 136 206 Q134 170 132 153 L236 153 Q235 136 233 92 Q231 41 230 24 Q229 -23 181 -23 Q158 -24 131 -24 Q130 -20 129 -14 Q127 -6 123 6 Q130 6 146 6 Q162 5 168 5 Q199 3 198 35 Q202 82 202 124 L129 124 Q122 27 31 -30 ZM163 39 Q142 64 124 80 L146 98 Q155 90 173 73 Q182 65 186 61 L163 39 ZM62 154 Q47 173 29 191 L50 209 Q56 204 68 192 Q80 181 86 175 L62 154 Z" /><glyph glyph-name="uni4E3B" unicode="&#x4e3b;" d="M20 138 L20 167 L235 167 L235 138 L144 138 L144 91 L224 91 L224 62 L144 62 L144 10 L245 10 L245 -17 L10 -17 L10 10 L112 10 L112 62 L32 62 L32 91 L112 91 L112 138 L20 138 ZM118 167 Q113 185 103 205 L136 211 Q137 209 139 204 Q148 183 151 174 L118 167 Z" /><glyph glyph-name="uni4E8C" unicode="&#x4e8c;" d="M29 150 L29 182 L226 182 L226 150 L29 150 ZM11 -4 L11 27 L244 27 L244 -4 L11 -4 Z" /><glyph glyph-name="uni4EE5" unicode="&#x4ee5;" d="M225 -24 Q213 -6 188 24 Q186 26 185 27 Q162 -2 111 -30 Q108 -27 103 -19 Q94 -8 90 -3 Q145 24 162 51 Q181 76 183 133 Q185 153 185 204 L217 204 Q217 179 215 140 Q215 135 215 132 Q213 87 201 56 Q210 47 228 26 Q244 8 251 0 L225 -24 ZM33 -19 L12 6 Q23 17 22 35 L22 200 L54 200 L54 36 Q81 54 113 79 Q114 76 115 68 Q118 50 119 44 Q87 21 52 -2 Q43 -10 33 -19 ZM118 129 Q103 158 81 195 L107 209 Q119 191 140 155 Q144 148 146 145 L118 129 Z" /><glyph glyph-name="uni4EF6" unicode="&#x4ef6;" d="M104 89 Q100 91 90 94 Q81 98 76 99 Q97 143 106 194 L135 188 L127 157 L158 157 L158 210 L189 210 L189 157 L242 157 L242 127 L189 127 L189 77 L250 77 L250 47 L189 47 L189 -29 L158 -29 L158 47 L77 47 L77 77 L158 77 L158 127 L119 127 Q112 107 104 89 ZM12 60 Q9 81 6 101 Q36 148 53 209 L82 201 Q75 175 64 151 L64 -28 L35 -28 L35 94 Q33 91 29 85 Q24 76 12 60 Z" /><glyph glyph-name="uni4F18" unicode="&#x4f18;" d="M77 120 L77 148 L123 148 Q124 180 124 209 L154 209 Q154 169 153 148 L243 148 L243 120 L152 120 Q149 30 89 -29 L66 -6 Q120 44 122 120 L77 120 ZM12 63 Q9 85 6 104 Q40 151 57 210 L88 201 Q78 172 64 145 L64 -28 L35 -28 L35 95 Q32 91 26 83 Q24 78 12 63 ZM189 -21 Q156 -22 157 9 L157 114 L187 114 L187 17 Q186 5 197 6 L205 6 Q216 5 217 19 Q217 20 217 21 Q220 43 221 58 Q233 54 249 48 Q246 21 243 5 Q238 -22 208 -21 L189 -21 ZM208 152 Q188 170 170 184 L189 203 Q191 202 195 199 Q210 189 228 174 L208 152 Z" /><glyph glyph-name="uni4F20" unicode="&#x4f20;" d="M87 153 L87 178 L132 178 Q133 183 136 193 Q138 204 140 210 L172 209 L163 178 L241 178 L241 153 L156 153 Q155 149 153 140 Q150 132 149 127 L249 127 L249 102 L141 102 L134 78 L235 78 L235 51 L189 7 Q192 6 198 4 Q204 1 221 -5 L205 -31 Q175 -15 120 8 Q100 16 90 21 L104 44 Q133 32 161 19 L197 53 L103 53 L103 78 Q104 83 108 93 Q110 99 111 102 L77 102 L77 127 L118 127 Q122 140 125 153 L87 153 ZM13 60 Q12 67 9 81 Q7 93 6 98 Q36 143 54 210 L83 202 Q74 175 64 151 L64 -28 L36 -28 L36 94 Q25 76 13 60 Z" /><glyph glyph-name="uni4F5C" unicode="&#x4f5c;" d="M94 89 Q86 101 74 112 Q104 151 122 211 L152 205 Q150 201 148 192 Q143 180 141 174 L249 174 L249 146 L168 146 L168 111 L235 111 L235 84 L168 84 L168 49 L242 49 L242 22 L168 22 L168 -28 L138 -28 L138 146 L129 146 Q114 115 94 89 ZM14 61 Q12 76 5 97 Q37 143 56 211 L86 203 Q78 177 67 153 L67 -28 L38 -28 L38 96 Q28 78 14 61 Z" /><glyph glyph-name="uni529E" unicode="&#x529e;" d="M226 42 Q222 50 214 67 Q206 84 202 92 L199 25 Q199 -23 151 -22 Q130 -23 108 -23 Q107 -16 104 -4 Q102 3 101 7 Q127 5 142 5 Q170 2 169 34 Q169 44 170 71 Q172 119 173 140 L117 140 Q117 138 117 138 Q118 14 29 -29 Q26 -25 18 -15 Q11 -7 8 -3 Q54 24 68 51 Q83 76 85 137 Q85 139 86 140 L16 140 L16 169 L87 169 Q88 192 88 210 L120 210 Q120 205 120 192 Q119 176 119 169 L204 169 L202 111 L218 119 Q236 87 253 56 L226 42 ZM29 41 Q16 49 4 56 Q22 82 39 121 L65 110 Q53 83 29 41 Z" /><glyph glyph-name="uni5341" unicode="&#x5341;" d="M9 92 L9 124 L111 124 L111 210 L145 210 L145 124 L246 124 L246 92 L145 92 L145 -28 L111 -28 L111 92 L9 92 Z" /><glyph glyph-name="uni535A" unicode="&#x535a;" d="M73 167 L73 189 L145 189 L145 210 L172 210 L172 189 L198 189 L189 206 L215 210 Q225 194 228 189 L246 189 L246 167 L172 167 L172 153 L235 153 L235 58 L218 58 L218 46 L249 46 L249 24 L218 24 L218 5 Q219 -26 185 -26 Q168 -26 151 -26 Q150 -20 145 0 Q156 -1 175 -1 Q191 -2 190 12 L190 24 L111 24 Q116 21 126 13 Q136 6 141 2 L123 -17 Q114 -9 93 6 Q90 9 88 10 L102 24 L68 24 L68 46 L190 46 L190 59 L209 59 L209 69 L172 69 L172 57 L145 57 L145 69 L108 69 L108 55 L82 55 L82 153 L145 153 L145 167 L73 167 ZM7 117 L7 144 L27 144 L27 210 L55 210 L55 144 L73 144 L73 117 L55 117 L55 -29 L27 -29 L27 117 L7 117 ZM172 101 L172 87 L209 87 L209 101 L172 101 ZM108 101 L108 87 L145 87 L145 101 L108 101 ZM108 133 L108 119 L145 119 L145 133 L108 133 ZM209 133 L172 133 L172 119 L209 119 L209 133 Z" /><glyph glyph-name="uni53C2" unicode="&#x53c2;" d="M12 105 L12 128 L93 128 Q100 136 103 143 L134 139 L127 128 L244 128 L244 105 L185 105 Q208 82 249 70 Q247 67 244 61 Q238 51 235 45 Q183 65 152 105 L109 105 Q91 86 66 70 Q108 80 148 95 L162 77 Q113 58 62 46 Q61 49 58 54 Q55 60 53 62 Q50 60 43 57 Q38 54 19 45 Q15 52 6 70 Q46 84 71 105 L12 105 ZM213 134 Q211 135 208 138 Q206 141 197 147 Q175 147 130 146 Q81 146 65 145 Q50 144 38 142 L26 165 Q39 170 51 176 Q76 190 101 212 L138 206 Q109 185 78 167 Q140 167 169 168 L144 186 L163 201 Q179 190 211 168 Q225 159 232 154 L213 134 ZM33 -31 Q31 -28 28 -19 Q25 -10 23 -6 Q126 2 207 40 L223 19 Q139 -19 33 -31 ZM46 7 Q43 15 36 28 Q114 40 175 68 L191 49 Q116 19 46 7 Z" /><glyph glyph-name="uni53D1" unicode="&#x53d1;" d="M15 133 L15 161 Q26 183 31 202 L61 198 Q58 191 59 193 Q50 168 46 161 L87 161 Q91 176 96 203 Q97 208 98 211 L130 208 Q128 202 126 190 Q121 171 118 161 L196 161 Q192 164 185 172 Q170 186 162 192 L181 209 Q190 202 208 187 Q216 181 219 178 L202 161 L248 161 L248 133 L111 133 Q107 121 102 109 L224 109 L224 84 Q202 45 174 23 Q200 11 248 2 Q244 -3 234 -23 Q233 -26 232 -27 Q177 -12 147 5 Q119 -10 59 -30 Q55 -20 47 -5 Q45 -2 44 -1 Q93 9 121 24 Q99 43 85 70 Q59 21 16 -16 Q11 2 6 16 Q59 66 79 133 L15 133 ZM188 83 L109 83 Q124 57 147 39 Q171 55 188 83 Z" /><glyph glyph-name="uni53D6" unicode="&#x53d6;" d="M10 173 L10 198 L129 198 L129 173 L118 173 L118 43 L135 46 Q134 31 135 20 Q126 19 118 17 L118 -28 L91 -28 L91 13 Q43 6 10 0 L6 28 L24 30 L24 173 L10 173 ZM233 -26 Q203 -3 187 15 Q169 -6 139 -30 Q133 -18 122 -4 Q152 16 170 40 Q146 78 136 158 L151 162 L134 162 L134 189 L240 189 L240 162 Q230 82 205 39 Q222 18 250 0 Q247 -4 241 -13 Q236 -22 233 -26 ZM211 162 L164 162 Q169 105 187 67 Q205 101 211 162 ZM50 34 Q71 36 91 39 L91 67 L50 67 L50 34 ZM50 120 L50 90 L91 90 L91 120 L50 120 ZM50 173 L50 142 L91 142 L91 173 L50 173 Z" /><glyph glyph-name="uni53EF" unicode="&#x53ef;" d="M7 167 L7 195 L249 195 L249 167 L218 167 L218 15 Q219 -23 179 -25 Q155 -26 132 -26 Q130 -11 127 3 Q147 2 165 2 Q189 0 187 23 L187 167 L7 167 ZM32 16 L32 136 L148 136 L148 33 L62 33 L62 16 L32 16 ZM62 111 L62 58 L118 58 L118 111 L62 111 Z" /><glyph glyph-name="uni540D" unicode="&#x540d;" d="M20 45 Q15 58 6 73 Q57 84 100 102 Q83 117 65 131 L87 149 Q112 131 129 116 Q160 134 187 158 L90 158 Q65 134 27 110 Q18 124 9 133 Q66 166 99 210 L132 206 Q131 205 130 203 Q124 194 115 185 L227 185 L227 157 Q182 106 118 80 L229 80 L229 -29 L199 -29 L199 -16 L79 -16 L79 -29 L49 -29 L49 54 L20 45 ZM79 54 L79 9 L199 9 L199 54 L79 54 Z" /><glyph glyph-name="uni540E" unicode="&#x540e;" d="M29 -29 Q26 -26 19 -20 Q10 -11 6 -7 Q35 33 33 110 L33 193 Q128 194 227 204 L239 175 Q177 170 63 165 L63 139 L247 139 L247 111 L63 110 Q63 59 56 31 Q50 3 29 -29 ZM78 -28 L78 81 L229 81 L229 -28 L199 -28 L199 -13 L107 -13 L107 -28 L78 -28 ZM107 55 L107 12 L199 12 L199 55 L107 55 Z" /><glyph glyph-name="uni5412" unicode="&#x5412;" d="M110 157 Q107 172 103 186 Q170 191 229 203 L237 175 Q227 174 206 170 Q183 167 171 165 L171 110 L247 117 L249 88 L171 81 L171 19 Q170 2 187 3 L196 3 Q211 3 214 18 Q214 20 215 26 Q217 45 218 55 Q233 49 247 46 Q246 41 245 30 Q243 19 239 0 Q233 -22 201 -22 L178 -22 Q141 -23 142 14 L142 78 L104 74 L101 103 L142 106 L142 161 L110 157 ZM17 -4 L17 190 L94 190 L94 -2 L69 -2 L69 17 L42 17 L42 -4 L17 -4 ZM42 163 L42 44 L69 44 L69 163 L42 163 Z" /><glyph glyph-name="uni54C1" unicode="&#x54c1;" d="M40 108 L40 199 L216 199 L216 108 L40 108 ZM139 -28 L139 85 L238 85 L238 -27 L211 -27 L211 -14 L167 -14 L167 -28 L139 -28 ZM17 -28 L17 85 L115 85 L115 -28 L88 -28 L88 -14 L45 -14 L45 -28 L17 -28 ZM71 173 L71 134 L185 134 L185 173 L71 173 ZM167 60 L167 9 L211 9 L211 60 L167 60 ZM45 60 L45 9 L88 9 L88 60 L45 60 Z" /><glyph glyph-name="uni54D2" unicode="&#x54d2;" d="M14 -7 L14 190 L84 190 L84 11 L40 11 L40 -7 L14 -7 ZM229 22 Q213 48 196 73 Q184 47 160 18 Q158 20 154 25 Q145 36 141 40 Q179 76 180 132 L148 132 L148 159 L181 159 Q181 167 182 184 Q182 200 182 207 L209 207 Q209 183 208 159 L246 159 L246 132 L207 132 Q206 117 204 105 Q217 88 239 56 Q246 47 249 42 L229 22 ZM95 -27 L78 -2 Q96 15 110 30 L110 100 L92 100 L92 126 L137 126 L137 27 Q154 2 192 4 Q207 3 235 4 Q246 4 250 4 Q248 -1 245 -11 Q243 -18 242 -22 Q207 -22 187 -21 Q143 -21 123 5 Q110 -7 95 -27 ZM40 166 L40 36 L60 36 L60 166 L40 166 ZM116 146 Q115 149 113 155 Q101 188 97 199 L122 206 Q126 198 132 180 Q139 163 142 154 L116 146 Z" /><glyph glyph-name="uni54EA" unicode="&#x54ea;" d="M82 113 L82 138 L97 138 Q97 156 97 175 L82 175 L82 200 L161 200 Q161 97 159 9 Q160 -20 133 -21 Q124 -22 109 -22 Q107 -10 104 1 Q104 1 107 1 Q118 0 122 0 Q137 0 137 16 L137 51 L115 51 Q112 8 82 -29 Q79 -24 71 -15 Q67 -10 65 -7 Q88 17 92 51 L81 51 L81 76 L94 76 Q94 79 94 86 Q95 96 95 101 Q95 107 96 113 L82 113 ZM175 -29 L175 198 L244 198 L244 172 L229 105 Q248 79 247 40 Q247 11 225 6 Q218 4 206 4 Q205 13 199 30 L199 -29 L175 -29 ZM15 -2 L15 193 L74 193 L74 5 L53 5 L53 18 L37 18 L37 -2 L15 -2 ZM199 173 L199 33 Q205 33 213 33 Q225 34 225 50 Q226 75 207 103 L222 173 L199 173 ZM37 166 L37 45 L53 45 L53 166 L37 166 ZM138 76 Q138 95 138 113 L118 113 Q118 107 118 100 L117 76 L138 76 ZM138 175 L120 175 L119 138 L138 138 Q138 158 138 175 Z" /><glyph glyph-name="uni56E2" unicode="&#x56e2;" d="M18 -29 L18 200 L237 200 L237 -29 L207 -29 L207 -18 L49 -18 L49 -29 L18 -29 ZM49 174 L49 6 L207 6 L207 174 L49 174 ZM60 115 L60 141 L144 141 L144 166 L172 166 L172 141 L198 141 L198 115 L172 115 L172 51 Q173 17 141 17 Q128 16 111 16 Q110 20 108 29 Q106 38 105 42 Q117 41 128 41 Q145 40 144 55 L144 103 Q120 62 70 31 Q61 43 52 54 Q100 79 123 115 L60 115 Z" /><glyph glyph-name="uni56FE" unicode="&#x56fe;" d="M17 -29 L17 202 L238 202 L238 -29 L209 -29 L209 -18 L46 -18 L46 -29 L17 -29 ZM46 177 L46 6 L209 6 L209 177 L46 177 ZM172 49 Q118 57 83 62 L88 80 Q75 76 58 73 Q54 84 48 94 Q87 100 108 108 Q99 113 84 128 Q75 119 66 113 Q58 121 50 129 Q81 150 98 176 L125 174 Q121 167 115 159 L193 159 L193 140 Q177 121 155 107 Q177 101 207 98 Q202 89 196 76 Q152 84 131 94 Q121 90 100 83 Q94 81 91 80 Q115 77 166 70 Q173 69 176 68 L172 49 ZM183 9 Q154 15 80 26 Q68 28 63 29 L69 51 Q84 49 118 43 Q166 36 189 32 L183 9 ZM162 140 L100 140 Q112 126 130 117 Q149 126 162 140 Z" /><glyph glyph-name="uni5728" unicode="&#x5728;" d="M16 153 L16 181 L83 181 Q89 195 94 211 L127 208 Q126 205 124 199 Q122 193 116 181 L248 181 L248 153 L104 153 Q91 126 73 102 L73 -28 L43 -28 L43 68 Q31 56 18 44 Q17 47 14 54 Q8 68 5 74 Q48 112 70 153 L16 153 ZM91 69 L91 96 L148 96 L148 140 L179 140 L179 96 L236 96 L236 69 L179 69 L179 10 L248 10 L248 -15 L81 -15 L81 10 L148 10 L148 69 L91 69 Z" /><glyph glyph-name="uni5927" unicode="&#x5927;" d="M13 117 L13 147 L111 147 Q112 169 112 209 L145 209 L144 147 L243 147 L243 117 L144 117 Q160 32 248 3 Q242 -2 232 -17 Q228 -23 226 -25 Q148 8 128 76 Q113 12 29 -28 Q25 -23 16 -11 Q10 -4 7 0 Q102 39 108 117 L13 117 Z" /><glyph glyph-name="uni5956" unicode="&#x5956;" d="M114 131 Q108 141 98 153 Q132 180 147 211 L177 208 Q175 205 171 199 Q166 191 164 187 L239 187 L239 161 Q210 102 133 82 L144 82 L143 65 L245 65 L245 40 L146 40 Q162 7 248 1 Q241 -13 236 -27 Q149 -14 128 19 Q108 -13 20 -30 Q18 -24 10 -9 Q7 -4 6 -1 Q100 9 107 40 L12 40 L12 65 L113 65 L113 82 L120 82 Q118 84 115 89 Q110 98 107 102 Q137 109 157 118 Q156 119 154 120 Q143 131 128 143 L147 158 Q166 144 180 131 Q197 143 209 163 L146 163 Q133 147 114 131 ZM14 89 L6 118 Q23 124 55 137 Q62 140 66 142 L66 210 L94 210 L94 75 L66 75 L66 113 Q58 109 43 102 Q24 94 14 89 ZM41 144 Q29 162 12 183 L33 196 Q51 176 64 158 L41 144 Z" /><glyph glyph-name="uni5B57" unicode="&#x5b57;" d="M7 40 L7 68 L118 68 L118 80 L159 104 L49 104 L49 131 L206 131 L206 103 L149 71 L149 68 L249 68 L249 40 L149 40 L149 8 Q150 -26 114 -26 Q104 -26 88 -27 Q76 -27 72 -27 Q71 -11 66 1 Q78 0 100 0 Q119 0 118 17 L118 40 L7 40 ZM16 125 L16 181 L114 181 Q111 193 105 208 L140 211 Q147 193 150 181 L240 181 L240 125 L209 125 L209 154 L46 154 L46 125 L16 125 Z" /><glyph glyph-name="uni5B66" unicode="&#x5b66;" d="M10 33 L10 60 L120 60 L120 66 L157 89 L51 89 L51 116 L203 116 L203 90 L155 60 L247 60 L247 33 L151 33 L151 6 Q152 -27 116 -27 Q107 -27 93 -28 Q81 -28 75 -28 Q72 -11 69 0 Q85 0 102 0 Q122 -1 120 16 L120 33 L10 33 ZM15 106 L15 163 L160 163 Q177 188 191 209 L224 201 Q211 181 196 163 L240 163 L240 106 L211 106 L211 136 L45 136 L45 106 L15 106 ZM53 164 Q42 182 30 200 L61 208 Q62 206 65 202 Q79 183 85 174 L53 164 ZM119 168 Q114 177 103 195 Q99 203 97 206 L128 211 Q133 205 141 190 Q148 180 151 175 L119 168 Z" /><glyph glyph-name="uni5B9E" unicode="&#x5b9e;" d="M10 39 L10 66 L86 66 Q54 84 36 93 L49 114 Q73 104 105 87 L92 66 L131 66 Q133 72 133 78 Q140 110 140 148 L171 148 Q171 120 165 76 L163 66 L246 66 L246 39 L156 39 Q155 36 153 33 Q203 13 242 -1 L227 -27 Q219 -23 222 -25 Q169 -1 138 11 Q112 -16 27 -30 Q24 -25 19 -15 Q14 -5 11 0 Q106 9 121 39 L10 39 ZM14 128 L14 185 L115 185 Q111 197 105 208 L141 212 Q142 209 144 203 Q148 191 151 185 L241 185 L241 128 L210 128 L210 159 L44 159 L44 128 L14 128 ZM114 102 Q86 118 60 130 L72 151 Q85 146 109 134 Q121 128 127 125 L114 102 Z" /><glyph glyph-name="uni5C4A" unicode="&#x5c4a;" d="M70 -29 L70 102 L138 102 L138 122 L167 122 L167 102 L235 102 L235 -29 L208 -29 L208 -16 L98 -16 L98 -29 L70 -29 ZM27 -29 Q23 -24 13 -13 Q8 -8 6 -5 Q21 19 25 40 Q29 61 29 106 L29 200 L236 200 L236 127 L57 127 L57 99 Q57 52 51 26 Q45 0 27 -29 ZM57 175 L57 151 L208 151 L208 175 L57 175 ZM167 32 L167 5 L208 5 L208 32 L167 32 ZM98 32 L98 5 L138 5 L138 32 L98 32 ZM208 79 L167 79 L167 52 L208 52 L208 79 ZM98 79 L98 52 L138 52 L138 79 L98 79 Z" /><glyph glyph-name="uni5C5E" unicode="&#x5c5e;" d="M100 -10 L97 10 Q123 10 138 11 L138 28 L90 28 L90 -29 L63 -29 L63 47 L138 47 L138 59 L73 59 L73 105 L138 105 L138 116 L69 116 L65 133 Q74 133 92 134 Q188 135 232 137 L236 118 L163 117 L163 105 L229 105 L229 59 L163 59 L163 47 L241 47 L241 0 Q242 -27 218 -27 Q207 -27 192 -27 L186 -6 L187 -5 Q161 -6 113 -9 Q104 -10 100 -10 ZM27 -29 Q22 -24 13 -15 Q8 -10 5 -7 Q20 17 24 41 Q29 64 29 111 L29 200 L238 200 L238 145 L57 145 L57 108 Q57 58 51 30 Q45 2 27 -29 ZM57 180 L57 164 L210 164 L210 180 L57 180 ZM215 28 L163 28 L163 9 L183 10 L179 21 L196 24 Q196 23 197 20 Q202 5 206 -6 Q215 -6 215 2 L215 28 ZM203 89 L163 89 L163 75 L203 75 L203 89 ZM99 89 L99 75 L138 75 L138 89 L99 89 Z" /><glyph glyph-name="uni5E03" unicode="&#x5e03;" d="M15 152 L15 180 L88 180 Q94 195 100 211 L132 208 Q131 204 128 197 Q127 193 121 180 L246 180 L246 152 L108 152 Q97 130 82 109 L124 109 L124 140 L155 140 L155 109 L229 109 L229 26 Q230 -3 201 -4 Q190 -5 171 -5 Q168 7 165 22 Q167 22 174 22 Q182 21 186 21 Q200 20 199 35 L199 82 L155 82 L155 -29 L124 -29 L124 82 L81 82 L81 -9 L51 -9 L51 72 Q44 63 26 46 Q20 40 17 37 L7 71 Q50 107 74 152 L15 152 Z" /><glyph glyph-name="uni5E26" unicode="&#x5e26;" d="M36 -11 L36 73 L113 73 L113 93 L143 93 L143 73 L221 73 L221 20 Q222 -10 191 -10 Q183 -11 161 -11 Q161 -9 160 -5 Q157 5 155 13 Q163 12 179 12 Q192 11 191 23 L191 49 L143 49 L143 -29 L113 -29 L113 49 L66 49 L66 -11 L36 -11 ZM7 159 L7 184 L50 184 L50 209 L78 209 L78 184 L113 184 L113 210 L142 210 L142 184 L177 184 L177 209 L205 209 L205 184 L248 184 L248 159 L205 159 L205 135 L177 135 L177 159 L142 159 L142 135 L113 135 L113 159 L78 159 L78 135 L50 135 L50 159 L7 159 ZM14 79 L14 126 L242 126 L242 79 L212 79 L212 101 L44 101 L44 79 L14 79 Z" /><glyph glyph-name="uni5E76" unicode="&#x5e76;" d="M18 141 L18 170 L76 170 Q73 176 65 187 Q58 199 54 204 L85 211 Q88 206 95 196 Q106 181 111 173 L98 170 L147 170 Q165 196 173 212 L207 204 L182 170 L238 170 L238 141 L193 141 L193 89 L248 89 L248 60 L193 60 L193 -27 L162 -27 L162 60 L96 60 Q98 3 39 -31 Q36 -29 31 -23 Q19 -13 14 -9 Q66 17 65 60 L7 60 L7 89 L65 89 L65 141 L18 141 ZM97 89 L162 89 L162 141 L97 141 L97 89 Z" /><glyph glyph-name="uni5EA6" unicode="&#x5ea6;" d="M236 -27 Q181 -20 148 -4 Q115 -20 60 -30 Q55 -17 47 -4 Q96 2 119 10 Q99 23 80 47 L64 47 L64 70 L223 70 L223 46 Q204 25 179 10 Q208 2 248 0 Q245 -5 240 -18 Q237 -24 236 -27 ZM30 -30 Q16 -17 6 -10 Q19 13 23 35 Q27 57 27 99 L27 189 L124 189 Q121 201 118 210 L153 212 Q156 202 159 189 L247 189 L247 164 L55 164 L55 97 Q57 15 30 -30 ZM55 121 L55 145 L89 145 L89 164 L117 164 L117 145 L179 145 L179 164 L206 164 L206 145 L245 145 L245 121 L206 121 L206 84 L89 84 L89 121 L55 121 ZM187 47 L112 47 Q126 32 148 21 Q172 33 187 47 ZM117 121 L117 104 L179 104 L179 121 L117 121 Z" /><glyph glyph-name="uni5EA7" unicode="&#x5ea7;" d="M181 71 Q172 79 164 87 L164 57 L232 57 L232 32 L164 32 L164 4 L247 4 L247 -19 L52 -19 L52 4 L135 4 L135 32 L66 32 L66 57 L135 57 L135 152 L164 152 L164 90 Q187 115 195 145 L220 142 Q217 132 213 124 Q232 104 244 89 L225 71 Q214 86 202 101 Q195 86 181 71 ZM31 -29 Q24 -23 8 -11 Q7 -10 6 -10 Q18 13 22 36 Q26 58 26 104 L26 185 L125 185 Q121 199 117 208 L153 211 L161 185 L247 185 L247 159 L55 159 L55 103 Q55 55 50 28 Q46 2 31 -29 ZM115 72 Q112 77 104 88 Q98 96 95 100 Q94 99 92 96 Q82 78 74 69 Q67 76 55 84 Q76 108 87 145 L112 142 Q108 132 105 123 Q109 119 115 111 Q121 104 133 90 L115 72 Z" /><glyph glyph-name="uni5F0F" unicode="&#x5f0f;" d="M8 135 L8 163 L138 163 Q136 195 136 210 L167 210 Q167 180 168 163 L246 163 L246 135 L170 135 Q170 132 170 129 Q175 57 191 19 Q197 5 207 5 Q215 5 217 16 Q221 33 224 54 Q235 47 249 42 Q246 21 240 0 Q230 -28 206 -27 Q178 -27 161 15 Q145 56 140 129 Q140 132 140 135 L8 135 ZM15 77 L15 104 L129 104 L129 77 L87 77 L87 22 Q96 23 113 25 Q131 27 139 28 Q139 14 139 0 Q82 -5 12 -14 L6 13 Q15 14 33 16 Q49 17 57 18 L57 77 L15 77 ZM211 163 Q195 181 182 193 L203 208 Q208 203 219 193 Q229 183 233 179 L211 163 Z" /><glyph glyph-name="uni5FAE" unicode="&#x5fae;" d="M72 125 L72 189 L91 189 L91 149 L105 149 L105 207 L128 207 L128 149 L143 149 L143 189 L161 189 L161 128 Q176 154 188 210 L214 207 Q213 202 210 192 Q209 186 203 168 L250 168 L250 143 L240 143 Q234 74 217 37 Q230 16 251 0 Q241 -20 238 -27 Q217 -6 203 13 Q190 -6 167 -29 Q162 -21 151 -5 L163 4 Q147 -5 134 -17 L121 1 Q127 7 127 18 L127 44 L102 44 L102 37 Q103 -2 75 -27 Q73 -24 67 -18 Q60 -10 58 -7 Q81 8 79 51 L79 68 L151 68 L151 24 Q154 26 163 34 Q161 32 168 38 Q169 33 170 18 Q170 21 171 13 Q182 25 190 38 Q178 66 174 103 L167 92 L159 108 L159 85 L73 85 L73 108 L159 108 L154 117 L159 125 L72 125 ZM13 40 Q7 62 5 70 Q34 101 51 142 L72 129 Q65 113 57 98 L57 -29 L31 -29 L31 61 Q22 51 13 40 ZM18 124 Q16 130 11 143 Q8 149 7 152 Q31 173 50 210 L72 195 Q50 155 18 124 ZM204 67 Q214 97 217 143 L194 143 L191 137 Q195 94 204 67 Z" /><glyph glyph-name="uni6216" unicode="&#x6216;" d="M9 144 L9 171 L137 171 Q136 187 136 210 L166 210 Q166 206 166 195 Q167 179 167 171 L205 171 Q202 175 195 183 Q186 193 182 198 L204 210 Q206 208 209 204 Q223 188 229 183 L207 171 L247 171 L247 144 L168 144 Q171 95 178 66 Q196 93 210 127 L237 115 Q215 69 188 33 Q193 21 199 12 Q205 4 211 4 Q219 4 220 14 Q223 29 225 49 Q227 48 232 46 Q244 40 251 38 Q247 7 242 -6 Q235 -28 212 -28 Q186 -29 169 7 L168 8 Q149 -10 125 -29 Q123 -27 120 -23 Q110 -11 105 -6 L107 -4 Q90 -6 55 -11 Q24 -15 11 -16 L6 11 Q88 19 126 24 Q125 15 125 8 Q142 22 155 37 Q143 76 138 144 L9 144 ZM22 38 L22 124 L120 124 L120 38 L22 38 ZM50 99 L50 63 L92 63 L92 99 L50 99 Z" /><glyph glyph-name="uni62BD" unicode="&#x62bd;" d="M92 -28 L92 167 L151 167 L151 209 L179 209 L179 167 L238 167 L238 -28 L210 -28 L210 -13 L120 -13 L120 -28 L92 -28 ZM12 -27 Q11 -23 10 -14 Q8 -3 7 0 Q16 0 24 0 Q36 0 35 11 L35 61 L9 54 L6 85 L35 91 L35 138 L10 138 L10 165 L35 165 L35 209 L62 209 L62 165 L84 165 L84 138 L62 138 L62 97 Q73 100 83 103 Q83 86 84 74 Q72 71 62 68 L62 2 Q63 -25 37 -26 Q33 -26 25 -27 Q17 -27 12 -27 ZM120 64 L120 12 L151 12 L151 64 L120 64 ZM179 64 L179 12 L210 12 L210 64 L179 64 ZM210 140 L179 140 L179 90 L210 90 L210 140 ZM120 140 L120 90 L151 90 L151 140 L120 140 Z" /><glyph glyph-name="uni6559" unicode="&#x6559;" d="M18 157 L18 181 L51 181 L51 209 L78 209 L78 181 L105 181 L105 160 Q114 172 122 187 L143 176 Q130 154 117 136 L129 136 L129 115 Q150 153 161 210 L189 207 Q185 188 179 170 L247 170 L247 141 L230 141 Q224 77 202 39 Q220 17 250 0 Q241 -13 233 -27 Q203 -6 185 15 Q163 -9 131 -30 Q122 -18 112 -6 Q145 11 169 39 Q154 67 149 96 Q143 86 136 75 Q134 79 129 89 Q124 98 122 102 Q123 104 125 108 Q127 111 128 113 L98 113 Q90 104 81 96 L120 96 L120 74 L90 47 Q109 48 131 52 Q131 49 131 40 Q132 31 132 27 L90 23 L90 4 Q90 -24 63 -26 Q49 -26 30 -26 Q29 -16 26 -2 Q30 -2 39 -3 Q47 -3 51 -3 Q64 -2 63 8 L63 20 Q61 20 58 19 Q37 17 11 13 L9 38 Q34 40 63 44 L63 53 L88 73 L56 73 Q51 70 41 63 Q26 52 18 47 Q16 51 12 58 Q7 66 5 69 Q17 75 27 82 L27 96 L46 96 Q57 104 66 113 L9 113 L9 136 L51 136 L51 157 L18 157 ZM167 134 Q171 94 185 65 Q200 92 204 141 L169 141 Q169 137 167 134 ZM88 136 Q91 140 96 147 Q102 154 104 157 L78 157 L78 136 L88 136 Z" /><glyph glyph-name="uni65B9" unicode="&#x65b9;" d="M11 146 L11 175 L116 175 Q111 193 105 207 L141 210 Q143 205 147 193 Q151 181 153 175 L244 175 L244 146 L103 146 Q103 140 102 128 Q102 116 101 110 L216 110 Q214 51 211 22 Q211 -23 162 -22 Q144 -23 117 -23 Q116 -21 115 -16 Q112 -1 110 6 Q131 5 150 5 Q179 3 180 32 Q183 53 183 82 L99 82 Q93 12 30 -30 L6 -6 Q69 34 68 101 Q69 110 70 131 Q71 141 71 146 L11 146 Z" /><glyph glyph-name="uni65FA" unicode="&#x65fa;" d="M16 -16 L16 194 L99 194 L99 -13 L73 -13 L73 2 L43 2 L43 -16 L16 -16 ZM111 166 L111 194 L242 194 L242 166 L190 166 L190 105 L239 105 L239 77 L190 77 L190 10 L248 10 L248 -15 L106 -15 L106 10 L161 10 L161 77 L114 77 L114 105 L161 105 L161 166 L111 166 ZM43 86 L43 27 L73 27 L73 86 L43 86 ZM43 168 L43 111 L73 111 L73 168 L43 168 Z" /><glyph glyph-name="uni6700" unicode="&#x6700;" d="M7 91 L7 113 L249 113 L249 91 L125 91 L125 11 L141 13 Q141 10 140 4 Q140 0 140 -2 Q156 3 168 11 Q152 27 140 52 L149 57 L135 57 L135 78 L235 78 L235 55 Q222 30 207 12 Q224 2 248 -2 L238 -27 Q208 -17 188 -3 Q169 -18 142 -29 L130 -8 Q128 -8 125 -8 L125 -29 L99 -29 L99 -11 Q73 -13 24 -18 Q15 -19 11 -19 L8 2 Q11 2 17 2 Q24 3 28 3 L28 91 L7 91 ZM37 125 L37 201 L219 201 L219 125 L37 125 ZM67 155 L67 142 L189 142 L189 155 L67 155 ZM67 182 L67 170 L189 170 L189 182 L67 182 ZM54 5 L99 9 L99 24 L54 24 L54 5 ZM208 57 L164 57 Q173 39 187 26 Q199 39 208 57 ZM54 57 L54 41 L99 41 L99 57 L54 57 ZM54 91 L54 75 L99 75 L99 91 L54 91 Z" /><glyph glyph-name="uni671F" unicode="&#x671f;" d="M10 161 L10 185 L25 185 L25 208 L52 208 L52 185 L93 185 L93 209 L121 209 L121 185 L136 185 L136 161 L121 161 L121 54 L139 54 L139 29 L98 29 Q103 24 114 12 Q122 3 126 0 Q148 27 146 97 L146 202 L239 202 L239 2 Q239 -24 214 -25 Q210 -25 199 -25 Q187 -26 182 -26 Q181 -21 178 -8 Q177 -2 176 0 Q189 0 198 0 Q212 0 211 11 L211 49 L172 49 Q169 4 143 -30 Q131 -21 120 -13 L108 -23 Q94 -5 77 13 L97 29 L44 29 L67 14 Q66 13 64 11 Q46 -10 28 -28 Q19 -18 7 -10 Q21 2 41 26 Q43 28 44 29 L6 29 L6 54 L25 54 L25 161 L10 161 ZM174 175 L174 137 L211 137 L211 175 L174 175 ZM174 95 Q174 85 174 75 L211 75 L211 111 L174 111 L174 95 ZM52 74 L52 54 L93 54 L93 74 L52 74 ZM52 161 L52 140 L93 140 L93 161 L52 161 ZM52 117 L52 97 L93 97 L93 117 L52 117 Z" /><glyph glyph-name="uni676F" unicode="&#x676f;" d="M100 166 L100 194 L244 194 L244 166 L186 166 Q185 163 182 157 Q174 135 168 124 L181 124 L181 105 L198 117 Q216 95 245 57 Q248 52 250 50 L227 31 Q219 42 204 63 Q189 84 181 95 L181 -28 L150 -28 L150 91 Q130 57 97 24 Q94 27 89 35 Q82 44 78 48 Q131 99 154 166 L100 166 ZM8 138 L8 165 L38 165 L38 210 L66 210 L66 165 L95 165 L95 138 L66 138 L66 114 L73 122 Q74 121 76 119 Q90 107 103 94 L86 74 L66 95 L66 -29 L38 -29 L38 80 Q28 52 12 27 Q11 31 10 39 Q7 59 5 68 Q24 98 37 138 L8 138 Z" /><glyph glyph-name="uni6C0F" unicode="&#x6c0f;" d="M203 -27 Q175 -27 158 1 Q141 30 134 82 L60 82 L60 11 L127 34 Q127 20 129 2 Q92 -7 60 -19 Q49 -23 37 -30 L19 -4 Q29 3 29 21 L29 188 Q118 189 223 201 L234 173 Q197 170 161 167 Q161 142 163 110 L245 110 L245 82 L166 82 Q170 46 183 19 Q190 4 203 3 Q211 3 215 17 Q220 34 221 50 Q237 43 249 38 Q246 18 241 3 Q231 -28 203 -27 ZM60 161 L60 110 L132 110 Q131 135 129 165 Q118 165 95 163 Q72 162 60 161 Z" /><glyph glyph-name="uni6CE8" unicode="&#x6ce8;" d="M79 138 L79 167 L149 167 Q146 177 137 201 Q136 204 135 206 L167 211 Q175 193 182 172 L154 167 L241 167 L241 138 L175 138 L175 91 L236 91 L236 62 L175 62 L175 9 L249 9 L249 -17 L68 -17 L68 9 L144 9 L144 62 L84 62 L84 91 L144 91 L144 138 L79 138 ZM41 -28 L12 -18 Q29 31 39 71 Q53 64 68 61 Q53 11 41 -28 ZM56 150 Q49 156 35 168 Q21 179 14 185 L34 206 Q56 190 77 173 L56 150 ZM47 84 Q27 104 6 120 L26 142 Q49 124 69 107 L47 84 Z" /><glyph glyph-name="uni6D77" unicode="&#x6d77;" d="M80 123 Q77 127 71 134 Q65 141 61 144 Q93 173 109 212 L140 209 Q138 206 135 200 Q132 194 130 191 L244 191 L244 167 L116 167 Q110 158 103 149 L230 149 Q229 144 229 120 Q228 101 228 90 L249 90 L249 66 L228 66 Q227 47 227 30 L244 30 L244 7 L226 7 Q224 -28 186 -27 L146 -27 Q145 -22 140 -12 Q139 -7 138 -5 Q157 -5 177 -5 Q196 -6 198 7 L76 7 L82 66 L62 66 L62 90 L85 90 L89 133 L80 123 ZM38 -28 L9 -20 Q17 7 32 68 Q37 67 46 64 Q56 61 60 59 Q58 52 55 38 Q42 -9 38 -28 ZM199 30 Q200 41 200 66 L110 66 L106 30 L159 30 Q148 40 133 50 L147 66 Q164 55 178 45 L164 30 L199 30 ZM50 155 Q44 161 31 172 Q19 183 12 188 L30 208 Q36 203 52 191 Q64 182 70 177 L50 155 ZM44 88 Q33 99 11 117 Q13 115 6 121 L25 141 Q34 134 51 121 Q60 114 64 111 L44 88 ZM201 125 L152 125 Q159 121 171 112 Q177 107 180 105 L166 90 L201 90 Q201 115 201 125 ZM116 125 L112 90 L162 90 Q156 95 144 104 Q138 109 135 111 L150 125 L116 125 Z" /><glyph glyph-name="uni738B" unicode="&#x738b;" d="M23 161 L23 190 L232 190 L232 161 L144 161 L144 104 L222 104 L222 75 L144 75 L144 14 L244 14 L244 -14 L12 -14 L12 14 L112 14 L112 75 L34 75 L34 104 L112 104 L112 161 L23 161 Z" /><glyph glyph-name="uni7684" unicode="&#x7684;" d="M16 -26 L16 171 L43 171 Q49 192 52 210 L84 205 Q83 203 82 199 Q80 188 74 171 L116 171 L116 -24 L87 -24 L87 -7 L45 -7 L45 -26 L16 -26 ZM151 -24 Q148 -7 145 4 Q151 4 163 4 Q176 3 183 3 Q208 2 208 28 Q209 43 210 93 Q211 129 211 143 L161 143 Q161 142 160 140 Q153 124 144 108 Q132 116 118 122 Q137 157 154 210 L184 204 Q178 188 172 171 L242 171 Q241 133 239 63 Q238 34 238 22 Q238 -23 195 -24 Q175 -24 151 -24 ZM45 67 L45 19 L87 19 L87 67 L45 67 ZM45 143 L45 95 L87 95 L87 143 L45 143 ZM170 41 Q154 67 134 94 L157 109 Q175 88 196 58 L170 41 Z" /><glyph glyph-name="uni771F" unicode="&#x771f;" d="M13 173 L13 195 L112 195 L112 210 L143 210 L143 195 L243 195 L243 173 L143 173 L143 159 L218 159 L218 35 L249 35 L249 14 L99 14 L111 -5 Q70 -19 26 -30 Q20 -15 14 -6 Q21 -4 34 -2 Q77 7 99 14 L7 14 L7 35 L37 35 L37 159 L112 159 L112 173 L13 173 ZM232 -30 Q195 -18 144 -4 L154 14 Q169 11 198 4 Q227 -2 241 -5 L232 -30 ZM67 110 L67 96 L189 96 L189 110 L67 110 ZM67 79 L67 66 L189 66 L189 79 L67 79 ZM67 140 L67 126 L189 126 L189 140 L67 140 ZM67 49 L67 35 L189 35 L189 49 L67 49 Z" /><glyph glyph-name="uni793C" unicode="&#x793c;" d="M119 39 Q111 47 91 62 Q86 67 83 69 L83 -28 L54 -28 L54 60 Q40 47 16 30 Q15 34 12 42 Q8 54 6 61 Q54 92 80 134 L15 134 L15 162 L113 162 L113 133 Q98 109 83 91 L83 74 L99 91 Q117 79 138 61 L119 39 ZM179 -21 Q142 -22 143 17 L143 207 L174 207 L174 23 Q173 5 189 6 L198 6 Q214 5 216 24 Q218 41 219 64 Q236 59 249 54 Q249 50 248 42 Q245 21 243 9 Q238 -22 201 -21 L179 -21 ZM66 162 Q62 169 55 182 Q48 194 44 201 L70 211 Q72 208 75 203 Q86 184 93 173 L66 162 Z" /><glyph glyph-name="uni79C0" unicode="&#x79c0;" d="M14 133 L14 156 L114 156 L114 176 Q100 176 72 175 Q44 175 31 175 Q31 178 29 185 Q28 194 27 198 Q154 200 224 203 L228 179 Q185 177 142 177 L142 156 L242 156 L242 133 L158 133 Q190 108 248 98 Q241 84 237 72 Q169 90 142 120 L142 88 L114 88 L114 119 Q87 94 47 79 L192 79 L192 68 L180 48 L228 48 Q228 47 228 44 Q226 15 224 4 Q222 -23 187 -24 Q174 -25 140 -25 Q139 -21 138 -13 Q136 -3 135 0 Q154 0 180 0 Q194 0 195 7 Q197 17 197 26 L146 26 L146 36 L159 56 L106 56 Q105 -2 30 -30 L14 -6 Q76 12 76 56 L44 56 L44 78 Q32 74 19 69 Q15 81 7 95 Q63 108 97 133 L14 133 Z" /><glyph glyph-name="uni7A3F" unicode="&#x7a3f;" d="M13 170 Q13 174 12 183 Q11 191 10 195 Q30 196 68 199 Q78 200 83 200 L87 175 L63 173 L63 139 L89 139 L89 113 L63 113 L63 96 Q80 83 93 72 L80 49 Q72 58 63 66 L63 -29 L38 -29 L38 61 Q26 36 13 15 Q12 19 10 27 Q9 33 5 47 Q25 77 37 113 L9 113 L9 139 L38 139 L38 171 L13 170 ZM94 -28 L94 88 L241 88 L241 0 Q243 -27 215 -27 Q212 -27 204 -27 Q195 -28 191 -28 Q190 -23 187 -12 Q186 -7 185 -4 Q189 -5 206 -5 Q217 -5 216 3 L216 65 L119 65 L119 -28 L94 -28 ZM108 101 L108 153 L227 153 L227 101 L108 101 ZM93 165 L93 188 L153 188 L148 207 L178 210 Q181 200 183 188 L246 188 L246 165 L93 165 ZM134 -1 L134 52 L200 52 L200 -1 L134 -1 ZM134 135 L134 119 L201 119 L201 135 L134 135 ZM154 34 L154 15 L180 15 L180 34 L154 34 Z" /><glyph glyph-name="uni7B2C" unicode="&#x7b2c;" d="M142 79 L142 60 L241 60 Q240 36 238 21 Q238 -12 201 -11 Q189 -12 165 -12 Q164 0 159 12 Q175 12 195 12 Q210 11 210 23 L211 37 L142 37 L142 -29 L113 -29 L113 24 Q82 -7 22 -26 Q20 -23 16 -16 Q9 -5 6 0 Q61 11 91 37 L21 37 L31 102 L113 102 L113 121 L28 121 L28 141 L25 138 L6 157 Q35 182 48 212 L78 210 Q74 201 69 193 L129 193 L129 170 Q144 186 155 212 L185 210 Q180 201 177 193 L246 193 L246 170 L201 170 L217 152 L190 146 Q187 150 178 162 Q174 167 172 170 L163 170 Q154 158 142 146 Q140 148 134 152 Q125 159 122 162 Q123 164 126 166 Q128 169 129 170 L92 170 L107 152 L80 146 L62 170 L54 170 Q43 156 31 144 L230 144 L230 79 L142 79 ZM201 121 L142 121 L142 102 L201 102 L201 121 ZM57 79 L53 60 L113 60 L113 79 L57 79 Z" /><glyph glyph-name="uni7B49" unicode="&#x7b49;" d="M145 144 L142 147 L142 133 L228 133 L228 112 L142 112 L142 93 L247 93 L247 70 L195 70 L195 51 L239 51 L239 28 L195 28 L195 9 Q196 -27 159 -26 Q144 -27 119 -27 Q117 -17 112 -1 Q132 -2 146 -2 Q165 -3 164 14 L164 28 L72 28 Q74 27 77 24 Q87 16 104 3 L84 -15 Q68 0 48 14 L62 28 L17 28 L17 51 L164 51 L164 70 L9 70 L9 93 L112 93 L112 112 L27 112 L27 133 L112 133 L112 147 L141 147 Q132 153 122 159 Q145 185 155 212 L185 210 L177 193 L246 193 L246 169 L195 169 L217 151 L199 135 Q192 142 177 156 Q187 147 174 158 L186 169 L164 169 Q157 157 145 144 ZM25 138 Q12 151 5 156 Q34 182 48 212 L78 210 Q74 201 69 193 L130 193 L130 169 L83 169 Q87 166 93 160 Q100 154 103 151 L84 135 Q74 147 62 159 L74 169 L54 169 Q43 153 25 138 Z" /><glyph glyph-name="uni7EC4" unicode="&#x7ec4;" d="M11 -13 L7 14 Q12 15 24 16 Q45 18 93 25 Q93 21 92 15 Q92 9 92 6 L107 6 L107 199 L230 199 L230 6 L249 6 L249 -20 L86 -20 L86 -2 Q50 -7 11 -13 ZM17 39 L9 65 Q18 70 28 83 Q29 84 31 86 Q37 95 48 111 Q27 110 13 108 L6 133 Q12 139 20 152 Q38 179 51 211 L81 201 Q56 160 38 135 Q42 135 51 136 Q60 136 64 136 Q67 140 71 148 Q76 155 78 159 L104 148 Q77 107 47 68 L92 73 Q92 72 92 70 Q90 60 90 48 Q44 44 17 39 ZM137 173 L137 134 L201 134 L201 173 L137 173 ZM137 44 L137 6 L201 6 L201 44 L137 44 ZM137 109 L137 70 L201 70 L201 109 L137 109 Z" /><glyph glyph-name="uni7EC8" unicode="&#x7ec8;" d="M241 66 Q195 78 171 93 Q142 75 97 65 Q92 77 86 91 Q123 98 148 110 Q139 118 125 138 Q125 137 123 140 Q115 131 104 120 Q103 123 101 129 Q98 135 97 138 Q86 121 64 89 Q54 75 49 67 Q61 69 84 71 Q86 71 87 71 Q86 58 86 46 Q33 42 19 38 L11 63 Q22 72 27 80 Q31 86 39 98 Q44 105 47 109 Q26 109 13 106 L6 131 Q7 132 8 134 Q15 141 18 148 Q34 177 50 212 L79 202 Q63 175 38 134 Q49 134 63 134 Q69 146 76 157 L94 147 Q123 175 137 211 L167 207 L156 187 L236 187 L236 161 Q219 130 196 110 Q219 98 250 94 Q249 89 246 80 Q243 71 241 66 ZM222 -28 Q157 -11 100 0 L108 25 Q121 22 146 17 Q201 6 230 0 L222 -28 ZM212 25 Q166 37 123 46 L131 71 Q156 67 196 58 Q212 54 221 52 L212 25 ZM11 -16 L6 10 Q44 15 89 21 Q88 8 88 -5 Q47 -10 11 -16 ZM204 161 L140 161 Q153 139 172 124 Q192 140 204 161 Z" /><glyph glyph-name="uni7ED8" unicode="&#x7ed8;" d="M237 104 Q223 114 212 123 L212 100 L118 100 L118 121 Q113 116 103 108 Q98 103 95 101 Q89 113 83 124 Q76 113 62 92 Q52 77 47 69 L85 73 Q85 69 84 61 Q84 52 83 48 Q78 47 69 47 Q46 45 38 43 Q26 42 19 40 L10 66 Q17 70 26 82 Q28 85 32 91 Q35 96 46 112 Q30 111 13 109 L6 134 Q14 141 19 152 Q32 175 46 210 L75 201 Q54 161 38 136 Q40 136 47 136 Q56 137 60 137 L73 161 L98 149 L87 131 Q131 166 154 210 L184 208 L180 200 Q206 158 249 132 Q243 119 237 104 ZM94 50 L94 76 L236 76 L236 50 L163 50 Q161 47 157 41 Q140 16 132 5 Q142 6 162 6 Q183 7 193 7 Q190 12 184 22 Q179 30 176 34 L198 46 Q211 29 230 1 Q237 -9 241 -15 L217 -29 L209 -15 Q163 -16 129 -19 Q112 -20 101 -23 L90 0 Q101 6 109 18 Q120 32 130 50 L94 50 ZM10 -14 L6 12 Q16 13 34 16 Q68 21 88 24 Q88 8 88 -2 Q71 -4 42 -9 Q21 -12 10 -14 ZM165 176 Q149 149 125 127 L208 127 Q182 148 165 176 Z" /><glyph glyph-name="uni8005" unicode="&#x8005;" d="M30 161 L30 185 L92 185 L92 210 L122 210 L122 185 L178 185 L178 161 L122 161 L122 137 L151 137 Q187 163 216 197 L240 181 Q217 157 193 137 L248 137 L248 112 L160 112 Q157 110 151 106 Q143 101 125 90 L218 90 L218 -29 L189 -29 L189 -17 L76 -17 L76 -29 L46 -29 L46 51 Q42 50 35 46 Q21 41 14 38 L5 67 Q70 87 112 112 L8 112 L8 137 L92 137 L92 161 L30 161 ZM189 67 L81 67 L76 65 L76 46 L189 46 L189 67 ZM76 25 L76 4 L189 4 L189 25 L76 25 Z" /><glyph glyph-name="uni80B2" unicode="&#x80b2;" d="M35 -28 L35 104 L221 104 L221 5 Q223 -26 187 -26 Q183 -26 171 -26 Q153 -27 144 -27 Q142 -13 138 -2 Q160 -2 175 -2 Q192 -3 191 10 L191 12 L66 12 L66 -28 L35 -28 ZM9 164 L9 188 L114 188 Q111 199 108 208 L143 210 Q146 201 149 188 L247 188 L247 164 L182 164 Q215 143 241 124 L221 105 L200 121 Q189 121 167 120 Q96 119 69 119 Q42 117 33 115 L24 138 Q39 143 51 150 Q62 156 72 164 L9 164 ZM66 84 L66 67 L191 67 L191 84 L66 84 ZM66 48 L66 31 L191 31 L191 48 L66 48 ZM77 140 Q92 141 124 141 Q156 142 172 142 L144 162 L147 164 L112 164 Q106 160 95 152 Q83 144 77 140 Z" /><glyph glyph-name="uni8303" unicode="&#x8303;" d="M131 -22 Q88 -24 90 14 L90 133 L223 133 L221 80 Q220 37 184 38 Q177 38 163 37 Q151 37 146 37 Q145 42 143 55 Q142 61 141 65 Q146 65 157 65 Q167 64 172 64 Q192 63 192 82 Q192 86 193 95 Q193 104 193 107 L120 107 L120 19 Q119 1 138 2 L195 2 Q213 1 215 18 Q218 31 219 47 Q226 45 240 40 Q246 38 249 37 Q249 34 248 29 Q246 12 243 4 Q240 -24 199 -22 L131 -22 ZM7 163 L7 188 L70 188 L70 210 L100 210 L100 188 L156 188 L156 210 L186 210 L186 188 L248 188 L248 163 L186 163 L186 146 L156 146 L156 163 L100 163 L100 146 L70 146 L70 163 L7 163 ZM37 -28 L12 -10 Q34 18 56 55 Q62 51 77 42 Q80 41 81 40 Q57 3 37 -28 ZM64 99 Q39 117 23 128 L39 148 Q48 143 67 131 Q76 125 81 122 L64 99 ZM44 54 Q27 67 5 82 L22 104 Q28 100 42 91 Q55 81 61 77 L44 54 Z" /><glyph glyph-name="uni89C4" unicode="&#x89c4;" d="M12 142 L12 168 L41 168 L42 210 L69 210 L69 168 L97 168 L97 142 L68 142 L68 114 Q68 110 68 106 L100 106 L100 80 L66 80 Q66 74 65 69 Q96 38 106 27 L87 5 L60 38 Q54 9 23 -29 Q20 -24 11 -13 Q6 -7 4 -4 Q37 27 39 80 L7 80 L7 106 L40 106 Q40 109 40 112 L41 142 L12 142 ZM109 51 L109 201 L234 201 L234 54 L207 54 L207 173 L135 173 L135 51 L109 51 ZM197 -23 Q168 -23 168 7 L168 38 Q153 3 101 -30 Q91 -16 82 -7 Q126 18 140 42 Q155 65 156 112 Q157 130 157 157 L185 157 Q185 151 184 136 Q184 121 184 116 Q183 88 178 67 L194 67 L194 12 Q193 0 204 0 L208 0 Q220 0 221 13 Q221 16 222 21 Q224 36 224 42 Q237 37 249 33 Q249 32 249 30 Q248 18 245 1 Q240 -24 214 -23 L197 -23 Z" /><glyph glyph-name="uni8BDD" unicode="&#x8bdd;" d="M91 169 Q91 171 90 176 Q89 189 87 196 Q162 197 235 202 L239 177 Q209 174 179 173 L179 140 L248 140 L248 114 L179 114 L179 80 L233 80 L233 -28 L203 -28 L203 -13 L124 -13 L124 -28 L95 -28 L95 80 L149 80 L149 114 L78 114 L78 140 L149 140 L149 172 Q136 171 110 170 Q98 169 91 169 ZM39 -28 L20 -3 Q30 4 30 21 L30 101 L6 101 L6 129 L59 129 L59 24 Q60 25 61 26 Q76 38 83 45 Q85 29 88 13 Q85 10 78 5 Q61 -7 54 -14 Q42 -24 39 -28 ZM124 55 L124 11 L203 11 L203 55 L124 55 ZM49 148 Q34 170 16 194 L41 209 Q59 186 76 165 L49 148 Z" /><glyph glyph-name="uni8D5B" unicode="&#x8d5b;" d="M14 153 L14 194 L112 194 L107 209 L142 212 L146 194 L242 194 L242 153 L219 153 L219 139 L180 139 L180 126 L225 126 L225 109 L180 109 L180 97 L244 97 L244 78 L189 78 Q214 63 249 54 Q243 43 238 31 Q219 37 204 45 L204 12 L176 12 L176 44 L80 44 L80 9 L53 9 L53 45 Q36 36 17 29 Q15 35 6 53 Q41 62 66 78 L12 78 L12 97 L75 97 L75 109 L31 109 L31 126 L75 126 L75 139 L36 139 L36 153 L14 153 ZM228 -29 Q214 -25 184 -16 Q146 -5 128 0 Q109 -22 26 -31 Q20 -15 15 -5 Q93 -1 105 13 Q114 19 115 36 L143 36 Q143 26 140 17 Q177 8 240 -6 L228 -29 ZM42 174 L42 157 L75 157 L75 168 L103 168 L103 157 L151 157 L151 168 L180 168 L180 157 L213 157 L213 174 L42 174 ZM101 78 Q92 69 82 63 L174 63 Q165 69 155 78 L101 78 ZM103 139 L103 126 L151 126 L151 139 L103 139 ZM103 109 L103 97 L151 97 L151 109 L103 109 Z" /><glyph glyph-name="uni8FD8" unicode="&#x8fd8;" d="M82 165 L82 193 L241 193 L241 165 L179 165 Q170 145 159 127 L173 127 L173 15 L142 15 L142 103 Q121 75 85 45 Q82 50 73 61 Q68 67 66 70 Q122 112 146 165 L82 165 ZM18 -28 L6 4 Q11 8 19 17 Q29 25 33 29 L33 98 L8 98 L8 127 L63 127 L63 30 Q78 4 113 5 Q169 4 249 5 Q248 0 245 -8 Q243 -17 241 -22 Q183 -22 157 -22 Q126 -22 106 -21 Q66 -20 48 5 Q35 -7 18 -28 ZM226 51 Q198 84 174 109 L195 126 Q227 96 249 71 L226 51 ZM46 147 Q31 174 16 195 L41 209 Q60 182 73 162 L46 147 Z" /><glyph glyph-name="uni8FDB" unicode="&#x8fdb;" d="M85 143 L85 169 L112 169 L112 209 L141 209 L141 169 L181 169 L181 209 L210 209 L210 169 L238 169 L238 143 L210 143 L210 101 L246 101 L246 74 L210 74 L210 13 L181 13 L181 74 L140 74 Q137 34 110 7 Q109 8 107 9 Q92 20 84 25 Q109 48 110 74 L76 74 L76 101 L112 101 L112 143 L85 143 ZM18 -28 L5 1 Q20 17 33 29 L33 98 L7 98 L7 127 L62 127 L62 30 Q76 4 113 5 Q169 4 249 5 Q247 -1 243 -14 Q242 -20 241 -23 Q217 -23 173 -22 Q125 -22 106 -21 Q65 -20 48 5 Q30 -12 18 -28 ZM141 101 L181 101 L181 143 L141 143 L141 101 ZM48 146 Q43 155 33 171 Q23 188 18 196 L42 209 Q44 206 49 199 Q67 174 75 161 L48 146 Z" /><glyph glyph-name="uni90AE" unicode="&#x90ae;" d="M16 -20 L16 173 L63 173 L63 210 L88 210 L88 173 L135 173 L135 -20 L111 -20 L111 -4 L41 -4 L41 -20 L16 -20 ZM155 -29 L155 195 L243 195 L243 168 L222 103 Q249 77 248 45 Q249 2 212 0 Q202 0 191 0 Q190 5 188 14 Q186 24 185 28 Q193 28 203 28 Q221 27 220 48 Q220 72 194 99 L217 168 L182 168 L182 -29 L155 -29 ZM88 71 L88 19 L111 19 L111 71 L88 71 ZM41 71 L41 19 L63 19 L63 71 L41 71 ZM111 147 L88 147 L88 96 L111 96 L111 147 ZM41 147 L41 96 L63 96 L63 147 L41 147 Z" /><glyph glyph-name="uni95F9" unicode="&#x95f9;" d="M114 -12 L114 75 L88 75 L88 10 L63 10 L63 98 L114 98 L114 119 L56 119 L56 143 L115 143 Q111 154 106 163 L135 167 Q137 162 141 152 Q144 146 145 143 L199 143 L199 119 L140 119 L140 98 L192 98 L192 35 Q193 12 172 11 Q165 10 152 10 Q151 15 148 26 Q147 31 146 34 Q154 34 159 34 Q168 33 167 42 L167 75 L140 75 L140 -12 L114 -12 ZM174 -26 Q173 -24 172 -18 Q169 -5 167 0 Q181 0 193 0 Q211 0 210 15 L210 173 L88 173 L88 199 L239 199 L239 7 Q240 -25 206 -25 Q202 -25 193 -25 Q181 -26 174 -26 ZM17 -28 L17 151 L46 151 L46 -28 L17 -28 ZM50 156 Q37 174 20 194 L44 210 Q56 198 74 176 Q73 178 76 174 L50 156 Z" /><glyph glyph-name="uni96C6" unicode="&#x96c6;" d="M37 59 L37 133 Q32 128 22 118 Q17 113 14 110 L6 141 Q39 169 58 211 L89 207 Q87 203 83 196 Q78 188 76 185 L132 185 Q126 195 119 207 L151 211 Q153 206 159 195 Q163 188 165 185 L236 185 L236 165 L156 165 L156 151 L227 151 L227 133 L156 133 L156 118 L227 118 L227 101 L156 101 L156 86 L238 86 L238 66 L66 66 L66 59 L37 59 ZM12 26 L12 48 L113 48 L113 61 L142 61 L142 48 L244 48 L244 26 L161 26 Q189 6 250 -2 Q249 -4 246 -9 Q242 -14 236 -25 Q174 -11 142 15 L142 -29 L113 -29 L113 15 Q83 -9 19 -26 Q17 -22 12 -12 Q8 -6 6 -3 Q65 6 93 26 L12 26 ZM66 101 L66 86 L127 86 L127 101 L66 101 ZM66 133 L66 118 L127 118 L127 133 L66 133 ZM66 165 L66 151 L127 151 L127 165 L66 165 Z" /><glyph glyph-name="uni9738" unicode="&#x9738;" d="M8 91 L8 106 L28 106 L28 115 L51 115 L51 106 L93 106 L93 115 L116 115 L116 106 L134 106 L134 91 L116 91 L116 68 L84 68 L84 58 L126 58 L126 18 L84 18 L84 7 L131 7 L131 -6 Q142 8 141 47 L141 110 L236 110 L236 0 Q237 -27 210 -27 Q195 -27 181 -27 Q178 -18 176 -4 Q182 -5 199 -5 Q211 -5 210 4 L210 17 L165 17 Q163 -6 146 -30 Q134 -25 121 -20 Q126 -14 129 -9 L84 -9 L84 -29 L60 -29 L60 -9 L7 -9 L7 7 L60 7 L60 18 L18 18 L18 58 L60 58 L60 68 L28 68 L28 91 L8 91 ZM26 187 L26 204 L228 204 L228 187 L141 187 L141 176 L243 176 L243 128 L215 128 L215 158 L141 158 L141 121 L113 121 L113 158 L40 158 L40 129 L13 129 L13 176 L113 176 L113 187 L26 187 ZM166 45 Q166 40 166 36 L210 36 L210 53 L166 53 L166 45 ZM166 89 L166 72 L210 72 L210 89 L166 89 ZM50 120 L50 130 L103 130 L103 120 L50 120 ZM152 138 L152 149 L204 149 L204 138 L152 138 ZM152 120 L152 130 L204 130 L204 120 L152 120 ZM50 138 L50 149 L103 149 L103 138 L50 138 ZM51 91 L51 80 L93 80 L93 91 L51 91 ZM105 45 L84 45 L84 31 L105 31 L105 45 ZM39 45 L39 31 L60 31 L60 45 L39 45 Z" /><glyph glyph-name="uni9879" unicode="&#x9879;" d="M97 174 L97 200 L247 200 L247 174 L182 174 L177 149 L238 149 L238 31 L210 31 L210 123 L129 123 L129 29 L101 29 L101 149 L146 149 L151 174 L97 174 ZM9 163 L9 191 L89 191 L89 163 L63 163 L63 47 Q70 49 83 52 Q88 53 91 54 Q91 34 92 24 Q69 18 10 2 L5 34 L35 41 L35 163 L9 163 ZM232 -27 Q201 -3 169 17 Q152 -10 93 -30 L78 -3 Q124 9 139 24 Q154 38 155 72 L156 110 L184 110 L183 72 Q182 56 179 42 Q210 22 251 -5 L232 -27 Z" /><glyph glyph-name="uni9886" unicode="&#x9886;" d="M112 174 L112 199 L248 199 L248 174 L192 174 L187 149 L239 149 L239 33 L213 33 L213 124 L145 124 L145 31 L121 31 L121 142 L103 121 Q97 129 99 126 Q77 156 65 172 Q46 137 15 103 Q10 119 4 132 Q35 166 52 209 L82 207 L77 197 Q90 183 112 156 Q118 149 121 145 L121 149 L158 149 L163 174 L112 174 ZM230 -28 Q215 -14 188 9 Q183 14 180 16 Q168 -6 122 -31 Q112 -17 103 -8 Q171 16 165 70 L166 112 L193 112 L193 71 Q192 54 189 39 Q203 29 227 10 Q241 0 249 -6 L230 -28 ZM78 -27 Q63 -12 31 15 Q20 26 14 31 L30 49 L57 27 L81 67 L13 67 L13 92 L110 92 L110 66 L77 9 L97 -7 L78 -27 ZM63 96 Q59 103 51 117 Q46 125 43 130 L63 142 Q65 140 68 135 Q79 118 85 108 L63 96 Z" /><glyph glyph-name="uni9898" unicode="&#x9898;" d="M8 70 L8 94 L119 94 L119 70 L85 70 L85 50 L117 50 L117 28 L85 28 L85 4 Q99 1 120 1 Q181 0 250 1 L242 -24 Q194 -24 171 -24 Q143 -24 118 -23 Q57 -23 38 7 Q34 -11 24 -29 Q14 -19 5 -10 Q20 12 19 61 L44 60 Q44 56 43 49 Q43 42 42 38 Q50 25 60 16 L60 70 L8 70 ZM123 177 L123 201 L243 201 L243 177 L194 177 L190 156 L236 156 L236 58 L211 58 L211 134 L153 134 L153 58 L130 58 L130 156 L162 156 L165 177 L123 177 ZM19 108 L19 201 L111 201 L111 108 L19 108 ZM228 5 Q207 23 182 42 Q169 20 133 3 Q127 13 117 25 Q174 43 169 94 L170 123 L194 123 L194 95 Q193 77 190 63 Q194 61 200 56 Q231 36 244 26 L228 5 ZM44 145 L44 129 L86 129 L86 145 L44 145 ZM44 179 L44 163 L86 163 L86 179 L44 179 Z" /><glyph glyph-name="uniFF08" unicode="&#xff08;" d="M174 -35 L149 -35 Q104 14 104 89 Q105 164 149 217 L174 217 Q131 161 132 89 Q132 16 174 -35 Z" /><glyph glyph-name="uniFF09" unicode="&#xff09;" d="M81 217 L106 217 Q152 163 152 89 Q151 13 106 -35 L81 -35 Q123 16 123 89 Q124 161 81 217 Z" /><glyph glyph-name="uniFF0C" unicode="&#xff0c;" d="M54 -35 L44 -22 Q70 -6 70 17 L48 17 L48 58 L88 58 Q88 48 88 22 Q90 -16 54 -35 Z" /><glyph glyph-name="uniFF1A" unicode="&#xff1a;" d="M87 49 L87 8 L47 8 L47 49 L87 49 ZM87 153 L87 112 L47 112 L47 153 L87 153 Z" /></font>
</defs>
</svg>
