<?xml version="1.0" standalone="no"?><!DOCTYPE svg PUBLIC "-//W3C//DTD SVG 1.1//EN" "http://www.w3.org/Graphics/SVG/1.1/DTD/svg11.dtd" ><svg xmlns="http://www.w3.org/2000/svg"><metadata></metadata><defs><font id="fonteditor" horiz-adv-x="256"><font-face font-family="e¹kcQpN­N-Ñ_GBK" font-weight="400" font-stretch="normal" units-per-em="256" panose-1="2 0 0 0 0 0 0 0 0 0" ascent="229" descent="-72" x-height="0" bbox="3 -50 253 218" underline-thickness="0" underline-position="0" unicode-range="U+0028-ff1a" /><missing-glyph horiz-adv-x="256"  /><glyph glyph-name="parenleft" unicode="(" d="M92 -50 L67 -50 Q18 2 18 83 Q19 164 67 218 L92 218 Q44 160 45 83 Q44 7 92 -50 Z" /><glyph glyph-name="parenright" unicode=")" d="M10 218 L35 218 Q83 163 84 83 Q84 1 35 -50 L10 -50 Q58 7 57 83 Q58 158 10 218 Z" /><glyph glyph-name="hyphen" unicode="-" d="M157 78 L17 78 L17 100 L157 100 L157 78 Z" /><glyph glyph-name="period" unicode="." d="M62 25 L62 -11 L25 -11 L25 25 L62 25 Z" /><glyph glyph-name="zero" unicode="0" d="M86 196 Q158 195 159 90 Q159 -16 86 -15 Q13 -14 12 90 Q14 193 86 196 ZM86 7 Q127 6 127 89 Q128 174 86 172 Q45 173 45 89 Q45 6 86 7 Z" /><glyph glyph-name="one" unicode="1" d="M70 -12 L70 148 Q47 126 7 109 Q7 123 7 136 Q59 160 77 195 L100 195 L100 -12 L70 -12 Z" /><glyph glyph-name="two" unicode="2" d="M46 12 L152 12 L152 -11 L9 -11 L9 6 Q30 45 73 78 Q124 114 120 136 Q119 170 82 171 Q49 171 40 132 L12 141 Q27 196 87 196 Q148 194 152 139 Q157 103 103 68 Q65 42 46 12 Z" /><glyph glyph-name="three" unicode="3" d="M10 38 L41 45 Q48 7 84 7 Q124 8 125 46 Q125 81 76 81 Q64 81 57 81 L57 105 Q64 105 72 105 Q118 105 119 140 Q118 172 84 173 Q50 173 44 136 L14 143 Q27 196 86 196 Q147 194 151 143 Q150 106 110 95 Q154 86 157 44 Q154 -13 84 -15 Q23 -16 10 38 Z" /><glyph glyph-name="four" unicode="4" d="M132 57 L159 57 L159 34 L132 34 L132 -12 L104 -12 L104 34 L4 34 L4 53 L104 195 L132 195 L132 57 ZM34 57 L104 57 L104 138 Q104 139 104 148 Q105 159 105 161 Q105 161 105 160 Q105 159 103 157 Q102 154 101 153 Q101 152 99 150 Q96 145 95 143 Q94 141 90 136 Q78 119 70 108 Q69 106 66 103 Q64 99 62 97 Q53 85 39 65 Q35 58 34 57 Z" /><glyph glyph-name="five" unicode="5" d="M11 39 L41 46 Q48 7 85 7 Q125 10 127 53 Q126 98 84 99 Q57 98 44 79 L20 80 L29 192 L147 192 L147 166 L55 166 L49 105 Q66 121 92 121 Q155 119 158 55 Q156 -13 86 -15 Q25 -15 11 39 Z" /><glyph glyph-name="seven" unicode="7" d="M80 -12 L47 -12 Q58 74 121 166 L13 166 L13 191 L156 191 L156 170 Q88 79 80 -12 Z" /><glyph glyph-name="nine" unicode="9" d="M16 32 L44 38 Q53 7 81 7 Q128 6 129 87 Q111 60 75 59 Q15 62 12 125 Q16 193 82 196 Q159 198 158 94 Q158 -16 80 -15 Q28 -15 16 32 ZM127 122 Q126 171 83 172 Q44 170 42 127 Q44 84 82 82 Q124 84 127 122 Z" /><glyph glyph-name="colon" unicode=":" d="M61 -9 L25 -9 L25 27 L61 27 L61 -9 ZM61 97 L25 97 L25 135 L61 135 L61 97 Z" /><glyph glyph-name="C" unicode="c" d="M196 135 L165 127 Q153 167 111 169 Q52 165 48 90 Q51 15 110 10 Q158 11 168 62 L199 53 Q184 -15 110 -15 Q19 -10 14 89 Q19 190 111 196 Q175 194 196 135 Z" /><glyph glyph-name="D" unicode="d" d="M91 -12 L22 -12 L22 193 L90 193 Q193 191 195 91 Q197 -14 91 -12 ZM89 167 L53 167 L53 12 L89 12 Q162 12 162 91 Q160 165 89 167 Z" /><glyph glyph-name="G" unicode="g" d="M207 101 L207 25 Q186 -14 117 -15 Q20 -10 15 90 Q20 191 113 196 Q184 195 206 141 L176 130 Q161 169 113 169 Q53 163 48 90 Q52 15 117 10 Q160 11 178 35 L178 75 L111 75 L111 101 L207 101 Z" /><glyph glyph-name="a" unicode="a" d="M160 -11 L131 -11 Q125 -3 123 14 Q105 -14 59 -15 Q13 -13 11 26 Q11 66 66 73 Q114 80 122 89 Q124 120 86 118 Q51 118 45 91 L16 96 Q27 141 86 140 Q155 142 152 81 Q152 54 152 20 Q152 2 160 -11 ZM124 51 L124 70 Q112 59 80 55 Q40 50 41 27 Q40 5 72 6 Q120 9 124 51 Z" /><glyph glyph-name="e" unicode="e" d="M128 34 L160 29 Q144 -15 87 -15 Q13 -12 10 60 Q13 137 84 140 Q158 139 159 60 Q159 55 159 52 L41 52 Q43 9 87 6 Q120 7 128 34 ZM41 73 L129 73 Q127 116 86 118 Q44 116 41 73 Z" /><glyph glyph-name="h" unicode="h" d="M153 -11 L123 -11 L123 76 Q123 116 89 116 Q51 114 49 71 L49 -11 L19 -11 L19 200 L49 200 L49 110 Q67 139 100 140 Q154 141 153 81 L153 -11 Z" /><glyph glyph-name="i" unicode="i" d="M18 -11 L18 136 L49 136 L49 -11 L18 -11 ZM18 164 L18 195 L49 195 L49 164 L18 164 Z" /><glyph glyph-name="k" unicode="k" d="M97 79 L162 -11 L125 -11 L77 60 L49 34 L49 -11 L18 -11 L18 200 L49 200 L49 68 L118 136 L157 136 L97 79 Z" /><glyph glyph-name="m" unicode="m" d="M238 -11 L207 -11 L207 76 Q208 117 177 116 Q145 114 143 75 L143 -11 L112 -11 L112 77 Q113 117 82 116 Q50 115 48 74 L48 -11 L18 -11 L18 136 L48 136 L48 110 Q64 139 96 140 Q132 140 140 108 Q154 139 189 140 Q238 140 238 81 L238 -11 Z" /><glyph glyph-name="n" unicode="n" d="M153 -12 L123 -12 L123 76 Q123 116 89 115 Q54 113 49 74 L49 -12 L19 -12 L19 136 L49 136 L49 110 Q67 138 100 140 Q154 141 153 80 L153 -12 Z" /><glyph glyph-name="s" unicode="s" d="M138 100 L108 96 Q102 118 75 118 Q46 118 46 97 Q44 82 79 76 Q90 73 102 70 Q146 60 144 28 Q143 -14 81 -15 Q18 -18 9 29 L39 34 Q46 5 79 6 Q112 6 113 29 Q115 44 83 51 Q80 51 73 53 Q64 55 60 56 Q13 67 14 96 Q17 138 73 140 Q127 141 138 100 Z" /><glyph glyph-name="z" unicode="z" d="M141 -11 L5 -11 L5 7 L98 113 L12 113 L12 136 L137 136 L137 117 L42 10 L141 10 L141 -11 Z" /><glyph glyph-name="quotedblleft" unicode="&#x201c;" d="M185 162 L205 162 L205 124 L168 124 L168 157 Q167 195 201 214 L210 203 Q185 186 185 162 ZM118 124 L118 157 Q117 196 151 214 L160 203 Q135 186 135 162 L155 162 L155 124 L118 124 Z" /><glyph glyph-name="quotedblright" unicode="&#x201d;" d="M87 212 L87 180 Q89 141 55 122 L45 134 Q70 149 70 175 L50 175 L50 212 L87 212 ZM138 212 L138 180 Q140 141 105 122 L96 134 Q121 149 121 175 L101 175 L101 212 L138 212 Z" /><glyph glyph-name="uni3001" unicode="&#x3001;" d="M111 -2 L91 -22 L37 37 L56 54 L111 -2 Z" /><glyph glyph-name="uni3002" unicode="&#x3002;" d="M37 15 Q40 53 78 56 Q115 53 118 15 Q114 -19 78 -23 Q41 -20 37 15 ZM53 15 Q55 -5 78 -7 Q100 -5 102 15 Q100 38 78 40 Q55 38 53 15 Z" /><glyph glyph-name="uni300A" unicode="&#x300a;" d="M151 217 L101 90 L151 -35 L128 -35 L79 90 L128 217 L151 217 ZM194 217 L144 90 L194 -35 L172 -35 L122 90 L172 217 L194 217 Z" /><glyph glyph-name="uni300B" unicode="&#x300b;" d="M127 217 L177 90 L127 -35 L104 -35 L155 90 L105 217 L127 217 ZM84 217 L133 90 L83 -35 L61 -35 L111 90 L61 217 L84 217 Z" /><glyph glyph-name="uni4E00" unicode="&#x4e00;" d="M6 80 L6 110 L249 110 L249 80 L6 80 Z" /><glyph glyph-name="uni4E03" unicode="&#x4e03;" d="M12 87 L8 115 L86 126 L86 209 L117 209 L117 130 L244 148 L248 121 L117 102 L117 31 Q115 4 143 6 L184 6 Q206 5 209 26 Q211 35 214 62 Q228 56 243 52 Q240 29 236 11 Q230 -21 187 -20 L134 -20 Q85 -21 86 25 L86 98 L12 87 Z" /><glyph glyph-name="uni4E07" unicode="&#x4e07;" d="M11 167 L11 193 L246 193 L246 167 L107 167 Q106 145 104 122 L219 122 Q217 80 214 23 Q212 -23 166 -22 Q148 -23 118 -23 Q116 -9 113 3 Q130 2 155 2 Q185 0 185 31 Q187 46 189 90 Q189 87 189 96 L102 96 Q95 17 29 -29 Q15 -15 7 -8 Q73 35 74 114 Q77 140 78 167 L11 167 Z" /><glyph glyph-name="uni4E09" unicode="&#x4e09;" d="M24 161 L24 189 L231 189 L231 161 L24 161 ZM9 -11 L9 15 L247 15 L247 -11 L9 -11 ZM36 77 L36 105 L220 105 L220 77 L36 77 Z" /><glyph glyph-name="uni4E0A" unicode="&#x4e0a;" d="M9 -15 L9 10 L101 10 L101 208 L132 208 L132 136 L228 136 L228 109 L132 109 L132 10 L247 10 L247 -15 L9 -15 Z" /><glyph glyph-name="uni4E0B" unicode="&#x4e0b;" d="M9 167 L9 194 L247 194 L247 167 L133 167 L133 106 L149 126 Q189 103 236 72 L217 47 Q196 61 160 85 Q142 98 133 104 L133 -27 L102 -27 L102 167 L9 167 Z" /><glyph glyph-name="uni4E0D" unicode="&#x4e0d;" d="M15 165 L15 192 L244 192 L244 165 L156 165 Q141 141 126 120 L142 120 L142 -28 L112 -28 L112 103 Q80 65 24 28 Q14 44 6 52 Q89 105 122 165 L15 165 ZM228 33 Q184 70 151 94 L169 113 Q210 85 249 56 L228 33 Z" /><glyph glyph-name="uni4E0E" unicode="&#x4e0e;" d="M118 -25 Q117 -12 112 2 Q136 1 162 1 Q197 0 197 27 Q201 60 201 93 L40 93 L50 210 L79 210 L76 177 L245 177 L245 151 L74 151 L71 118 L232 118 Q231 96 227 44 Q226 30 226 23 Q226 -26 172 -25 Q143 -25 118 -25 ZM7 35 L7 61 L181 61 L181 35 L7 35 Z" /><glyph glyph-name="uni4E13" unicode="&#x4e13;" d="M21 158 L21 182 L90 182 Q98 199 102 212 L134 210 L122 182 L235 182 L235 158 L111 158 Q105 145 99 131 L249 131 L249 108 L88 108 Q85 103 80 94 Q76 86 74 82 L225 82 L225 55 L162 8 L202 -5 L187 -31 Q110 1 43 26 L56 48 Q69 44 96 33 Q120 25 133 20 L188 59 L43 59 L43 82 Q45 86 51 96 Q55 104 57 108 L7 108 L7 131 L68 131 Q74 145 80 158 L21 158 Z" /><glyph glyph-name="uni4E16" unicode="&#x4e16;" d="M9 126 L9 152 L37 152 L37 198 L64 198 L64 152 L106 152 L106 208 L133 208 L133 152 L188 152 L188 208 L215 208 L215 152 L247 152 L247 126 L215 126 L215 42 L106 42 L106 126 L64 126 L64 5 L242 5 L242 -18 L37 -18 L37 126 L9 126 ZM133 126 L133 67 L188 67 L188 126 L133 126 Z" /><glyph glyph-name="uni4E1A" unicode="&#x4e1a;" d="M9 -16 L9 9 L81 9 L81 207 L109 207 L109 9 L147 9 L147 207 L174 207 L174 9 L247 9 L247 -16 L9 -16 ZM202 51 L177 62 Q192 94 218 163 L243 154 Q219 92 202 51 ZM51 51 Q32 107 14 155 L38 163 Q64 96 76 60 L51 51 Z" /><glyph glyph-name="uni4E1C" unicode="&#x4e1c;" d="M10 152 L10 177 L74 177 Q78 184 85 199 Q89 207 91 211 L122 207 Q119 202 114 192 Q109 182 106 177 L246 177 L246 152 L92 152 Q76 123 59 97 L122 97 L122 139 L151 139 L151 97 L236 97 L236 72 L151 72 L151 12 Q154 -26 114 -26 Q110 -26 99 -26 Q85 -27 79 -27 Q78 -19 74 -2 Q73 0 73 0 Q88 0 103 0 Q124 -1 122 18 L122 72 L27 72 L27 99 Q45 124 60 152 L10 152 ZM25 -18 Q16 -9 5 0 Q43 34 63 58 L85 42 Q64 17 25 -18 ZM231 -15 Q208 5 169 38 L188 56 Q212 37 251 4 L231 -15 Z" /><glyph glyph-name="uni4E24" unicode="&#x4e24;" d="M65 10 Q56 19 47 27 L47 -26 L21 -26 L21 141 L81 141 Q81 156 81 172 L8 172 L8 196 L248 196 L248 172 L176 172 L175 141 L234 141 L234 9 Q236 -24 202 -24 Q184 -24 166 -25 Q165 -21 164 -13 Q162 -4 161 0 Q167 0 177 -1 Q186 -1 190 -1 Q209 -2 208 13 L208 42 L194 24 Q193 26 190 29 Q173 49 163 59 Q154 34 129 3 Q120 12 109 20 Q148 62 148 118 L106 118 Q105 104 103 92 Q118 80 132 67 L118 46 L97 67 Q87 39 65 10 ZM47 118 L47 30 Q80 67 81 118 L47 118 ZM208 118 L173 118 Q173 100 170 86 Q195 61 208 47 L208 118 ZM107 172 L107 141 L150 141 L150 172 L107 172 Z" /><glyph glyph-name="uni4E25" unicode="&#x4e25;" d="M12 174 L12 198 L247 198 L247 174 L172 174 L172 110 L246 110 L246 87 L54 87 L54 68 Q56 8 28 -30 Q18 -23 5 -15 Q29 13 27 68 L27 110 L89 110 L89 174 L12 174 ZM114 174 L114 110 L147 110 L147 174 L114 174 ZM202 116 L183 131 Q196 145 213 168 L234 155 Q223 140 202 116 ZM56 118 Q49 128 33 149 Q30 154 28 156 L48 169 Q52 163 61 152 Q72 139 77 132 L56 118 Z" /><glyph glyph-name="uni4E2A" unicode="&#x4e2a;" d="M232 86 Q165 122 129 174 Q91 120 23 81 Q22 83 18 88 Q9 102 6 107 Q87 151 119 211 L151 208 Q148 202 144 197 Q182 144 250 112 Q243 104 232 86 ZM113 -29 L113 119 L143 119 L143 -29 L113 -29 Z" /><glyph glyph-name="uni4E2D" unicode="&#x4e2d;" d="M20 39 L20 163 L113 163 L113 211 L142 211 L142 163 L235 163 L235 40 L207 40 L207 53 L142 53 L142 -30 L113 -30 L113 53 L48 53 L48 39 L20 39 ZM207 137 L142 137 L142 79 L207 79 L207 137 ZM48 137 L48 79 L113 79 L113 137 L48 137 Z" /><glyph glyph-name="uni4E30" unicode="&#x4e30;" d="M18 149 L18 175 L113 175 L113 210 L142 210 L142 175 L237 175 L237 149 L142 149 L142 113 L223 113 L223 88 L142 88 L142 51 L246 51 L246 26 L142 26 L142 -29 L113 -29 L113 26 L9 26 L9 51 L113 51 L113 88 L32 88 L32 113 L113 113 L113 149 L18 149 Z" /><glyph glyph-name="uni4E39" unicode="&#x4e39;" d="M7 69 L7 95 L47 95 L47 200 L215 200 L215 95 L249 95 L249 69 L215 69 L215 13 Q217 -23 179 -23 Q157 -24 138 -24 Q136 -11 133 2 Q147 1 166 1 Q189 0 187 20 L187 69 L74 69 Q73 10 40 -30 Q37 -28 32 -24 Q20 -16 14 -13 Q46 19 46 69 L7 69 ZM75 95 L187 95 L187 175 L75 175 L75 95 ZM137 105 Q121 127 102 148 L122 163 Q141 142 159 121 L137 105 Z" /><glyph glyph-name="uni4E3A" unicode="&#x4e3a;" d="M30 -30 Q28 -28 25 -24 Q15 -12 9 -6 Q94 44 99 125 L15 125 L15 151 L102 151 Q105 180 105 211 L135 211 Q133 170 131 151 L236 151 Q235 134 233 91 Q231 43 230 25 Q229 -23 181 -23 Q158 -24 132 -24 Q129 -8 125 4 Q149 2 170 2 Q202 0 202 33 Q202 42 203 63 Q205 106 206 125 L129 125 Q121 26 30 -30 ZM165 39 Q155 51 136 71 Q130 78 127 81 L146 97 Q168 77 186 59 L165 39 ZM64 155 Q49 174 30 192 L50 208 Q56 203 68 191 Q80 180 86 174 L64 155 Z" /><glyph glyph-name="uni4E3B" unicode="&#x4e3b;" d="M20 141 L20 167 L236 167 L236 141 L142 141 L142 90 L225 90 L225 64 L142 64 L142 8 L246 8 L246 -17 L10 -17 L10 8 L114 8 L114 64 L31 64 L31 90 L114 90 L114 141 L20 141 ZM121 167 Q113 189 105 205 L134 211 Q140 198 150 174 L121 167 Z" /><glyph glyph-name="uni4E3D" unicode="&#x4e3d;" d="M71 39 Q68 46 62 59 Q58 67 45 94 L45 -29 L21 -29 L21 151 L115 151 L115 5 Q117 -25 86 -25 Q74 -25 60 -25 Q60 -24 60 -22 Q59 -15 56 -1 Q60 -2 78 -2 Q93 -3 92 9 L92 127 L45 127 L45 95 L63 103 Q79 73 90 47 L71 39 ZM138 -29 L138 151 L235 151 L235 3 Q237 -26 206 -25 Q195 -25 179 -25 Q178 -15 175 -3 Q187 -4 198 -4 Q212 -4 211 7 L211 127 L162 127 L162 -29 L138 -29 ZM8 173 L8 198 L247 198 L247 173 L8 173 ZM190 40 Q186 50 177 69 Q169 88 164 98 L182 105 Q191 88 208 53 Q206 56 210 48 L190 40 Z" /><glyph glyph-name="uni4E49" unicode="&#x4e49;" d="M231 -26 Q161 -4 128 24 Q92 -4 24 -29 Q23 -27 20 -22 Q13 -11 7 -2 Q69 15 107 44 Q63 92 35 182 L62 192 Q85 109 128 63 Q174 113 191 194 L219 186 Q197 94 150 44 Q184 17 248 0 Q244 -4 236 -18 Q232 -24 231 -26 ZM126 143 Q112 178 100 202 L124 211 Q134 194 152 153 L126 143 Z" /><glyph glyph-name="uni4E4B" unicode="&#x4e4b;" d="M241 -20 Q194 -20 172 -20 Q147 -20 126 -19 Q81 -17 56 10 Q52 15 47 10 Q38 2 18 -21 Q32 -3 16 -23 L5 6 Q19 22 34 34 Q44 44 53 44 Q57 44 60 43 Q132 85 190 140 L24 140 L24 166 L119 166 Q118 168 116 172 Q107 195 102 205 L133 210 Q135 206 138 196 Q147 176 150 166 L228 166 L228 138 Q161 72 80 25 Q98 5 132 5 Q169 4 249 6 Q244 -7 241 -20 Z" /><glyph glyph-name="uni4E50" unicode="&#x4e50;" d="M23 79 L36 192 Q121 192 219 201 L228 176 Q127 168 61 167 L54 104 L118 104 L118 153 L146 153 L146 104 L237 104 L237 79 L146 79 L146 11 Q148 -26 112 -25 Q102 -26 77 -26 Q76 -19 71 0 Q88 0 102 0 Q119 0 118 17 L118 79 L23 79 ZM28 -16 Q17 -6 6 0 Q34 28 62 68 L86 54 Q54 10 28 -16 ZM226 -15 Q219 -7 204 11 Q180 40 169 53 L190 67 Q202 54 225 27 Q242 8 249 0 L226 -15 Z" /><glyph glyph-name="uni4E5D" unicode="&#x4e5d;" d="M26 -28 Q21 -23 11 -11 Q8 -7 6 -5 Q78 37 76 121 L77 133 L13 133 L13 160 L78 160 Q78 169 79 187 Q79 203 79 210 L108 210 Q108 179 107 160 L187 160 L187 18 Q186 3 200 4 L207 4 Q219 3 221 18 Q221 22 222 31 Q224 49 225 59 Q229 58 238 56 Q247 53 250 52 Q249 46 248 35 Q246 13 245 4 Q241 -23 209 -22 L191 -22 Q157 -24 158 13 L158 133 L106 133 L105 120 Q106 19 26 -28 Z" /><glyph glyph-name="uni4E5F" unicode="&#x4e5f;" d="M114 25 L114 120 L65 108 L65 27 Q63 1 89 3 L191 3 Q217 2 218 20 Q222 36 223 53 Q230 51 243 48 Q248 47 250 46 Q247 23 243 6 Q238 -22 198 -21 L81 -21 Q36 -22 37 20 L37 101 L10 95 L6 120 L37 127 L37 183 L65 183 L65 134 L114 145 L114 211 L142 211 L142 152 L227 171 Q225 110 223 88 Q222 46 187 47 Q172 47 158 47 Q157 59 152 73 Q156 72 178 72 Q197 70 197 92 Q199 117 199 140 L142 126 L142 25 L114 25 Z" /><glyph glyph-name="uni4E7E" unicode="&#x4e7e;" d="M8 8 L8 30 L51 30 L51 51 L16 51 L16 148 L51 148 L51 167 L9 167 L9 189 L51 189 L51 210 L75 210 L75 189 L116 189 L116 167 L75 167 L75 148 L110 148 L110 132 Q136 170 148 210 L176 207 Q175 204 173 198 Q171 192 165 180 L246 180 L246 154 L153 154 Q150 148 143 136 Q137 126 134 121 L229 121 L229 96 Q188 61 158 21 Q153 15 153 9 Q155 0 167 0 L199 0 Q220 0 222 19 Q225 32 226 53 Q229 52 235 50 Q240 48 250 45 Q249 22 245 6 Q238 -22 205 -23 L157 -23 Q128 -20 126 5 Q126 19 135 31 Q154 58 194 97 L134 97 L134 121 Q134 120 133 119 Q132 117 131 116 Q127 119 119 125 Q113 128 110 131 L110 51 L75 51 L75 30 L116 30 L116 8 L75 8 L75 -28 L51 -28 L51 8 L8 8 ZM37 91 L37 71 L89 71 L89 91 L37 91 ZM37 129 L37 109 L89 109 L89 129 L37 129 Z" /><glyph glyph-name="uni4E86" unicode="&#x4e86;" d="M61 -24 Q58 -9 55 3 Q60 3 74 3 Q89 2 96 2 Q120 1 118 25 L118 117 L197 170 L17 170 L17 195 L236 195 L236 165 L148 104 L148 17 Q150 -23 108 -23 Q91 -24 61 -24 Z" /><glyph glyph-name="uni4E89" unicode="&#x4e89;" d="M30 33 L30 54 L110 54 L110 79 L7 79 L7 101 L110 101 L110 125 L40 125 L40 138 Q32 132 23 126 Q21 128 18 132 Q16 136 7 145 Q53 177 78 212 L108 209 Q106 206 102 200 Q97 194 95 191 L193 191 L193 172 L169 147 L221 147 L221 101 L249 101 L249 79 L221 79 L221 19 L195 19 L195 33 L137 33 L137 12 Q139 -26 101 -25 Q86 -26 62 -26 Q60 -12 57 0 Q69 -1 90 -1 Q111 -3 110 17 L110 33 L30 33 ZM158 170 L76 170 Q69 163 54 149 Q64 159 51 147 L137 147 L158 170 ZM137 79 L137 54 L195 54 L195 79 L137 79 ZM195 125 L137 125 L137 101 L195 101 L195 125 Z" /><glyph glyph-name="uni4E8B" unicode="&#x4e8b;" d="M8 173 L8 191 L114 191 L114 211 L141 211 L141 191 L248 191 L248 173 L141 173 L141 159 L221 159 L221 111 L141 111 L141 97 L226 97 L226 65 L249 65 L249 47 L226 47 L226 1 L201 1 L201 14 L141 14 L141 9 Q143 -25 108 -25 Q97 -26 69 -26 Q67 -13 64 -4 Q81 -4 97 -4 Q116 -6 114 12 L114 14 L22 14 L22 30 L114 30 L114 47 L8 47 L8 65 L114 65 L114 81 L23 81 L23 97 L114 97 L114 111 L34 111 L34 159 L114 159 L114 173 L8 173 ZM201 81 L141 81 L141 65 L201 65 L201 81 ZM141 47 L141 30 L201 30 L201 47 L141 47 ZM196 143 L141 143 L141 127 L196 127 L196 143 ZM60 143 L60 127 L114 127 L114 143 L60 143 Z" /><glyph glyph-name="uni4E8C" unicode="&#x4e8c;" d="M29 152 L29 181 L226 181 L226 152 L29 152 ZM11 -3 L11 24 L244 24 L244 -3 L11 -3 Z" /><glyph glyph-name="uni4E8E" unicode="&#x4e8e;" d="M28 169 L28 195 L228 195 L228 169 L146 169 L146 111 L247 111 L247 84 L146 84 L146 13 Q148 -26 109 -25 Q104 -25 87 -26 Q70 -26 64 -26 Q63 -22 62 -15 Q62 -10 59 1 Q77 1 97 1 Q118 0 116 21 L116 84 L8 84 L8 111 L116 111 L116 169 L28 169 Z" /><glyph glyph-name="uni4E94" unicode="&#x4e94;" d="M16 171 L16 197 L239 197 L239 171 L119 171 L109 115 L211 115 L211 7 L249 7 L249 -17 L7 -17 L7 7 L60 7 L74 89 L22 89 L22 115 L79 115 L89 171 L16 171 ZM183 89 L104 89 L89 7 L183 7 L183 89 Z" /><glyph glyph-name="uni4EA4" unicode="&#x4ea4;" d="M232 -28 Q163 -12 128 12 Q92 -12 21 -29 L9 -2 Q75 10 106 30 Q84 52 65 86 L89 98 Q109 65 128 48 Q149 67 163 100 L189 88 Q171 52 150 31 Q181 9 247 0 Q243 -6 238 -17 Q234 -24 232 -28 ZM11 152 L11 178 L117 178 Q111 194 105 206 L136 210 Q139 205 145 191 Q148 183 150 179 L146 178 L245 178 L245 152 L11 152 ZM27 72 Q17 87 10 96 Q52 118 87 148 L106 127 Q65 95 27 72 ZM227 76 Q189 103 150 127 L167 148 Q189 135 229 110 Q240 103 245 100 L227 76 Z" /><glyph glyph-name="uni4EB2" unicode="&#x4eb2;" d="M8 100 L8 123 L78 123 Q67 140 58 153 L84 161 Q89 153 99 138 Q105 128 108 124 L104 123 L149 123 Q155 132 165 148 Q171 157 174 161 L200 153 Q199 152 197 148 Q186 132 179 123 L248 123 L248 100 L144 100 L144 72 L236 72 L236 49 L144 49 L144 12 Q147 -26 108 -25 Q95 -26 77 -26 Q76 -14 71 0 Q81 -1 99 -1 Q118 -2 117 15 L117 49 L19 49 L19 72 L117 72 L117 100 L8 100 ZM19 162 L19 184 L117 184 L109 208 L140 211 L148 184 L236 184 L236 162 L19 162 ZM25 -17 Q20 -8 10 3 Q42 23 71 45 L89 27 Q56 2 25 -17 ZM227 -16 Q214 -7 183 12 Q169 20 163 24 L179 43 Q210 25 243 3 L227 -16 Z" /><glyph glyph-name="uni4EBA" unicode="&#x4eba;" d="M228 -24 Q143 21 128 106 Q113 22 26 -27 Q18 -14 7 -2 Q103 47 110 148 Q112 172 112 208 L142 208 Q141 205 141 190 Q140 178 140 172 Q149 42 248 1 Q235 -13 228 -24 Z" /><glyph glyph-name="uni4EC5" unicode="&#x4ec5;" d="M233 -26 Q189 -3 162 23 Q140 0 87 -29 Q85 -26 78 -17 Q72 -8 69 -4 Q117 17 143 44 Q110 86 94 163 L114 167 L88 167 L88 193 L234 193 L234 169 Q216 85 180 44 Q203 20 250 -1 Q242 -12 233 -26 ZM12 66 Q11 73 8 87 Q6 97 5 102 Q37 145 58 210 L84 203 Q74 175 62 148 L62 -28 L36 -28 L36 101 Q24 83 12 66 ZM206 167 L119 167 Q135 99 162 64 Q191 100 206 167 Z" /><glyph glyph-name="uni4EE3" unicode="&#x4ee3;" d="M82 99 L79 126 L131 132 Q131 141 129 162 Q128 193 127 210 L155 210 Q155 171 158 135 L243 145 L246 119 L160 108 Q165 52 179 23 Q191 0 205 0 Q217 0 219 16 Q219 18 220 21 Q224 41 225 49 Q228 48 233 46 Q244 42 249 40 Q248 27 242 4 Q234 -28 207 -27 Q174 -27 156 9 Q139 40 133 105 L82 99 ZM39 -28 L39 102 Q27 83 12 65 Q8 82 5 98 Q41 150 60 209 L88 201 Q78 174 66 149 L66 -28 L39 -28 ZM212 150 Q211 151 208 154 Q186 174 172 185 L190 202 Q217 181 231 168 L212 150 Z" /><glyph glyph-name="uni4EE5" unicode="&#x4ee5;" d="M228 -23 Q225 -19 219 -11 Q206 5 185 30 Q164 0 109 -30 Q100 -17 90 -6 Q190 35 186 135 Q187 154 187 204 L216 204 Q216 181 214 142 Q214 137 214 134 Q211 83 199 56 Q214 41 242 8 Q248 1 251 -1 L228 -23 ZM32 -17 L13 5 Q24 16 23 33 L23 201 L52 201 L52 33 Q83 53 113 76 Q115 56 119 45 Q97 30 50 -1 Q41 -8 32 -17 ZM119 132 Q103 165 83 196 L106 209 Q127 176 145 146 L119 132 Z" /><glyph glyph-name="uni4EEC" unicode="&#x4eec;" d="M161 -27 Q161 -25 160 -21 Q157 -5 155 0 Q172 0 189 0 Q212 -1 210 20 L210 166 L156 166 L156 192 L238 192 L238 13 Q239 -25 203 -26 Q174 -26 161 -27 ZM12 63 L6 101 Q36 151 52 209 L79 202 Q74 185 62 156 Q61 152 60 151 L60 -29 L34 -29 L34 98 Q29 91 20 76 Q15 67 12 63 ZM92 -26 L92 149 L120 149 L120 -26 L92 -26 ZM121 156 Q108 176 93 195 L115 209 Q125 196 145 172 L121 156 Z" /><glyph glyph-name="uni4F0A" unicode="&#x4f0a;" d="M72 112 L72 135 L125 135 Q125 158 125 173 L89 173 L89 196 L229 196 L229 135 L249 135 L249 112 L229 112 L229 34 L202 34 L202 51 L147 51 Q142 6 91 -29 Q88 -26 81 -20 Q74 -13 70 -10 Q113 17 119 51 L79 51 L79 74 L123 74 Q124 86 124 103 Q124 105 125 108 Q125 111 125 112 L72 112 ZM12 66 Q11 69 10 76 Q7 93 5 100 Q38 152 54 210 L81 203 Q71 174 59 147 L59 -28 L34 -28 L34 99 Q24 83 12 66 ZM151 101 Q151 96 150 86 Q150 78 150 74 L202 74 L202 112 L151 112 Q151 106 151 101 ZM202 173 L152 173 L152 135 L202 135 L202 173 Z" /><glyph glyph-name="uni4F18" unicode="&#x4f18;" d="M77 121 L77 147 L125 147 Q126 178 126 209 L153 209 Q153 197 152 175 Q152 156 152 147 L243 147 L243 121 L150 121 Q148 30 87 -29 Q77 -19 66 -8 Q122 43 123 121 L77 121 ZM12 66 Q9 86 6 102 Q40 151 59 210 L86 201 Q76 172 62 145 L62 -28 L36 -28 L36 99 Q24 83 12 66 ZM189 -21 Q157 -22 158 9 L158 118 L185 118 L185 15 Q184 2 196 3 L206 3 Q218 3 220 17 Q220 19 221 24 Q223 44 224 56 Q227 55 234 52 Q245 49 249 47 Q246 22 243 5 Q237 -21 209 -21 L189 -21 ZM209 154 Q189 171 171 185 L188 203 Q209 188 227 173 L209 154 Z" /><glyph glyph-name="uni4F1A" unicode="&#x4f1a;" d="M233 102 Q222 108 202 119 Q196 123 193 125 L193 102 L62 102 L62 123 Q43 111 21 99 Q18 106 8 120 Q7 122 6 123 Q82 160 119 212 L151 209 L145 201 Q181 154 249 127 Q241 115 233 102 ZM14 49 L14 74 L241 74 L241 49 L119 49 Q96 25 75 3 Q82 3 96 4 Q146 5 174 7 L152 30 L171 45 Q181 35 202 14 Q221 -3 230 -12 L209 -30 Q202 -21 194 -14 Q148 -14 76 -19 Q58 -20 45 -23 L32 1 Q45 7 54 16 Q66 27 85 49 L14 49 ZM130 181 Q101 149 67 127 L190 127 Q153 150 130 181 Z" /><glyph glyph-name="uni4F1F" unicode="&#x4f1f;" d="M178 -1 Q177 1 176 10 Q174 18 173 22 Q180 21 196 21 Q213 20 212 34 Q213 42 213 60 L164 60 L164 -28 L136 -28 L136 60 L73 60 L73 84 L136 84 L136 109 L86 109 L86 133 L136 133 L136 157 L80 157 L80 182 L136 182 L136 210 L164 210 L164 182 L239 182 L239 157 L164 157 L164 133 L229 133 L229 109 L164 109 L164 84 L240 84 Q240 61 238 31 Q239 -1 201 -1 Q190 -1 178 -1 ZM13 62 Q12 65 11 70 Q7 88 5 98 Q35 147 54 210 L80 203 Q71 176 62 152 L62 -28 L36 -28 L36 99 Q25 81 13 62 Z" /><glyph glyph-name="uni4F20" unicode="&#x4f20;" d="M88 154 L88 177 L133 177 Q135 183 137 194 Q140 205 141 210 L169 208 Q166 194 161 177 L241 177 L241 154 L154 154 Q152 147 148 133 Q147 128 146 126 L249 126 L249 103 L140 103 L132 77 L235 77 L235 52 L186 6 L219 -7 L204 -30 Q172 -13 117 11 Q100 19 91 23 L104 44 L162 18 L201 55 L104 55 L104 77 L112 103 L77 103 L77 126 L119 126 L127 154 L88 154 ZM13 63 Q12 69 9 83 Q7 92 6 96 Q39 147 55 210 L81 203 Q74 176 63 151 L63 -28 L37 -28 L37 99 Q27 80 13 63 Z" /><glyph glyph-name="uni4F46" unicode="&#x4f46;" d="M94 39 L94 197 L233 197 L233 39 L94 39 ZM13 63 Q12 71 9 85 Q7 95 6 100 Q38 153 54 209 L81 202 Q80 199 78 194 Q67 162 60 146 L60 -28 L33 -28 L33 95 Q24 78 13 63 ZM76 -16 L76 8 L249 8 L249 -16 L76 -16 ZM121 105 L121 63 L206 63 L206 105 L121 105 ZM121 173 L121 130 L206 130 L206 173 L121 173 Z" /><glyph glyph-name="uni4F4D" unicode="&#x4f4d;" d="M14 64 Q13 68 11 76 Q9 83 6 99 Q36 144 56 211 L83 202 Q74 176 63 152 L63 -29 L37 -29 L37 100 Q26 82 14 64 ZM77 -18 L77 5 L162 5 Q185 70 202 129 L230 121 Q219 87 195 21 Q191 10 189 5 L249 5 L249 -18 L77 -18 ZM82 142 L82 167 L153 167 L140 207 L170 210 L183 167 L244 167 L244 142 L82 142 ZM124 22 Q112 69 94 121 L120 129 Q125 113 136 79 Q146 45 151 29 L124 22 Z" /><glyph glyph-name="uni4F4E" unicode="&#x4f4e;" d="M96 -20 L80 0 Q91 8 90 26 L90 191 Q166 194 235 201 L242 177 Q233 176 216 175 Q196 173 186 172 Q186 144 188 116 L247 116 L247 93 L189 93 Q194 39 208 13 Q214 4 219 4 Q225 5 225 12 Q227 21 229 45 Q241 40 251 37 Q251 34 250 29 Q248 4 245 -2 Q240 -24 219 -24 Q198 -24 185 2 Q166 34 163 93 L116 93 L116 18 Q142 32 156 39 Q157 35 158 27 Q159 18 159 14 L151 10 Q164 -4 174 -18 L152 -29 Q147 -23 138 -9 Q133 -2 131 0 Q121 -3 113 -9 Q104 -14 96 -20 ZM36 -28 L36 101 Q30 90 15 70 Q13 67 12 66 Q10 73 8 86 Q6 95 5 99 Q39 146 58 210 L83 203 Q74 174 61 147 L61 -28 L36 -28 ZM162 116 Q161 125 161 143 Q160 161 160 170 Q153 170 138 169 Q124 168 116 167 L116 116 L162 116 Z" /><glyph glyph-name="uni4F50" unicode="&#x4f50;" d="M80 145 L80 169 L131 169 Q136 188 140 210 L168 207 Q165 197 160 176 Q159 171 158 169 L247 169 L247 145 L150 145 Q145 126 131 97 L237 97 L237 73 L186 73 L186 6 L249 6 L249 -16 L83 -16 L83 6 L159 6 L159 73 L118 73 Q103 48 82 22 Q80 24 73 31 Q66 39 63 42 Q106 93 123 145 L80 145 ZM13 66 Q12 71 10 81 Q7 92 6 99 Q39 148 58 210 L84 202 Q79 185 67 156 Q64 150 63 147 L63 -28 L36 -28 L36 99 Q26 83 13 66 Z" /><glyph glyph-name="uni4F51" unicode="&#x4f51;" d="M82 145 L82 170 L137 170 Q145 189 149 210 L177 207 Q171 188 165 170 L248 170 L248 145 L156 145 Q146 122 134 101 L233 101 L233 -28 L207 -28 L207 -11 L132 -11 L132 -28 L106 -28 L106 59 Q102 54 92 43 Q84 33 80 28 L66 53 Q106 96 128 145 L82 145 ZM12 66 Q11 72 9 84 Q6 96 5 102 Q38 149 58 210 L85 203 Q73 172 60 144 L60 -29 L34 -29 L34 98 Q24 82 12 66 ZM132 77 L132 12 L207 12 L207 77 L132 77 Z" /><glyph glyph-name="uni4F53" unicode="&#x4f53;" d="M79 139 L79 163 L142 163 L142 210 L168 210 L168 163 L239 163 L239 139 L179 139 Q203 79 249 41 Q248 37 243 28 Q238 19 236 14 Q188 60 168 116 L168 38 L205 38 L205 15 L168 15 L168 -28 L142 -28 L142 15 L105 15 L105 38 L142 38 L142 115 Q121 57 76 10 Q73 17 65 32 Q62 36 61 38 Q108 77 131 139 L79 139 ZM35 -28 L35 97 Q24 81 12 64 Q11 73 7 89 Q6 96 5 99 Q36 145 55 210 L82 203 Q72 172 60 146 L60 -28 L35 -28 Z" /><glyph glyph-name="uni4F55" unicode="&#x4f55;" d="M86 168 L86 193 L249 193 L249 168 L230 168 L230 14 Q232 -24 193 -24 Q182 -25 152 -25 Q151 -17 148 -3 Q147 0 147 0 Q154 0 166 0 Q177 0 182 0 Q205 -2 203 18 L203 168 L86 168 ZM91 31 L91 139 L175 139 L175 31 L91 31 ZM12 67 Q9 85 5 102 Q37 150 56 210 L82 203 Q73 177 63 154 L63 -28 L37 -28 L37 104 Q26 85 12 67 ZM114 117 L114 54 L151 54 L151 117 L114 117 Z" /><glyph glyph-name="uni4F59" unicode="&#x4f59;" d="M234 109 Q213 117 197 126 L197 110 L145 110 L145 81 L240 81 L240 56 L145 56 L145 8 Q148 -27 110 -27 Q105 -27 95 -28 Q85 -28 79 -28 Q78 -25 77 -18 Q75 -7 73 -1 Q82 -2 100 -2 Q118 -3 117 13 L117 56 L16 56 L16 81 L117 81 L117 110 L59 110 L59 126 Q42 116 21 106 Q14 120 6 131 Q88 164 119 212 L151 209 L145 201 Q183 154 249 135 Q247 131 242 122 Q237 114 234 109 ZM129 182 Q106 155 72 134 L185 134 Q153 154 129 182 ZM27 -20 Q20 -10 10 0 Q42 21 69 49 L88 31 Q71 14 38 -11 Q31 -17 27 -20 ZM227 -18 Q204 1 165 29 L182 47 Q215 25 244 2 L227 -18 Z" /><glyph glyph-name="uni4F5C" unicode="&#x4f5c;" d="M93 92 Q84 101 74 112 Q105 151 123 211 L151 206 Q148 199 143 185 Q140 177 138 173 L249 173 L249 148 L166 148 L166 111 L235 111 L235 86 L166 86 L166 48 L242 48 L242 24 L166 24 L166 -28 L140 -28 L140 148 L127 148 Q112 117 93 92 ZM14 63 Q12 72 8 89 Q7 93 6 95 Q39 146 58 211 L84 204 Q76 178 65 152 L65 -28 L39 -28 L39 101 Q27 81 14 63 Z" /><glyph glyph-name="uni4F60" unicode="&#x4f60;" d="M14 62 Q10 74 7 93 Q6 95 6 96 Q41 149 59 211 L87 204 Q76 174 64 146 L64 -28 L37 -28 L37 97 Q26 78 14 62 ZM230 109 Q228 109 224 111 Q210 114 204 115 L218 151 L126 151 Q115 128 98 103 Q89 112 77 121 Q107 161 121 209 L149 205 Q143 189 137 176 L245 176 L245 152 L230 109 ZM115 -26 Q113 -12 110 0 Q122 0 136 0 Q152 -1 151 14 L151 133 L178 133 L178 8 Q179 -25 146 -25 Q142 -25 131 -26 Q120 -26 115 -26 ZM224 9 Q223 13 220 20 Q202 68 191 93 L216 101 Q230 66 250 18 L224 9 ZM102 8 Q92 13 77 19 Q93 50 112 102 L136 94 Q124 59 102 8 Z" /><glyph glyph-name="uni4F69" unicode="&#x4f69;" d="M72 -28 L54 -8 Q75 24 74 98 L74 199 L223 199 L223 28 Q223 0 231 -1 Q234 -2 236 6 Q236 19 238 41 Q247 38 251 36 Q251 32 250 22 Q249 6 248 1 Q245 -26 228 -26 Q202 -27 202 27 L202 177 L95 177 L95 97 Q95 47 90 23 Q86 -2 72 -28 ZM105 136 L105 156 L191 156 L191 136 L159 136 L159 113 L189 113 L189 24 Q190 4 173 2 Q166 2 158 2 Q157 4 157 7 Q156 11 156 13 L156 -26 L139 -26 L139 93 L122 93 L122 0 L107 0 L107 113 L137 113 L137 136 L105 136 ZM13 65 Q11 76 6 101 Q31 149 41 209 L65 205 Q60 178 51 151 L51 -28 L29 -28 L29 96 Q26 89 19 77 Q15 69 13 65 ZM174 93 L156 93 L156 24 Q162 24 167 24 Q174 24 174 31 L174 93 Z" /><glyph glyph-name="uni4F9B" unicode="&#x4f9b;" d="M81 136 L81 160 L111 160 L111 209 L137 209 L137 160 L184 160 L184 209 L210 209 L210 160 L240 160 L240 136 L210 136 L210 73 L248 73 L248 49 L73 49 L73 73 L111 73 L111 136 L81 136 ZM12 67 Q11 73 9 85 Q7 98 6 103 Q38 150 55 210 L82 203 Q73 175 61 150 L61 -29 L35 -29 L35 100 Q24 84 12 67 ZM137 136 L137 73 L184 73 L184 136 L137 136 ZM92 -29 Q85 -21 71 -10 Q94 6 126 42 L148 27 Q121 -1 92 -29 ZM227 -28 Q201 -1 172 26 L192 42 Q202 33 220 16 Q238 0 248 -9 L227 -28 Z" /><glyph glyph-name="uni4FCA" unicode="&#x4fca;" d="M81 -30 Q79 -24 73 -14 Q69 -8 68 -6 Q116 4 138 14 Q124 26 112 41 Q106 35 93 23 Q102 31 90 21 Q81 30 72 38 Q111 66 132 101 L156 98 L145 81 L221 81 L221 58 Q205 32 183 14 Q214 2 249 -1 Q248 -4 243 -14 Q239 -23 237 -26 Q185 -13 161 0 Q135 -15 81 -30 ZM36 -28 L36 100 Q26 84 12 66 Q11 75 8 93 Q7 99 6 102 Q40 147 61 210 L87 203 Q75 172 62 145 L62 -28 L36 -28 ZM227 126 L214 139 Q160 137 115 134 Q101 134 92 131 L82 155 Q90 158 99 166 Q122 184 144 211 L171 202 Q164 196 149 182 Q128 162 121 157 Q155 159 195 159 L176 179 L193 191 Q231 155 246 140 L227 126 ZM82 78 Q81 81 76 87 Q72 94 69 98 Q92 108 130 132 L144 115 Q108 93 82 78 ZM238 81 Q219 91 174 114 L187 132 Q220 116 249 101 L238 81 ZM129 60 L128 58 Q141 39 160 26 Q181 41 193 60 L129 60 Z" /><glyph glyph-name="uni4FCF" unicode="&#x4fcf;" d="M90 -28 L90 143 L150 143 L150 210 L177 210 L177 143 L238 143 L238 8 Q239 -24 206 -24 Q195 -25 171 -25 Q168 -10 166 -1 Q179 -1 195 -1 Q213 -3 212 14 L212 24 L116 24 L116 -28 L90 -28 ZM33 -29 L33 99 Q28 89 15 69 Q13 66 12 64 Q9 82 5 99 Q34 147 51 209 L78 202 Q69 175 59 150 L59 -29 L33 -29 ZM116 72 L116 46 L212 46 L212 72 L116 72 ZM116 119 L116 94 L212 94 L212 119 L116 119 ZM211 151 L193 167 Q212 185 227 202 L246 187 Q235 175 211 151 ZM115 152 Q113 154 110 158 Q99 172 84 188 L102 202 Q120 185 135 167 L115 152 Z" /><glyph glyph-name="uni4FDE" unicode="&#x4fde;" d="M29 -27 L29 116 L130 116 L130 2 Q131 -23 103 -25 Q90 -26 78 -26 Q76 -13 73 -3 Q84 -4 93 -4 Q106 -4 106 8 L106 19 L53 19 L53 -27 L29 -27 ZM239 124 Q206 134 184 146 L184 133 L72 133 L72 145 Q48 133 18 121 Q14 132 6 145 Q84 172 119 212 L151 209 L145 203 Q182 167 250 149 Q244 138 239 124 ZM165 -26 Q163 -14 160 -1 Q174 -1 188 -1 Q205 -2 204 13 L204 119 L229 119 L229 6 Q230 -25 197 -25 Q192 -25 182 -25 Q171 -26 165 -26 ZM154 18 L154 108 L178 108 L178 18 L154 18 ZM129 186 Q110 168 85 153 L171 153 Q147 168 129 186 ZM53 58 L53 38 L106 38 L106 58 L53 58 ZM53 96 L53 77 L106 77 L106 96 L53 96 Z" /><glyph glyph-name="uni501F" unicode="&#x501f;" d="M90 -29 L90 89 L231 89 L231 -29 L205 -29 L205 -15 L116 -15 L116 -29 L90 -29 ZM82 158 L82 180 L112 180 L112 209 L138 209 L138 180 L183 180 L183 209 L209 209 L209 180 L241 180 L241 158 L209 158 L209 130 L248 130 L248 108 L74 108 L74 130 L112 130 L112 158 L82 158 ZM34 -29 L34 97 Q24 80 13 65 Q13 67 12 70 Q8 83 6 98 Q36 147 52 210 L79 204 Q71 175 59 148 L59 -29 L34 -29 ZM116 26 L116 4 L205 4 L205 26 L116 26 ZM116 67 L116 45 L205 45 L205 67 L116 67 ZM138 158 L138 130 L183 130 L183 158 L138 158 Z" /><glyph glyph-name="uni5029" unicode="&#x5029;" d="M88 -28 L88 95 L232 95 L232 5 Q234 -26 201 -26 Q185 -26 164 -26 Q163 -22 160 -12 Q159 -7 158 -5 Q169 -6 191 -6 Q208 -7 207 7 L207 12 L114 12 L114 -28 L88 -28 ZM80 174 L80 192 L147 192 L147 211 L173 211 L173 192 L245 192 L245 174 L173 174 L173 159 L238 159 L238 143 L173 143 L173 127 L249 127 L249 109 L73 109 L73 127 L147 127 L147 143 L85 143 L85 159 L147 159 L147 174 L80 174 ZM33 -28 L33 97 Q23 79 12 63 Q11 74 8 90 Q7 95 6 98 Q35 148 50 209 L75 203 Q68 176 57 150 L57 -28 L33 -28 ZM114 77 L114 61 L207 61 L207 77 L114 77 ZM114 45 L114 29 L207 29 L207 45 L114 45 Z" /><glyph glyph-name="uni5065" unicode="&#x5065;" d="M124 133 L124 152 L167 152 L167 170 L134 170 L134 188 L167 188 L167 210 L190 210 L190 188 L234 188 L234 152 L248 152 L248 133 L234 133 L234 97 L190 97 L190 81 L237 81 L237 62 L190 62 L190 45 L241 45 L241 26 L190 26 L190 1 L167 1 L167 26 L125 26 L125 45 L167 45 L167 62 L130 62 L130 81 L167 81 L167 97 L133 97 L133 116 L167 116 L167 133 L124 133 ZM29 -28 L29 98 Q27 93 21 83 Q16 73 13 68 Q10 84 5 100 Q30 145 45 210 L69 206 Q61 177 52 151 L52 -28 L29 -28 ZM190 116 L213 116 L213 133 L190 133 L190 116 ZM213 170 L190 170 L190 152 L213 152 L213 170 ZM107 23 Q124 3 167 1 Q183 0 201 0 Q218 0 249 0 Q246 -8 242 -22 Q209 -22 172 -20 Q119 -18 97 2 Q85 -12 69 -29 Q68 -27 65 -23 Q59 -14 56 -8 Q73 6 81 21 Q70 36 60 71 L78 82 Q83 61 91 44 Q97 59 100 94 L65 94 L65 117 L99 167 L69 167 L69 189 L123 189 L123 166 L90 116 L122 116 L122 106 Q119 52 107 23 Z" /><glyph glyph-name="uni50CF" unicode="&#x50cf;" d="M83 138 Q75 147 67 155 Q107 182 123 211 L150 208 Q144 201 140 193 L208 193 L208 175 L190 155 L237 155 L237 100 L222 100 L236 83 Q223 74 209 67 Q218 28 249 4 Q244 0 236 -13 Q235 -14 234 -15 Q200 14 191 57 L181 51 Q186 33 186 11 Q186 -25 151 -26 Q138 -26 123 -26 Q121 -14 119 -5 Q131 -6 142 -6 Q164 -7 163 13 Q163 16 163 21 Q162 26 162 28 Q131 0 76 -22 Q71 -13 65 -3 Q122 15 158 48 Q156 54 153 60 Q121 31 76 16 Q74 21 68 30 Q70 28 66 34 Q115 49 145 73 Q142 78 139 81 Q115 66 76 52 Q75 53 73 57 Q68 66 65 70 Q114 83 132 100 L84 100 L84 139 L83 138 ZM12 66 Q10 84 5 101 Q34 147 51 210 L77 205 Q69 176 57 149 L57 -28 L33 -28 L33 99 Q24 83 12 66 ZM179 174 L124 174 Q121 170 112 162 Q107 157 105 155 L162 155 L179 174 ZM160 100 L156 95 Q167 83 174 70 Q199 84 221 100 L160 100 ZM212 118 L212 137 L175 137 Q173 127 170 118 L212 118 ZM109 137 L109 118 L145 118 Q150 127 151 137 L109 137 Z" /><glyph glyph-name="uni5143" unicode="&#x5143;" d="M10 99 L10 125 L246 125 L246 99 L171 99 L171 19 Q170 1 187 2 L198 2 Q215 1 218 19 Q221 43 222 55 Q227 52 240 48 Q246 46 249 45 Q248 41 247 33 Q245 16 243 8 Q239 -22 201 -21 L178 -21 Q143 -21 143 12 L143 99 L102 99 Q102 96 101 91 Q101 87 101 85 Q104 7 26 -29 Q20 -19 8 -5 Q76 24 73 87 Q73 92 73 99 L10 99 ZM32 170 L32 197 L224 197 L224 170 L32 170 Z" /><glyph glyph-name="uni5149" unicode="&#x5149;" d="M9 86 L9 111 L114 111 L114 210 L142 210 L142 111 L248 111 L248 86 L171 86 L171 16 Q171 0 187 0 L204 0 Q219 0 220 15 Q223 27 224 50 Q238 43 250 40 Q250 39 250 36 Q247 14 244 2 Q239 -24 207 -23 L179 -23 Q144 -23 144 10 L144 86 L101 86 L101 76 Q101 2 24 -29 Q20 -24 12 -13 Q8 -8 6 -5 Q73 17 73 77 Q73 78 73 81 Q74 84 74 86 L9 86 ZM184 125 L165 143 Q190 168 211 195 L232 179 Q218 160 184 125 ZM68 126 Q39 161 23 178 L43 194 Q65 171 89 144 L68 126 Z" /><glyph glyph-name="uni514B" unicode="&#x514b;" d="M11 162 L11 186 L113 186 L113 212 L141 212 L141 186 L244 186 L244 162 L141 162 L141 137 L220 137 L220 54 L168 54 L168 13 Q167 -1 183 0 L203 0 Q218 -1 220 12 Q222 21 223 38 L249 29 Q245 7 243 0 Q237 -24 209 -24 L171 -24 Q140 -24 140 7 L140 54 L107 54 Q109 -10 23 -29 Q21 -26 16 -18 Q11 -9 7 -4 Q81 7 79 54 L34 54 L34 137 L113 137 L113 162 L11 162 ZM61 114 L61 76 L193 76 L193 114 L61 114 Z" /><glyph glyph-name="uni5165" unicode="&#x5165;" d="M226 -24 Q164 22 129 113 L128 114 Q102 31 25 -25 Q23 -23 20 -18 Q16 -13 6 0 Q87 53 110 148 Q93 177 71 194 L94 209 Q126 183 156 118 Q190 38 249 1 Q238 -10 226 -24 Z" /><glyph glyph-name="uni5168" unicode="&#x5168;" d="M234 102 Q215 112 200 121 L200 98 L142 98 L142 66 L217 66 L217 41 L142 41 L142 6 L240 6 L240 -18 L16 -18 L16 6 L113 6 L113 41 L38 41 L38 66 L113 66 L113 98 L56 98 L56 120 Q40 109 20 100 Q14 110 5 123 Q83 162 117 212 L148 209 L144 202 Q184 154 249 127 Q248 126 247 123 Q238 108 234 102 ZM129 183 Q102 150 60 123 L197 123 Q156 148 129 183 Z" /><glyph glyph-name="uni516B" unicode="&#x516b;" d="M28 -25 Q16 -14 6 -2 Q64 49 72 137 Q75 161 76 198 L104 196 Q104 195 104 192 Q102 153 100 139 Q93 38 28 -25 ZM228 -24 Q157 36 151 142 Q147 180 147 201 L174 201 Q176 167 179 141 Q186 47 250 0 Q240 -9 228 -24 Z" /><glyph glyph-name="uni516C" unicode="&#x516c;" d="M212 -29 L196 -8 Q104 -12 67 -15 Q50 -15 38 -18 L26 6 Q38 14 48 24 Q85 69 113 119 L140 105 Q109 58 70 9 Q139 13 178 14 Q171 24 156 44 Q148 55 144 60 L165 74 Q191 41 236 -13 L212 -29 ZM233 84 Q171 125 144 196 L169 206 Q195 142 250 110 Q248 106 242 97 Q236 88 233 84 ZM24 80 Q15 93 5 104 Q58 142 86 202 L112 192 Q81 126 24 80 Z" /><glyph glyph-name="uni516D" unicode="&#x516d;" d="M10 118 L10 144 L246 144 L246 118 L10 118 ZM127 148 Q117 168 99 198 L126 209 Q128 205 134 196 Q149 172 156 160 L127 148 ZM36 -25 Q23 -14 12 -7 Q54 40 82 95 L109 82 Q69 12 36 -25 ZM216 -23 Q183 29 146 82 L170 95 Q210 40 242 -7 L216 -23 Z" /><glyph glyph-name="uni5170" unicode="&#x5170;" d="M17 133 L17 159 L82 159 Q74 170 52 198 L76 211 Q81 205 93 191 Q104 177 109 171 L89 159 L143 159 Q146 164 154 174 Q171 199 178 210 L205 199 Q200 193 190 179 Q179 166 174 159 L238 159 L238 133 L17 133 ZM9 -14 L9 11 L247 11 L247 -14 L9 -14 ZM35 60 L35 86 L221 86 L221 60 L35 60 Z" /><glyph glyph-name="uni5174" unicode="&#x5174;" d="M8 71 L8 97 L248 97 L248 71 L8 71 ZM223 -26 Q207 -11 171 20 Q155 34 147 41 L166 60 Q186 43 222 12 Q236 0 243 -5 L223 -26 ZM31 -28 Q21 -16 12 -7 Q51 20 87 59 L109 41 Q74 6 31 -28 ZM192 110 L168 123 Q189 153 212 195 L237 184 Q216 146 192 110 ZM123 120 Q113 158 101 199 L127 206 L151 126 L123 120 ZM60 110 Q43 144 22 180 L46 192 Q53 180 67 157 Q79 136 86 124 L60 110 Z" /><glyph glyph-name="uni5175" unicode="&#x5175;" d="M8 38 L8 63 L46 63 L46 194 Q126 195 214 205 L223 180 Q139 173 74 170 L74 137 L237 137 L237 112 L186 112 L186 63 L248 63 L248 38 L8 38 ZM74 112 L74 63 L159 63 L159 112 L74 112 ZM22 -30 Q21 -29 20 -26 Q12 -13 8 -6 Q57 12 89 31 L104 10 Q56 -16 22 -30 ZM231 -29 Q180 -2 151 9 L165 30 Q180 24 214 8 Q236 -1 245 -5 L231 -29 Z" /><glyph glyph-name="uni5176" unicode="&#x5176;" d="M12 160 L12 183 L46 183 L46 210 L73 210 L73 183 L182 183 L182 210 L209 210 L209 183 L244 183 L244 160 L209 160 L209 50 L249 50 L249 27 L7 27 L7 50 L46 50 L46 160 L12 160 ZM73 73 L73 50 L182 50 L182 73 L73 73 ZM73 116 L73 94 L182 94 L182 116 L73 116 ZM73 160 L73 137 L182 137 L182 160 L73 160 ZM19 -30 Q17 -23 10 -11 Q8 -8 8 -7 Q50 4 94 23 L108 2 Q62 -17 19 -30 ZM236 -29 Q231 -27 221 -23 Q172 -4 148 2 L159 23 Q195 11 247 -6 L236 -29 Z" /><glyph glyph-name="uni5185" unicode="&#x5185;" d="M73 27 Q68 34 54 49 Q118 81 115 142 L52 142 L52 -26 L25 -26 L25 168 L115 168 Q115 186 115 209 L144 209 Q144 186 143 168 L231 168 L231 14 Q232 -23 195 -24 Q172 -24 152 -24 Q150 -7 146 2 Q165 1 183 1 Q204 0 203 21 L203 142 L142 142 Q142 121 137 105 Q141 102 148 96 Q185 67 201 52 L180 31 Q161 50 127 80 Q115 56 73 27 Z" /><glyph glyph-name="uni5199" unicode="&#x5199;" d="M130 -26 Q128 -13 125 0 Q141 0 171 0 Q199 -2 199 21 Q200 28 201 48 Q202 65 202 71 L39 71 L54 164 L82 164 L78 143 L216 143 L216 120 L75 120 L70 94 L231 94 Q230 77 228 44 Q227 25 227 17 Q227 -25 178 -25 L130 -26 ZM15 146 L15 198 L240 198 L240 146 L214 146 L214 174 L42 174 L42 146 L15 146 ZM7 23 L7 47 L183 47 L183 23 L7 23 Z" /><glyph glyph-name="uni519B" unicode="&#x519b;" d="M17 120 L17 143 L81 143 Q90 157 97 170 L127 168 Q120 155 112 143 L238 143 L238 120 L96 120 Q81 99 67 79 L124 79 L124 109 L151 109 L151 79 L229 79 L229 56 L151 56 L151 28 L248 28 L248 5 L151 5 L151 -29 L124 -29 L124 5 L8 5 L8 28 L124 28 L124 56 L36 56 L36 79 Q51 99 65 120 L17 120 ZM17 155 L17 199 L241 199 L241 155 L215 155 L215 176 L44 176 L44 155 L17 155 Z" /><glyph glyph-name="uni51AF" unicode="&#x51af;" d="M147 -26 Q147 -26 147 -24 Q146 -14 142 0 Q156 0 187 0 Q210 0 211 17 Q212 30 214 72 Q214 69 214 79 L82 79 L90 163 L118 163 L111 103 L184 103 L191 175 L73 175 L73 199 L221 199 L212 103 L242 103 Q241 80 239 38 Q238 22 238 15 Q237 -25 190 -25 Q170 -26 147 -26 ZM67 26 L67 50 L196 50 L196 26 L67 26 ZM33 -15 L7 -4 Q23 37 39 94 Q42 93 49 90 Q59 86 64 84 Q55 53 33 -15 ZM39 123 Q31 142 14 180 Q11 186 10 189 L33 199 Q50 164 64 134 L39 123 Z" /><glyph glyph-name="uni51E0" unicode="&#x51e0;" d="M28 -27 Q25 -23 18 -16 Q11 -8 7 -4 Q37 21 46 45 Q55 67 55 117 L55 198 L185 198 L185 23 Q184 5 199 6 L206 6 Q219 5 221 20 Q222 31 224 61 Q238 56 250 53 Q249 40 247 16 Q246 11 246 9 Q241 -20 208 -19 L190 -19 Q156 -20 157 17 L157 172 L83 172 L83 109 Q87 19 28 -27 Z" /><glyph glyph-name="uni51E1" unicode="&#x51e1;" d="M26 -28 Q18 -19 7 -4 Q32 18 40 42 Q48 65 48 115 L48 198 L189 198 L189 20 Q189 3 201 4 L207 4 Q220 3 222 18 Q223 27 223 24 Q225 46 226 56 Q238 52 251 49 Q248 25 245 6 Q241 -22 210 -21 L194 -21 Q161 -21 161 14 L161 173 L76 173 L76 106 Q80 16 26 -28 ZM126 55 Q107 84 83 111 L104 126 Q123 106 150 73 L126 55 Z" /><glyph glyph-name="uni51E4" unicode="&#x51e4;" d="M25 -28 Q23 -25 15 -18 Q8 -10 5 -7 Q19 15 23 37 Q27 58 27 112 L27 198 L214 198 L214 91 Q214 25 219 9 Q221 3 225 3 Q228 3 230 13 Q232 35 234 54 Q244 48 251 47 Q249 22 246 0 Q241 -27 221 -26 Q202 -26 195 0 Q188 22 188 89 L188 174 L54 174 L54 105 Q54 52 48 26 Q43 0 25 -28 ZM164 -3 Q156 4 140 22 Q132 31 128 35 Q105 9 68 -10 Q60 2 51 9 Q88 30 111 54 Q89 77 69 98 L87 113 L125 74 Q137 95 143 127 L67 127 L67 150 L169 150 L169 127 Q162 86 144 56 L184 15 L164 -3 Z" /><glyph glyph-name="uni51FA" unicode="&#x51fa;" d="M30 97 L30 187 L57 187 L57 123 L113 123 L113 209 L142 209 L142 123 L198 123 L198 187 L226 187 L226 97 L142 97 L142 7 L207 7 L207 72 L234 72 L234 -26 L207 -26 L207 -16 L21 -16 L21 72 L48 72 L48 7 L113 7 L113 97 L30 97 Z" /><glyph glyph-name="uni5206" unicode="&#x5206;" d="M28 -30 Q18 -16 11 -7 Q72 15 78 64 Q80 73 80 84 L42 84 L42 106 Q32 97 20 88 Q19 90 16 94 Q9 108 5 114 Q59 150 88 208 L113 197 Q84 141 46 109 L207 109 Q206 95 205 62 Q203 33 203 21 Q202 -24 155 -23 Q132 -23 116 -23 Q114 -8 111 2 Q117 2 129 2 Q144 1 151 1 Q175 0 176 26 Q178 58 178 84 L108 84 Q108 80 107 73 Q106 65 105 61 Q101 1 28 -30 ZM234 89 Q169 131 143 201 L167 211 Q194 145 250 116 Q246 108 234 89 Z" /><glyph glyph-name="uni5217" unicode="&#x5217;" d="M15 174 L15 200 L145 200 L145 174 L83 174 Q80 158 74 143 L135 143 L135 119 Q121 26 33 -29 Q30 -26 24 -18 Q17 -11 14 -7 Q56 16 78 48 Q57 66 40 80 Q31 68 19 56 Q13 68 5 78 Q45 124 55 174 L15 174 ZM163 -25 Q161 -12 158 1 Q175 0 192 0 Q211 0 210 17 L210 208 L236 208 L236 10 Q237 -25 203 -25 Q182 -25 163 -25 ZM156 32 L156 179 L181 179 L181 32 L156 32 ZM109 117 L63 117 Q62 115 60 111 Q57 106 50 95 L54 100 Q74 85 92 70 Q102 91 109 117 Z" /><glyph glyph-name="uni5218" unicode="&#x5218;" d="M8 147 L8 173 L67 173 Q61 190 55 206 L82 210 Q85 204 90 187 Q93 178 94 173 L141 173 L141 147 L123 147 Q114 94 96 60 L139 2 L116 -14 Q101 8 82 34 Q64 7 26 -27 Q16 -15 7 -6 Q43 24 65 58 L18 124 L39 138 L79 84 Q91 113 97 147 L8 147 ZM164 -25 Q163 -11 158 2 Q171 1 193 1 Q212 -1 210 19 L210 208 L237 208 L237 10 Q239 -26 205 -24 Q185 -25 164 -25 ZM154 33 L154 182 L179 182 L179 33 L154 33 Z" /><glyph glyph-name="uni5219" unicode="&#x5219;" d="M19 42 L19 199 L134 199 L134 42 L111 42 L111 174 L43 174 L43 42 L19 42 ZM166 -25 Q164 -13 161 0 Q178 0 194 0 Q212 -1 210 16 L210 208 L236 208 L236 8 Q238 -24 203 -24 L166 -25 ZM23 -29 Q20 -26 13 -17 Q8 -12 6 -9 Q42 11 53 30 Q64 49 64 92 Q65 117 65 158 L90 158 Q90 143 89 121 Q89 102 89 92 Q89 64 85 47 Q92 41 108 27 Q138 3 147 -4 L129 -24 Q121 -16 95 8 Q82 19 77 24 Q67 -2 23 -29 ZM160 35 L160 183 L185 183 L185 35 L160 35 Z" /><glyph glyph-name="uni521B" unicode="&#x521b;" d="M135 123 L133 124 Q133 98 131 70 Q130 39 100 38 L72 37 Q71 42 68 55 Q67 59 67 61 Q81 60 91 60 Q106 59 108 76 Q108 79 108 86 Q109 97 109 102 L54 102 L54 17 Q53 0 71 0 L103 0 Q120 0 123 13 Q123 15 124 19 Q125 22 127 37 Q129 36 134 35 Q140 32 152 29 Q151 21 147 7 Q146 2 145 0 Q139 -23 107 -22 L65 -22 Q28 -23 29 13 L29 116 Q28 115 25 113 Q23 111 16 106 Q11 119 5 130 Q51 162 74 211 L101 209 Q100 207 99 204 Q97 200 96 198 Q113 183 140 155 Q149 146 153 142 L135 123 ZM170 -25 Q168 -13 165 0 Q181 0 196 0 Q213 0 212 16 L212 210 L238 210 L238 9 Q240 -24 206 -25 Q188 -25 170 -25 ZM159 32 L159 183 L184 183 L184 32 L159 32 ZM84 178 Q66 149 39 125 L133 125 Q125 135 109 152 Q93 169 84 178 Z" /><glyph glyph-name="uni5229" unicode="&#x5229;" d="M9 110 L9 135 L61 135 L61 172 Q55 172 44 171 Q24 169 15 169 Q15 170 15 171 Q13 186 11 193 Q79 197 128 202 L133 178 Q127 178 113 176 Q96 175 87 174 L87 135 L137 135 L137 110 L87 110 L87 82 L95 90 Q130 62 141 51 L123 32 Q111 44 87 66 L87 -28 L61 -28 L61 68 Q44 34 14 4 Q13 13 6 38 Q40 67 58 110 L9 110 ZM164 -25 Q164 -23 163 -19 Q161 -5 158 1 Q168 0 195 0 Q211 0 210 17 L210 208 L236 208 L236 9 Q237 -22 205 -24 Q201 -24 186 -24 Q170 -25 164 -25 ZM150 31 L150 181 L175 181 L175 31 L150 31 Z" /><glyph glyph-name="uni522B" unicode="&#x522b;" d="M20 113 L20 199 L134 199 L134 113 L20 113 ZM66 -24 Q65 -19 64 -8 Q62 -2 62 0 Q77 0 88 0 Q109 -1 109 19 Q110 34 110 62 L72 62 Q70 8 25 -29 Q22 -26 14 -20 Q8 -13 4 -10 Q45 19 47 62 L11 62 L11 86 L48 86 L49 106 L74 106 L74 86 L137 86 Q136 74 135 44 Q134 22 134 12 Q135 -23 97 -23 L66 -24 ZM162 -25 Q160 -12 157 1 Q173 0 191 0 Q212 0 210 17 L210 209 L237 209 L237 9 Q239 -24 202 -24 Q184 -25 162 -25 ZM159 32 L159 182 L184 182 L184 32 L159 32 ZM46 175 L46 136 L109 136 L109 175 L46 175 Z" /><glyph glyph-name="uni5230" unicode="&#x5230;" d="M10 174 L10 198 L145 198 L145 174 L80 174 Q79 172 76 168 Q58 140 47 126 Q58 127 82 128 Q97 129 105 129 Q99 140 90 152 L110 163 Q112 159 117 152 Q139 120 148 105 L127 92 Q122 100 119 107 Q64 105 42 103 Q37 103 27 101 Q22 100 20 100 L11 123 Q18 127 22 131 Q37 150 51 174 L10 174 ZM13 47 L13 71 L64 71 L64 96 L90 96 L90 71 L140 71 L140 47 L90 47 L90 11 L146 17 Q145 9 145 -6 Q129 -8 97 -11 Q42 -17 11 -21 L7 4 Q23 5 58 8 Q34 6 64 9 L64 47 L13 47 ZM168 -25 Q166 -10 163 0 Q181 0 196 0 Q212 0 211 16 L211 209 L238 209 L238 9 Q240 -24 206 -25 Q188 -25 168 -25 ZM158 32 L158 183 L183 183 L183 32 L158 32 Z" /><glyph glyph-name="uni524D" unicode="&#x524d;" d="M23 -29 L23 135 L132 135 L132 4 Q133 -23 104 -25 Q92 -25 73 -25 Q73 -21 71 -13 Q70 -5 69 -1 Q76 -2 94 -2 Q108 -3 107 8 L107 26 L47 26 L47 -29 L23 -29 ZM8 156 L8 179 L74 179 L54 205 L81 211 Q91 201 107 179 L150 179 Q164 197 174 211 L203 205 Q200 201 192 191 Q185 183 182 179 L248 179 L248 156 L8 156 ZM166 -25 L162 0 Q166 0 174 0 Q184 -1 190 -1 Q209 -2 208 15 L208 141 L233 141 L233 9 Q235 -25 201 -25 Q184 -25 166 -25 ZM157 20 L157 130 L180 130 L180 20 L157 20 ZM47 70 L47 47 L107 47 L107 70 L47 70 ZM47 113 L47 90 L107 90 L107 113 L47 113 Z" /><glyph glyph-name="uni529B" unicode="&#x529b;" d="M28 -28 Q26 -26 23 -22 Q12 -9 8 -5 Q91 38 91 132 L16 132 L16 159 L93 159 Q93 167 94 185 Q94 202 95 210 L124 210 Q124 193 122 162 Q122 163 122 159 L234 159 Q231 82 228 28 Q227 -22 178 -21 Q156 -22 127 -22 Q126 -13 122 2 Q121 5 121 6 Q137 5 168 5 Q200 3 199 40 Q201 61 202 115 Q203 127 203 132 L120 132 Q120 22 28 -28 Z" /><glyph glyph-name="uni529E" unicode="&#x529e;" d="M229 44 Q215 73 201 99 Q201 86 200 62 Q200 37 199 26 Q198 -23 151 -22 Q139 -22 119 -23 Q110 -23 108 -23 Q106 -10 102 4 Q116 3 143 3 Q172 0 172 33 Q172 46 174 77 Q175 121 176 142 L115 141 Q117 16 27 -28 Q24 -24 16 -15 Q10 -9 8 -6 Q55 22 69 50 Q85 76 87 140 L87 142 L17 142 L17 168 L89 168 Q89 176 90 191 Q90 204 90 210 L119 210 Q118 204 118 189 Q117 175 117 168 L204 168 L202 111 L218 119 Q236 87 253 56 L229 44 ZM28 41 Q24 44 14 49 Q8 53 5 55 Q25 86 39 121 L63 111 Q48 78 28 41 Z" /><glyph glyph-name="uni52A0" unicode="&#x52a0;" d="M145 -23 L145 184 L239 184 L239 -23 L213 -23 L213 0 L170 0 L170 -23 L145 -23 ZM22 -29 Q10 -15 3 -8 Q41 36 41 137 Q41 139 41 142 L11 142 L11 167 L42 167 Q42 188 42 210 L68 210 L68 167 L123 167 Q123 69 120 13 Q120 -22 88 -22 Q79 -23 58 -23 Q56 -9 53 3 Q66 3 76 3 Q95 2 95 21 Q97 79 97 142 L67 142 Q67 139 67 136 Q66 18 22 -29 ZM170 159 L170 24 L213 24 L213 159 L170 159 Z" /><glyph glyph-name="uni52A8" unicode="&#x52a8;" d="M7 102 L7 126 L123 126 L123 102 L72 102 Q56 59 40 25 Q43 25 49 26 Q77 27 92 29 Q83 51 74 72 L96 80 Q113 43 125 10 Q151 44 151 127 Q151 128 151 131 Q152 135 152 137 L124 137 L124 161 L152 161 Q153 183 153 210 L179 210 Q178 187 178 161 L241 161 Q241 155 241 142 Q239 44 238 13 Q237 -22 204 -23 Q189 -23 169 -23 Q168 -14 163 2 Q168 2 178 2 Q188 1 193 1 Q211 1 211 21 Q215 80 215 137 L177 137 Q177 131 177 126 Q178 22 127 -30 Q117 -23 104 -14 Q113 -5 120 3 L104 -2 Q104 -2 103 0 Q102 4 101 6 Q93 5 79 4 Q52 2 40 1 Q27 0 17 -2 L7 19 Q15 25 19 36 Q35 71 44 102 L7 102 ZM19 168 L19 193 L115 193 L115 168 L19 168 Z" /><glyph glyph-name="uni52B1" unicode="&#x52b1;" d="M148 -29 Q145 -25 140 -18 Q134 -12 131 -8 Q152 17 157 40 Q164 62 165 119 Q165 122 166 128 Q166 134 166 136 L147 136 L147 161 L166 161 Q167 184 167 210 L190 210 Q190 186 190 161 L240 161 Q240 121 237 14 Q237 -23 207 -23 Q203 -23 194 -23 Q184 -24 179 -24 Q177 -10 174 1 Q186 1 197 1 Q213 0 213 21 Q213 23 213 29 Q216 103 216 136 L189 136 Q189 129 189 121 Q188 58 180 31 Q173 2 148 -29 ZM53 126 L53 149 L140 149 L140 126 L92 126 L91 96 L136 96 Q136 87 135 64 Q134 23 133 13 Q133 -22 104 -21 Q92 -21 85 -21 Q85 -20 84 -16 Q83 -3 81 1 Q83 0 97 0 Q112 -1 112 17 Q113 26 113 45 Q114 65 114 74 L91 74 Q89 9 60 -28 Q52 -18 43 -10 Q69 20 69 89 L70 126 L53 126 ZM25 -28 Q21 -24 14 -16 Q8 -10 6 -8 Q17 16 20 40 Q23 63 23 112 L23 197 L144 197 L144 174 L46 174 L46 113 Q46 57 42 29 Q38 1 25 -28 Z" /><glyph glyph-name="uni5305" unicode="&#x5305;" d="M80 -21 Q35 -22 37 19 L37 120 Q34 117 29 111 Q21 102 16 98 Q12 113 6 126 Q44 163 65 211 L95 208 Q94 205 91 200 Q90 196 84 186 L222 186 Q222 127 219 71 Q219 27 180 29 Q166 28 145 28 Q144 31 142 37 Q140 48 138 54 L63 54 L63 22 Q61 0 87 1 L193 1 Q215 0 218 17 Q221 30 222 48 Q227 47 236 44 Q245 41 249 40 Q247 22 243 4 Q237 -22 199 -21 L80 -21 ZM69 161 Q61 148 49 134 L154 134 L154 54 L172 54 Q192 53 193 74 Q195 115 195 161 L69 161 ZM63 111 L63 77 L128 77 L128 111 L63 111 Z" /><glyph glyph-name="uni5316" unicode="&#x5316;" d="M90 38 Q86 47 74 63 Q105 78 129 94 L129 207 L158 207 L158 114 Q193 142 221 177 L243 158 Q206 115 158 80 L158 21 Q157 2 176 3 L195 3 Q215 2 217 19 Q218 28 222 60 Q226 59 236 55 Q245 52 249 50 Q246 23 242 5 Q238 -23 198 -22 L168 -22 Q127 -24 129 17 L129 61 Q113 51 90 38 ZM15 61 L5 95 Q44 144 68 209 L96 200 Q83 169 68 141 L68 -28 L42 -28 L42 98 Q38 92 29 80 Q20 67 15 61 Z" /><glyph glyph-name="uni5341" unicode="&#x5341;" d="M9 94 L9 123 L113 123 L113 210 L143 210 L143 123 L247 123 L247 94 L143 94 L143 -28 L113 -28 L113 94 L9 94 Z" /><glyph glyph-name="uni5347" unicode="&#x5347;" d="M18 159 Q18 160 18 163 Q16 178 14 185 Q91 189 143 197 L149 172 Q124 168 95 165 L95 106 L168 106 L168 209 L196 209 L196 106 L248 106 L248 81 L196 81 L196 -27 L168 -27 L168 81 L95 81 Q97 8 32 -30 Q23 -20 11 -9 Q67 21 66 81 L8 81 L8 106 L67 106 L67 163 Q42 160 18 159 Z" /><glyph glyph-name="uni534E" unicode="&#x534e;" d="M92 106 Q88 118 82 130 Q110 139 132 147 L132 207 L159 207 L159 159 Q190 173 222 196 L238 177 Q202 152 159 132 L159 120 Q158 102 177 103 L198 103 Q214 102 218 117 Q220 126 221 143 Q235 138 247 135 Q244 117 241 104 Q236 79 204 80 L167 80 Q131 78 132 114 L132 121 Q114 114 92 106 ZM9 26 L9 51 L114 51 L114 77 L141 77 L141 51 L247 51 L247 26 L141 26 L141 -29 L114 -29 L114 26 L9 26 ZM17 113 Q14 126 7 141 Q47 167 75 211 L101 201 Q88 182 74 165 L74 74 L47 74 L47 138 Q34 125 17 113 Z" /><glyph glyph-name="uni5360" unicode="&#x5360;" d="M33 -29 L33 101 L108 101 L108 209 L137 209 L137 171 L245 171 L245 146 L137 146 L137 101 L223 101 L223 -29 L195 -29 L195 -12 L60 -12 L60 -29 L33 -29 ZM60 75 L60 11 L195 11 L195 75 L60 75 Z" /><glyph glyph-name="uni536B" unicode="&#x536b;" d="M9 -16 L9 9 L87 9 L87 169 L21 169 L21 196 L230 196 Q230 186 229 163 Q228 118 227 104 Q228 55 179 56 Q164 55 141 55 Q138 69 135 85 Q148 84 171 84 Q199 81 199 111 Q199 116 199 134 Q200 158 200 169 L116 169 L116 9 L247 9 L247 -16 L9 -16 Z" /><glyph glyph-name="uni5373" unicode="&#x5373;" d="M115 -11 Q109 -1 100 12 Q95 10 86 6 Q59 -3 46 -10 Q35 -14 27 -20 L12 0 Q21 7 20 21 L20 198 L123 198 L123 71 L46 71 L46 14 L88 33 L74 55 L96 64 Q124 21 137 0 L115 -11 ZM146 -29 L146 193 L237 193 L237 41 Q239 7 205 6 Q193 6 182 6 Q181 11 179 21 Q178 27 177 31 Q188 31 196 31 Q213 30 212 46 L212 168 L171 168 L171 -29 L146 -29 ZM46 93 L98 93 L98 123 L46 123 L46 93 ZM46 175 L46 146 L98 146 L98 175 L46 175 Z" /><glyph glyph-name="uni539A" unicode="&#x539a;" d="M75 86 L75 163 L229 163 L229 86 L75 86 ZM26 -30 Q12 -16 6 -12 Q29 24 27 102 L27 198 L247 198 L247 177 L52 177 L52 101 Q54 13 26 -30 ZM56 12 L56 31 L146 31 L146 36 L187 52 L74 52 L74 70 L230 70 L230 51 L180 31 L248 31 L248 12 L174 12 L174 0 Q174 -25 144 -26 Q137 -27 104 -27 Q102 -15 99 -6 Q117 -6 133 -6 Q146 -6 146 3 L146 12 L56 12 ZM100 117 L100 103 L205 103 L205 117 L100 117 ZM100 145 L100 132 L205 132 L205 145 L100 145 Z" /><glyph glyph-name="uni539F" unicode="&#x539f;" d="M27 -30 Q18 -21 6 -11 Q20 11 24 35 Q29 58 29 105 L29 198 L247 198 L247 176 L159 176 Q158 174 156 168 Q153 156 151 151 L230 151 L230 51 L170 51 L170 1 Q169 -24 143 -25 Q134 -26 109 -26 Q108 -15 103 -3 Q119 -3 131 -3 Q144 -4 144 7 L144 51 L77 51 L77 151 L124 151 Q126 157 129 171 Q129 168 131 176 L55 176 L55 100 Q55 52 49 27 Q44 0 27 -30 ZM102 130 L102 110 L205 110 L205 130 L102 130 ZM102 92 L102 72 L205 72 L205 92 L102 92 ZM67 -20 Q59 -11 50 -1 Q74 15 101 43 L120 27 Q108 15 83 -6 Q73 -15 67 -20 ZM231 -18 Q217 -4 189 22 Q186 25 184 27 L202 42 Q210 35 225 21 Q242 6 250 0 L231 -18 Z" /><glyph glyph-name="uni53BB" unicode="&#x53bb;" d="M215 -28 L200 -11 Q149 -12 72 -16 Q53 -16 38 -20 L25 6 Q39 13 52 26 Q73 47 93 74 L8 74 L8 99 L114 99 L114 144 L25 144 L25 169 L114 169 L114 211 L142 211 L142 169 L231 169 L231 144 L142 144 L142 99 L248 99 L248 74 L131 74 Q114 53 74 12 Q72 9 71 8 Q78 8 93 9 Q148 10 179 12 Q174 18 165 29 Q155 39 150 45 L171 59 Q208 22 239 -12 L215 -28 Z" /><glyph glyph-name="uni53C2" unicode="&#x53c2;" d="M12 107 L12 127 L93 127 Q97 131 103 140 Q104 142 105 143 L133 139 Q129 133 124 127 L244 127 L244 107 L182 107 Q203 84 249 69 Q242 58 236 46 Q183 67 153 107 L108 107 Q85 83 56 66 Q106 78 148 95 L161 79 Q113 59 60 46 Q59 48 57 52 Q53 59 50 63 Q44 60 30 53 Q22 49 18 47 Q16 52 9 64 Q7 67 6 69 Q52 87 73 107 L12 107 ZM213 135 Q206 141 197 147 Q94 147 64 145 Q50 145 38 143 L28 164 Q35 166 47 173 Q50 174 52 175 Q74 188 104 212 L136 206 Q114 190 75 166 Q141 166 172 167 L145 186 L162 200 Q210 168 230 153 L213 135 ZM33 -31 Q28 -16 24 -9 Q124 2 208 40 L222 22 Q136 -19 33 -31 ZM46 7 Q43 16 36 27 Q110 38 176 68 L190 51 Q115 18 46 7 Z" /><glyph glyph-name="uni53CC" unicode="&#x53cc;" d="M233 -25 Q195 0 177 22 Q157 -3 113 -29 Q111 -26 105 -19 Q98 -10 95 -6 Q136 14 161 44 Q133 84 122 160 L147 165 Q157 101 178 67 Q201 103 209 168 L121 168 L121 193 L237 193 L237 167 Q223 85 194 44 Q214 18 250 -1 Q240 -12 233 -25 ZM96 4 L74 39 Q55 8 23 -23 Q19 -17 7 -3 Q6 -2 5 -1 Q41 32 58 64 Q46 84 19 123 Q13 132 10 136 L32 150 L71 92 Q82 122 88 168 L11 168 L11 193 L114 193 L114 168 Q105 102 88 66 Q103 44 118 21 L96 4 Z" /><glyph glyph-name="uni53D1" unicode="&#x53d1;" d="M16 135 L16 160 Q23 174 33 202 L59 198 Q57 194 54 184 Q47 166 44 159 L88 159 Q96 186 100 211 L128 209 Q127 204 125 194 Q120 171 116 159 L248 159 L248 135 L110 135 Q106 122 101 108 L223 108 L223 86 Q203 46 172 22 Q202 7 247 0 Q239 -15 233 -27 Q181 -13 148 6 Q110 -13 59 -29 Q58 -26 55 -21 Q52 -14 46 -4 Q93 6 125 22 Q101 44 86 74 Q59 23 16 -16 Q12 -4 6 12 Q60 62 81 135 L16 135 ZM191 85 L108 85 Q121 58 148 36 Q177 57 191 85 ZM200 159 Q182 178 163 193 L179 209 Q184 205 195 196 Q212 183 219 178 L200 159 Z" /><glyph glyph-name="uni53D7" unicode="&#x53d7;" d="M14 84 L14 132 L54 132 Q45 148 36 163 L62 168 Q72 153 81 136 L68 132 L122 132 Q117 144 106 166 L133 171 Q141 156 147 137 L123 132 L168 132 Q181 154 191 173 L218 166 Q208 150 196 132 L242 132 L242 84 L215 84 L215 110 L41 110 L41 86 L208 86 L208 63 Q189 33 157 13 Q191 1 248 -2 Q244 -10 236 -27 Q169 -19 128 0 Q91 -18 20 -30 Q16 -18 8 -5 Q67 1 101 13 Q77 29 54 64 L40 64 L40 84 L14 84 ZM25 174 Q24 177 23 183 Q21 192 19 197 Q116 197 227 203 L232 180 Q126 175 25 174 ZM177 64 L85 64 Q102 40 129 25 Q155 38 177 64 Z" /><glyph glyph-name="uni53E3" unicode="&#x53e3;" d="M27 -21 L27 189 L229 189 L229 -21 L201 -21 L201 0 L56 0 L56 -21 L27 -21 ZM56 163 L56 25 L201 25 L201 163 L56 163 Z" /><glyph glyph-name="uni53EA" unicode="&#x53ea;" d="M35 66 L35 196 L222 196 L222 66 L35 66 ZM63 170 L63 91 L194 91 L194 170 L63 170 ZM27 -29 Q17 -17 7 -7 Q45 19 84 56 L107 38 Q66 0 27 -29 ZM225 -28 Q206 -11 167 20 Q153 32 146 38 L167 57 Q212 20 247 -7 L225 -28 Z" /><glyph glyph-name="uni53EF" unicode="&#x53ef;" d="M7 169 L7 194 L249 194 L249 169 L216 169 L216 13 Q217 -23 178 -25 Q156 -25 133 -25 Q131 -13 128 0 Q149 0 166 0 Q190 -1 188 21 L188 169 L7 169 ZM33 16 L33 136 L146 136 L146 33 L60 33 L60 16 L33 16 ZM60 113 L60 56 L119 56 L119 113 L60 113 Z" /><glyph glyph-name="uni53F0" unicode="&#x53f0;" d="M36 -29 L36 83 L220 83 L220 -29 L192 -29 L192 -13 L63 -13 L63 -29 L36 -29 ZM227 93 Q218 103 209 112 Q104 110 59 108 Q38 106 25 103 L12 130 Q26 135 39 146 Q77 178 106 212 L136 199 Q134 197 130 194 Q86 153 60 132 L187 136 L157 166 L177 181 Q219 142 249 110 L227 93 ZM63 59 L63 9 L192 9 L192 59 L63 59 Z" /><glyph glyph-name="uni53F2" unicode="&#x53f2;" d="M21 -30 Q20 -29 19 -25 Q12 -11 8 -5 Q59 4 78 15 Q59 27 34 60 L54 75 Q77 45 99 32 Q112 48 113 77 L28 77 L28 178 L114 178 L115 210 L143 210 L142 178 L229 178 L229 65 L202 65 L202 77 L141 77 Q140 40 124 19 Q142 11 168 8 Q198 4 249 2 Q247 -2 243 -15 Q241 -21 240 -24 Q196 -22 166 -16 Q132 -12 103 0 Q82 -16 21 -30 ZM202 153 L142 153 L142 102 L202 102 L202 153 ZM55 153 L55 102 L114 102 L114 153 L55 153 Z" /><glyph glyph-name="uni53F6" unicode="&#x53f6;" d="M19 -3 L19 190 L104 190 L104 0 L78 0 L78 20 L45 20 L45 -3 L19 -3 ZM113 103 L113 130 L167 130 L167 210 L195 210 L195 130 L249 130 L249 103 L195 103 L195 -28 L167 -28 L167 103 L113 103 ZM45 165 L45 45 L78 45 L78 165 L45 165 Z" /><glyph glyph-name="uni53F7" unicode="&#x53f7;" d="M6 82 L6 105 L249 105 L249 82 L80 82 L73 60 L219 60 Q218 49 216 28 Q215 17 215 12 Q212 -26 164 -25 Q139 -25 104 -25 Q103 -15 99 0 Q109 0 130 0 Q148 0 156 0 Q187 -1 187 17 Q189 29 189 37 L40 37 L52 82 L6 82 ZM39 125 L39 201 L216 201 L216 125 L39 125 ZM67 178 L67 148 L188 148 L188 178 L67 178 Z" /><glyph glyph-name="uni5408" unicode="&#x5408;" d="M38 -29 L38 78 L217 78 L217 -29 L190 -29 L190 -15 L65 -15 L65 -29 L38 -29 ZM234 102 Q209 114 195 123 L195 105 L60 105 L60 121 Q55 118 45 112 Q29 103 21 98 Q19 102 13 111 Q8 119 6 123 Q85 160 119 212 L151 210 L144 200 Q182 153 249 127 Q242 115 234 102 ZM65 54 L65 7 L190 7 L190 54 L65 54 ZM129 181 Q105 152 71 129 L186 129 Q154 150 129 181 Z" /><glyph glyph-name="uni540C" unicode="&#x540c;" d="M20 -26 L20 198 L235 198 L235 12 Q237 -24 200 -24 Q184 -25 161 -25 Q160 -15 155 0 Q174 0 189 0 Q210 -1 208 17 L208 174 L47 174 L47 -26 L20 -26 ZM75 21 L75 104 L181 104 L181 21 L75 21 ZM61 127 L61 150 L195 150 L195 127 L61 127 ZM100 81 L100 44 L156 44 L156 81 L100 81 Z" /><glyph glyph-name="uni540D" unicode="&#x540d;" d="M19 46 Q13 58 6 71 Q63 84 103 102 Q84 120 65 135 L84 151 Q89 147 99 139 Q117 125 129 115 Q163 134 191 161 L90 161 Q63 135 26 111 Q24 113 22 117 Q17 123 10 132 Q71 168 101 211 L130 206 Q129 205 128 203 Q122 194 113 185 L227 185 L227 160 Q181 109 113 79 L228 79 L228 -29 L201 -29 L201 -15 L78 -15 L78 -29 L51 -29 L51 56 Q46 55 35 51 Q25 48 19 46 ZM78 56 L78 7 L201 7 L201 56 L78 56 Z" /><glyph glyph-name="uni540E" unicode="&#x540e;" d="M78 -27 L78 81 L228 81 L228 -27 L201 -27 L201 -13 L104 -13 L104 -27 L78 -27 ZM27 -29 Q24 -25 15 -18 Q9 -12 6 -9 Q36 33 34 111 L34 192 Q136 195 227 204 L238 178 Q154 171 60 167 L60 138 L247 138 L247 114 L60 114 L60 111 Q60 59 53 31 Q47 3 27 -29 ZM104 57 L104 9 L201 9 L201 57 L104 57 Z" /><glyph glyph-name="uni5410" unicode="&#x5410;" d="M19 -7 L19 184 L100 184 L100 13 L44 13 L44 -7 L19 -7 ZM116 110 L116 136 L163 136 L163 209 L191 209 L191 136 L240 136 L240 110 L191 110 L191 8 L249 8 L249 -16 L99 -16 L99 8 L163 8 L163 110 L116 110 ZM44 160 L44 36 L75 36 L75 160 L44 160 Z" /><glyph glyph-name="uni5411" unicode="&#x5411;" d="M21 -26 L21 177 L93 177 Q99 195 102 211 L133 208 Q131 202 126 190 Q124 181 122 177 L235 177 L235 10 Q237 -24 199 -24 L161 -25 Q160 -22 159 -17 Q157 -5 155 0 Q172 0 189 0 Q209 0 208 15 L208 152 L48 152 L48 -26 L21 -26 ZM76 26 L76 121 L179 121 L179 26 L76 26 ZM102 98 L102 50 L154 50 L154 98 L102 98 Z" /><glyph glyph-name="uni5412" unicode="&#x5412;" d="M109 160 Q106 172 102 185 Q165 190 229 203 L237 178 Q204 172 170 167 L170 108 L247 116 L249 90 L170 82 L170 17 Q169 0 187 1 L199 1 Q214 1 217 16 Q219 24 221 49 Q221 52 221 53 Q235 48 247 45 Q246 32 242 11 Q241 4 240 1 Q234 -22 202 -22 L180 -22 Q143 -24 144 13 L144 80 L103 76 L100 101 L144 105 L144 164 L109 160 ZM17 -1 L17 189 L93 189 L93 0 L70 0 L70 20 L41 20 L41 -1 L17 -1 ZM41 165 L41 44 L70 44 L70 165 L41 165 Z" /><glyph glyph-name="uni541B" unicode="&#x541b;" d="M91 84 Q85 72 79 60 L224 60 L224 -28 L198 -28 L198 -16 L83 -16 L83 -28 L57 -28 L57 33 Q42 17 20 1 Q13 16 6 25 Q48 54 62 84 L22 84 L22 105 L71 105 Q74 117 76 131 L9 131 L9 153 L79 153 Q80 157 80 166 Q81 174 81 178 L29 178 L29 199 L222 199 L222 153 L249 153 L249 131 L222 131 L222 84 L91 84 ZM83 39 L83 3 L198 3 L198 39 L83 39 ZM103 131 Q102 127 101 119 Q99 109 98 105 L196 105 L196 131 L103 131 ZM107 178 Q107 165 105 153 L196 153 L196 178 L107 178 Z" /><glyph glyph-name="uni5434" unicode="&#x5434;" d="M25 82 L25 104 L231 104 L231 82 L141 82 Q141 79 140 74 Q140 63 138 58 L246 58 L246 35 L148 35 Q170 3 248 -2 Q242 -15 237 -27 Q152 -17 127 23 Q108 -15 18 -30 Q15 -19 7 -5 Q93 4 105 35 L9 35 L9 58 L112 58 Q113 65 113 82 L25 82 ZM36 125 L36 200 L220 200 L220 125 L36 125 ZM64 178 L64 147 L192 147 L192 178 L64 178 Z" /><glyph glyph-name="uni5468" unicode="&#x5468;" d="M27 -30 Q24 -28 18 -22 Q8 -14 5 -11 Q29 20 27 105 L27 200 L237 200 L237 11 Q239 -24 203 -25 Q185 -25 166 -25 Q164 -15 159 0 Q171 0 193 0 Q213 -2 211 15 L211 178 L54 178 L54 102 Q54 50 48 23 Q43 -3 27 -30 ZM78 3 L78 73 L185 73 L185 3 L78 3 ZM73 133 L73 154 L119 154 L119 177 L145 177 L145 154 L191 154 L191 133 L145 133 L145 112 L199 112 L199 91 L65 91 L65 112 L119 112 L119 133 L73 133 ZM160 24 L160 52 L103 52 L103 24 L160 24 Z" /><glyph glyph-name="uni548C" unicode="&#x548c;" d="M131 -21 L131 186 L238 186 L238 -20 L212 -20 L212 2 L157 2 L157 -21 L131 -21 ZM10 114 L10 138 L52 138 L52 171 Q46 171 34 170 Q21 170 15 169 Q14 174 13 183 Q11 190 11 194 Q71 196 110 201 L115 177 Q97 174 77 173 L77 138 L118 138 L118 114 L77 114 L77 82 L86 91 Q92 86 104 75 Q116 64 122 59 L105 39 Q101 43 92 53 Q82 63 77 68 L77 -28 L52 -28 L52 73 Q39 43 15 12 Q14 17 10 27 Q7 37 5 42 Q31 69 48 114 L10 114 ZM157 162 L157 26 L212 26 L212 162 L157 162 Z" /><glyph glyph-name="uni54C1" unicode="&#x54c1;" d="M41 109 L41 199 L215 199 L215 109 L41 109 ZM141 -28 L141 84 L238 84 L238 -28 L213 -28 L213 -14 L166 -14 L166 -28 L141 -28 ZM18 -28 L18 84 L114 84 L114 -28 L89 -28 L89 -14 L43 -14 L43 -28 L18 -28 ZM68 175 L68 133 L188 133 L188 175 L68 175 ZM166 61 L166 7 L213 7 L213 61 L166 61 ZM43 61 L43 7 L89 7 L89 61 L43 61 Z" /><glyph glyph-name="uni54EA" unicode="&#x54ea;" d="M82 115 L82 137 L97 137 L98 177 L81 177 L81 199 L160 199 Q160 102 158 10 Q159 -20 131 -21 Q122 -22 108 -22 Q107 -15 104 -3 Q103 0 103 0 Q104 0 108 0 Q118 0 122 0 Q138 -1 137 16 L138 53 L113 53 Q110 8 79 -29 Q73 -20 64 -10 Q90 18 92 53 L81 53 L81 75 L94 75 L96 115 L82 115 ZM15 0 L15 191 L73 191 L73 8 L53 8 L53 21 L35 21 L35 0 L15 0 ZM175 -29 L175 197 L244 197 L244 174 L227 105 Q248 80 247 41 Q248 12 224 7 Q217 5 205 5 Q204 14 198 31 Q205 31 214 31 Q226 32 226 50 Q227 76 207 103 L223 175 L197 175 L197 -29 L175 -29 ZM35 167 L35 45 L53 45 L53 167 L35 167 ZM138 75 L139 115 L117 115 L116 94 Q116 90 115 84 Q115 78 115 75 L138 75 ZM140 177 L118 177 Q118 156 118 137 L139 137 Q139 159 140 177 Z" /><glyph glyph-name="uni5510" unicode="&#x5510;" d="M28 -29 Q24 -26 18 -21 Q10 -15 6 -12 Q20 11 24 33 Q28 54 28 102 L28 189 L125 189 L119 208 L149 212 Q153 201 156 189 L247 189 L247 168 L53 168 L53 115 L129 115 L129 131 L68 131 L68 150 L129 150 L129 166 L154 166 L154 150 L227 150 L227 115 L248 115 L248 95 L227 95 L227 60 L154 60 L154 44 L129 44 L129 60 L66 60 L66 79 L129 79 L129 95 L53 95 Q55 13 28 -29 ZM68 -29 L68 43 L227 43 L227 -29 L202 -29 L202 -19 L93 -19 L93 -29 L68 -29 ZM93 23 L93 0 L202 0 L202 23 L93 23 ZM154 79 L202 79 L202 95 L154 95 L154 79 ZM202 131 L154 131 L154 115 L202 115 L202 131 Z" /><glyph glyph-name="uni552F" unicode="&#x552f;" d="M91 91 Q88 102 83 111 L83 -4 L62 -4 L62 13 L40 13 L40 -6 L18 -6 L18 189 L83 189 L83 122 Q113 160 127 211 L154 206 Q147 185 138 167 L182 167 Q180 173 175 186 Q170 198 168 204 L193 208 Q193 207 194 205 Q204 181 208 169 L198 167 L246 167 L246 145 L200 145 L200 114 L243 114 L243 92 L200 92 L200 60 L243 60 L243 39 L200 39 L200 6 L248 6 L248 -14 L133 -14 L133 -29 L108 -29 L108 113 Q105 109 99 101 Q94 95 91 91 ZM40 164 L40 37 L62 37 L62 164 L40 164 ZM133 39 L133 6 L175 6 L175 39 L133 39 ZM133 145 L133 114 L175 114 L175 145 L133 145 ZM133 92 L133 60 L175 60 L175 92 L133 92 Z" /><glyph glyph-name="uni559C" unicode="&#x559c;" d="M8 42 L8 60 L78 60 Q73 65 63 76 Q70 69 61 79 L74 81 L36 81 L36 130 L220 130 L220 81 L182 81 L195 79 Q189 70 179 60 L248 60 L248 42 L8 42 ZM32 -29 L32 28 L224 28 L224 -29 L198 -29 L198 -21 L58 -21 L58 -29 L32 -29 ZM12 175 L12 193 L114 193 L114 210 L141 210 L141 193 L243 193 L243 175 L141 175 L141 160 L228 160 L228 144 L27 144 L27 160 L114 160 L114 175 L12 175 ZM58 12 L58 -4 L198 -4 L198 12 L58 12 ZM61 114 L61 98 L194 98 L194 114 L61 114 ZM108 61 L103 60 L148 60 Q150 62 154 67 Q163 77 166 81 L90 81 Q103 68 108 61 Z" /><glyph glyph-name="uni5609" unicode="&#x5609;" d="M8 54 L8 71 L76 71 L64 88 L75 90 L33 90 L33 136 L223 136 L223 90 L181 90 L192 88 L180 71 L248 71 L248 54 L8 54 ZM12 178 L12 195 L115 195 L115 211 L141 211 L141 195 L243 195 L243 178 L141 178 L141 164 L228 164 L228 148 L28 148 L28 164 L115 164 L115 178 L12 178 ZM142 -26 L142 40 L236 40 L236 -26 L212 -26 L212 -14 L165 -14 L165 -26 L142 -26 ZM24 -29 Q21 -26 13 -18 Q9 -14 7 -12 Q37 1 42 19 L15 19 L15 37 L46 37 Q46 39 46 43 Q47 50 47 54 L71 52 Q71 49 70 44 Q70 39 70 37 L127 37 Q126 19 124 2 Q123 -24 91 -24 Q80 -24 68 -24 Q68 -23 67 -19 Q64 -7 63 -3 Q70 -4 84 -4 Q101 -5 101 6 Q102 10 102 19 L67 19 Q61 -9 24 -29 ZM59 120 L59 105 L197 105 L197 120 L59 120 ZM92 90 L106 71 L150 71 Q151 73 155 78 Q161 86 163 90 L92 90 ZM165 23 L165 0 L212 0 L212 23 L165 23 Z" /><glyph glyph-name="uni56DB" unicode="&#x56db;" d="M21 -28 L21 195 L237 195 L237 -28 L210 -28 L210 -14 L48 -14 L48 -28 L21 -28 ZM173 52 Q143 51 144 82 L144 170 L112 170 L112 125 Q115 72 69 35 Q60 45 49 54 Q90 83 87 127 Q87 146 87 170 L48 170 L48 9 L210 9 L210 170 L169 170 L169 91 Q168 76 184 77 L209 77 Q209 75 208 72 Q206 64 204 52 L173 52 Z" /><glyph glyph-name="uni56E2" unicode="&#x56e2;" d="M19 -29 L19 200 L237 200 L237 -29 L210 -29 L210 -18 L46 -18 L46 -29 L19 -29 ZM46 176 L46 4 L210 4 L210 176 L46 176 ZM59 117 L59 140 L145 140 L145 167 L170 167 L170 140 L200 140 L200 117 L170 117 L170 49 Q172 16 139 16 Q135 16 126 16 Q115 15 110 15 Q107 27 104 39 Q118 38 129 38 Q146 37 145 52 L145 106 Q118 62 67 31 Q64 36 54 47 Q52 50 51 51 Q101 78 126 117 L59 117 Z" /><glyph glyph-name="uni56F4" unicode="&#x56f4;" d="M18 -29 L18 199 L237 199 L237 -29 L211 -29 L211 -18 L44 -18 L44 -29 L18 -29 ZM44 177 L44 2 L211 2 L211 177 L44 177 ZM145 21 Q143 31 140 40 Q144 40 151 39 Q158 39 161 39 Q172 38 173 48 Q173 49 173 53 Q174 58 174 60 L131 60 L131 8 L105 8 L105 60 L54 60 L54 80 L105 80 L105 98 L64 98 L64 117 L105 117 L105 135 L57 135 L57 154 L105 154 L105 170 L131 170 L131 154 L197 154 L197 135 L131 135 L131 117 L189 117 L189 98 L131 98 L131 80 L196 80 Q196 61 194 46 Q194 22 168 22 Q157 21 145 21 Z" /><glyph glyph-name="uni56FD" unicode="&#x56fd;" d="M18 -29 L18 200 L238 200 L238 -29 L210 -29 L210 -16 L45 -16 L45 -29 L18 -29 ZM45 177 L45 5 L210 5 L210 177 L45 177 ZM59 135 L59 157 L196 157 L196 135 L139 135 L139 109 L191 109 L191 87 L139 87 L139 47 L174 47 Q161 62 150 72 L164 84 Q177 73 189 61 L174 47 L199 47 L199 25 L57 25 L57 47 L113 47 L113 87 L64 87 L64 109 L113 109 L113 135 L59 135 Z" /><glyph glyph-name="uni56FE" unicode="&#x56fe;" d="M17 -29 L17 202 L238 202 L238 -29 L212 -29 L212 -17 L43 -17 L43 -29 L17 -29 ZM43 179 L43 3 L212 3 L212 179 L43 179 ZM198 76 Q157 83 132 95 Q103 82 57 73 Q56 74 55 78 Q53 83 47 92 Q85 98 110 107 Q96 116 84 130 Q75 121 64 113 Q58 121 50 128 Q80 149 99 177 L123 174 Q118 167 112 159 L193 159 L193 141 Q172 118 153 107 Q177 100 208 97 Q207 94 204 88 Q200 81 198 76 ZM183 10 Q137 18 63 29 L69 49 Q127 41 188 30 L183 10 ZM170 49 Q126 57 85 62 L90 80 Q110 77 155 70 Q169 68 175 67 L170 49 ZM165 141 L98 141 Q112 126 131 116 Q150 126 165 141 Z" /><glyph glyph-name="uni5708" unicode="&#x5708;" d="M17 -29 L17 202 L238 202 L238 -29 L213 -29 L213 -18 L42 -18 L42 -29 L17 -29 ZM200 58 Q179 67 166 77 L165 60 Q163 42 143 41 Q131 41 118 41 Q118 42 117 43 Q117 47 114 55 Q127 54 136 54 Q145 54 145 61 Q146 65 146 68 L97 68 L97 43 Q96 28 111 29 L156 29 Q171 29 173 40 Q176 47 177 56 Q187 52 196 49 Q196 47 195 44 Q193 35 191 31 Q186 12 160 12 L104 12 Q75 11 76 39 L76 66 Q72 64 64 59 Q56 55 52 53 Q49 62 42 71 L42 0 L213 0 L213 182 L42 182 L42 73 Q73 86 89 101 L50 101 L50 118 L102 118 Q106 125 109 132 L57 132 L57 148 L82 148 Q79 153 73 160 Q69 165 67 168 L86 173 Q94 163 101 152 L92 148 L114 148 Q117 162 119 175 L142 175 Q141 171 140 162 Q138 153 137 148 L164 148 L155 152 Q161 158 171 173 L190 168 Q183 160 174 148 L198 148 L198 132 L132 132 Q131 128 128 121 Q127 119 127 118 L205 118 L205 101 L167 101 Q183 85 211 78 Q209 75 206 68 Q202 62 200 58 ZM117 101 Q111 92 101 84 L158 84 Q151 91 143 101 L117 101 Z" /><glyph glyph-name="uni5728" unicode="&#x5728;" d="M16 155 L16 180 L84 180 Q88 188 93 203 Q95 208 96 211 L125 208 Q123 204 121 197 Q116 186 114 180 L248 180 L248 155 L103 155 Q89 127 71 103 L71 -28 L45 -28 L45 72 Q41 68 32 59 Q23 51 18 46 Q15 51 10 64 Q7 70 6 73 Q50 111 72 155 L16 155 ZM91 71 L91 95 L150 95 L150 141 L177 141 L177 95 L236 95 L236 71 L177 71 L177 8 L248 8 L248 -14 L80 -14 L80 8 L150 8 L150 71 L91 71 Z" /><glyph glyph-name="uni573A" unicode="&#x573a;" d="M10 122 L10 148 L36 148 L36 209 L62 209 L62 148 L86 148 L86 122 L62 122 L62 45 L84 52 L85 36 Q109 57 120 95 L91 95 L91 121 L184 174 L99 174 L99 197 L227 197 L227 170 L136 118 L241 118 L237 20 Q238 -24 200 -23 Q191 -24 169 -24 Q168 -19 166 -8 Q164 -1 164 0 Q176 0 190 0 Q213 -1 212 23 Q213 34 214 66 Q215 86 215 95 L193 95 Q181 12 125 -30 Q117 -21 106 -11 Q157 25 169 95 L144 95 Q130 37 84 1 Q82 3 77 9 Q71 16 67 20 Q62 18 52 14 Q39 9 12 0 L6 27 Q13 28 26 33 Q33 35 36 36 L36 122 L10 122 Z" /><glyph glyph-name="uni5747" unicode="&#x5747;" d="M109 113 Q101 120 92 126 L92 121 L66 121 L66 39 L95 48 Q95 43 96 34 Q96 25 96 21 Q86 18 62 12 Q28 2 12 -1 L7 25 Q22 28 39 33 L39 121 L10 121 L10 146 L39 146 L39 209 L66 209 L66 146 L92 146 L92 134 Q115 164 131 210 L159 205 Q158 202 155 195 Q151 182 147 175 L241 175 Q239 95 237 19 Q238 -24 191 -23 Q183 -23 166 -24 Q152 -24 147 -24 Q144 -9 141 3 Q159 2 183 2 Q211 0 209 28 Q212 112 212 149 L134 149 Q122 130 109 113 ZM111 17 L99 43 Q146 60 196 84 Q196 82 197 76 Q199 62 200 56 Q190 52 166 41 Q127 24 111 17 ZM154 75 Q138 92 117 110 L136 128 Q141 124 152 114 Q168 101 174 95 L154 75 Z" /><glyph glyph-name="uni575A" unicode="&#x575a;" d="M29 32 L29 56 L114 56 L114 75 L142 75 L142 56 L226 56 L226 32 L142 32 L142 3 L247 3 L247 -19 L8 -19 L8 3 L114 3 L114 32 L29 32 ZM237 75 Q199 86 174 102 Q145 85 117 77 Q109 93 104 100 Q134 109 153 120 Q132 140 120 171 L126 173 L112 173 L112 197 L235 197 L235 174 Q220 140 196 119 Q217 107 249 100 Q242 87 237 75 ZM73 74 L73 208 L99 208 L99 74 L73 74 ZM21 80 L21 199 L46 199 L46 80 L21 80 ZM207 173 L144 173 Q156 146 174 133 Q195 148 207 173 Z" /><glyph glyph-name="uni5761" unicode="&#x5761;" d="M85 -29 Q82 -27 77 -23 Q68 -16 63 -13 Q99 23 97 93 L97 179 L161 179 L161 210 L186 210 L186 179 L245 179 L239 127 Q225 129 216 129 L220 156 L186 156 L186 114 L233 114 L233 90 Q220 50 197 23 Q217 7 249 -1 Q242 -14 236 -26 Q204 -13 178 5 Q155 -13 118 -29 Q116 -26 113 -20 Q107 -10 104 -5 Q138 6 159 23 Q142 44 126 82 L144 91 L122 91 Q123 16 85 -29 ZM9 125 L9 150 L36 150 L36 210 L60 210 L60 150 L86 150 L86 125 L60 125 L60 50 Q72 53 84 58 Q84 43 85 31 Q51 21 12 6 L6 33 L36 42 L36 125 L9 125 ZM149 91 Q161 60 178 40 Q197 61 207 91 L149 91 ZM122 156 L122 114 L161 114 L161 156 L122 156 Z" /><glyph glyph-name="uni5764" unicode="&#x5764;" d="M155 -29 L155 32 L122 32 L122 20 L98 20 L98 172 L155 172 L155 210 L180 210 L180 172 L238 172 L238 20 L214 20 L214 32 L180 32 L180 -29 L155 -29 ZM9 125 L9 151 L35 151 L35 210 L61 210 L61 151 L86 151 L86 125 L61 125 L61 42 L87 49 Q87 33 88 23 Q50 12 11 0 L6 28 Q10 29 18 31 Q29 34 35 35 L35 125 L9 125 ZM122 149 L122 113 L155 113 L155 149 L122 149 ZM214 149 L180 149 L180 113 L214 113 L214 149 ZM122 92 L122 56 L155 56 L155 92 L122 92 ZM180 92 L180 56 L214 56 L214 92 L180 92 Z" /><glyph glyph-name="uni578B" unicode="&#x578b;" d="M17 178 L17 200 L143 200 L143 178 L122 178 L122 143 L151 143 L151 121 L122 121 L122 74 L142 74 L142 52 L229 52 L229 30 L142 30 L142 2 L247 2 L247 -20 L9 -20 L9 2 L114 2 L114 30 L27 30 L27 52 L114 52 L114 74 L98 74 L98 121 L64 121 Q63 90 36 65 Q34 66 29 69 Q24 72 14 79 Q39 98 40 121 L9 121 L9 143 L41 143 L41 178 L17 178 ZM171 70 Q170 74 169 82 Q167 90 166 94 Q178 94 196 94 Q213 92 211 110 L211 207 L236 207 L236 104 Q237 71 207 71 Q196 70 171 70 ZM161 113 L161 196 L184 196 L184 113 L161 113 ZM65 178 L65 143 L98 143 L98 178 L65 178 Z" /><glyph glyph-name="uni57CE" unicode="&#x57ce;" d="M222 -26 Q198 -26 186 9 Q170 -8 147 -28 Q138 -16 130 -10 Q158 10 178 36 Q170 68 166 143 L109 143 L109 112 L155 112 Q155 77 153 40 Q154 9 126 9 Q117 8 110 8 Q110 12 108 21 Q107 29 106 33 Q110 33 119 33 Q133 32 132 46 Q133 57 133 90 L109 90 Q110 12 81 -29 Q78 -28 71 -24 Q63 -19 58 -17 Q75 7 80 29 Q85 50 85 97 L85 166 L166 166 Q165 185 165 210 L189 210 Q189 202 190 187 Q190 173 190 166 L248 166 L248 143 L191 143 Q191 137 192 127 Q194 81 197 65 Q212 91 222 122 L243 113 Q225 65 204 33 Q204 32 205 30 Q205 29 206 28 Q211 1 221 0 Q224 0 226 8 Q227 14 230 31 Q230 38 231 42 Q241 38 251 35 Q248 10 245 -3 Q239 -26 222 -26 ZM9 128 L9 152 L31 152 L31 210 L55 210 L55 152 L75 152 L75 128 L55 128 L55 44 Q56 44 60 45 Q64 47 75 51 Q75 47 76 38 Q76 29 76 26 Q56 20 10 4 L6 31 L31 37 L31 128 L9 128 ZM225 167 Q213 179 198 194 L214 206 Q219 202 228 193 Q238 185 242 180 L225 167 Z" /><glyph glyph-name="uni57F9" unicode="&#x57f9;" d="M100 -28 L100 69 L232 69 L232 -28 L207 -28 L207 -14 L126 -14 L126 -28 L100 -28 ZM9 123 L9 148 L35 148 L35 209 L61 209 L61 148 L87 148 L87 123 L61 123 L61 37 Q66 38 75 41 Q84 43 88 44 Q88 26 89 17 Q61 10 11 -3 L5 24 Q20 27 35 31 L35 123 L9 123 ZM84 92 L84 114 L132 114 Q127 122 116 137 Q112 142 110 145 L132 156 Q138 148 150 132 Q153 127 155 125 L134 114 L176 114 Q192 140 200 156 L225 147 Q214 130 203 114 L248 114 L248 92 L84 92 ZM94 158 L94 180 L156 180 Q151 194 145 206 L174 210 Q175 208 176 205 Q183 189 185 180 L241 180 L241 158 L94 158 ZM126 47 L126 6 L207 6 L207 47 L126 47 Z" /><glyph glyph-name="uni586B" unicode="&#x586b;" d="M85 174 L85 193 L151 193 L151 210 L176 210 L176 193 L242 193 L242 174 L176 174 L176 158 L230 158 L230 33 L249 33 L249 13 L79 13 L79 25 Q63 20 27 7 Q17 3 12 1 L6 28 Q20 31 35 37 L35 124 L10 124 L10 148 L35 148 L35 210 L60 210 L60 148 L84 148 L84 124 L60 124 L60 45 Q73 48 85 53 L87 33 L98 33 L98 158 L151 158 L151 174 L85 174 ZM87 -30 Q86 -28 84 -24 Q83 -21 77 -10 Q86 -7 102 -2 Q128 5 142 11 L153 -5 Q139 -11 109 -22 Q95 -27 87 -30 ZM236 -29 Q214 -20 174 -5 L183 11 Q215 1 246 -10 L236 -29 ZM123 141 L123 125 L205 125 L205 141 L123 141 ZM123 48 L123 33 L205 33 L205 48 L123 48 ZM123 79 L123 63 L205 63 L205 79 L123 79 ZM123 110 L123 94 L205 94 L205 110 L123 110 Z" /><glyph glyph-name="uni589E" unicode="&#x589e;" d="M80 92 L80 182 L119 182 Q118 184 116 187 Q107 201 103 207 L128 212 Q131 206 140 194 Q146 185 148 182 L174 182 Q182 194 192 212 L219 206 Q210 193 201 182 L241 182 L241 92 L80 92 ZM91 -29 L91 76 L230 76 L230 -29 L205 -29 L205 -18 L116 -18 L116 -29 L91 -29 ZM10 121 L10 147 L31 147 L31 209 L55 209 L55 147 L74 147 L74 121 L55 121 L55 36 Q56 36 58 37 Q73 40 79 43 Q79 30 79 16 Q70 13 51 8 Q25 1 11 -2 L6 24 L31 29 L31 121 L10 121 ZM103 162 L103 111 L150 111 L150 162 L103 162 ZM218 162 L172 162 L172 111 L218 111 L218 162 ZM116 20 L116 0 L205 0 L205 20 L116 20 ZM116 57 L116 37 L205 37 L205 57 L116 57 ZM128 119 Q123 128 111 145 Q109 146 109 147 L123 156 Q125 153 128 148 Q138 134 142 127 L128 119 ZM192 118 L178 127 Q190 143 198 155 L212 146 Q209 142 202 131 Q195 122 192 118 Z" /><glyph glyph-name="uni58EB" unicode="&#x58eb;" d="M8 109 L8 136 L112 136 L112 210 L143 210 L143 136 L247 136 L247 109 L143 109 L143 12 L232 12 L232 -13 L24 -13 L24 12 L112 12 L112 109 L8 109 Z" /><glyph glyph-name="uni5904" unicode="&#x5904;" d="M243 -20 Q187 -21 157 -17 Q108 -14 77 15 Q63 0 23 -30 Q20 -26 15 -20 Q9 -12 6 -8 Q39 13 60 37 Q43 63 36 97 Q34 94 30 87 Q21 70 15 62 Q10 77 4 91 Q35 142 49 209 L76 205 Q74 199 71 188 Q67 172 65 165 L129 165 L129 141 Q121 75 93 36 Q117 10 159 7 Q203 2 251 5 Q247 -6 243 -20 ZM228 77 Q221 84 206 99 Q191 114 183 121 L183 16 L156 16 L156 208 L183 208 L183 137 L191 145 Q221 121 248 97 L228 77 ZM102 141 L56 141 Q55 137 52 132 Q59 87 76 58 Q96 89 102 141 Z" /><glyph glyph-name="uni5907" unicode="&#x5907;" d="M36 -29 L36 86 L219 86 L219 -29 L194 -29 L194 -19 L62 -19 L62 -29 L36 -29 ZM14 82 Q13 86 10 94 Q7 103 5 106 Q58 113 101 126 Q81 138 63 156 Q53 147 32 130 Q29 128 27 127 Q21 136 10 145 Q56 176 80 212 L108 207 Q105 202 97 193 Q96 191 95 190 L220 190 L220 168 Q193 143 161 126 Q198 115 249 112 Q248 109 246 102 Q242 92 241 87 Q171 96 130 112 Q80 93 14 82 ZM184 169 L81 169 Q102 150 130 136 Q158 148 184 169 ZM194 66 L140 66 L140 41 L194 41 L194 66 ZM140 24 L140 0 L194 0 L194 24 L140 24 ZM62 66 L62 41 L115 41 L115 66 L62 66 ZM62 24 L62 0 L115 0 L115 24 L62 24 Z" /><glyph glyph-name="uni590D" unicode="&#x590d;" d="M17 127 Q15 134 10 145 Q8 149 7 151 Q43 176 63 212 L92 210 Q90 206 86 200 Q83 196 82 194 L243 194 L243 173 L66 173 Q64 171 60 167 Q55 160 51 157 L224 157 L224 73 L83 73 L106 71 L94 57 L223 57 L223 37 Q194 14 170 5 Q197 0 249 -5 Q246 -10 241 -22 Q240 -25 239 -27 Q172 -18 137 -7 Q98 -19 27 -30 Q25 -25 20 -16 Q17 -11 16 -8 Q67 -3 103 5 Q83 15 65 30 Q51 18 24 3 Q22 5 19 9 Q17 13 8 22 Q51 42 77 73 L40 73 L40 146 Q39 145 37 144 Q29 137 17 127 ZM67 108 L67 92 L198 92 L198 108 L67 108 ZM67 139 L67 123 L198 123 L198 139 L67 139 ZM187 38 L89 38 Q110 23 136 14 Q165 25 187 38 Z" /><glyph glyph-name="uni590F" unicode="&#x590f;" d="M12 180 L12 200 L246 200 L246 180 L133 180 L127 166 L223 166 L223 65 L105 65 Q99 57 92 51 L221 51 L221 30 Q199 14 173 2 Q212 -3 248 -5 Q246 -9 242 -18 Q239 -24 238 -27 Q178 -21 137 -9 Q94 -23 25 -30 Q24 -27 21 -21 Q17 -13 15 -9 Q67 -4 103 1 Q82 11 63 26 Q45 13 23 2 Q21 4 18 9 Q12 16 9 20 Q50 38 75 65 L37 65 L37 166 L99 166 L104 180 L12 180 ZM63 95 L63 81 L197 81 L197 95 L63 95 ZM63 122 L63 108 L197 108 L197 122 L63 122 ZM63 150 L63 136 L197 136 L197 150 L63 150 ZM186 32 L90 32 Q111 19 137 11 Q162 20 186 32 Z" /><glyph glyph-name="uni591A" unicode="&#x591a;" d="M36 26 Q26 44 22 49 Q99 73 143 113 L173 108 Q162 99 153 91 L238 91 L238 68 Q167 -8 20 -29 Q17 -18 11 -6 Q81 4 116 18 Q111 23 101 32 Q91 41 86 46 L108 57 Q114 52 125 43 Q136 34 141 29 Q175 45 203 69 L124 69 Q84 43 36 26 ZM32 134 Q31 136 28 140 Q22 150 18 155 Q80 180 115 213 L146 209 Q134 198 122 189 L227 189 L227 165 Q153 103 19 74 Q18 76 16 80 Q15 85 9 97 Q63 108 101 122 Q82 140 68 151 L88 163 Q92 160 101 153 Q117 141 127 133 L124 131 Q160 146 189 167 L93 167 Q73 153 32 134 Z" /><glyph glyph-name="uni5927" unicode="&#x5927;" d="M12 119 L12 146 L113 146 Q114 168 114 209 L144 209 L142 146 L243 146 L243 119 L143 119 Q156 33 248 0 Q238 -10 229 -25 Q146 11 128 81 Q112 13 27 -28 Q24 -24 16 -13 Q10 -6 8 -3 Q104 37 110 119 L12 119 Z" /><glyph glyph-name="uni5929" unicode="&#x5929;" d="M24 170 L24 196 L232 196 L232 170 L142 170 Q142 161 141 143 Q141 125 141 117 L246 117 L246 91 L145 91 Q162 22 249 0 Q239 -12 232 -26 Q145 3 128 65 Q112 8 25 -28 Q17 -16 8 -3 Q99 30 108 91 L10 91 L10 117 L111 117 Q112 125 112 143 Q113 161 113 170 L24 170 Z" /><glyph glyph-name="uni592A" unicode="&#x592a;" d="M13 124 L13 151 L112 151 Q114 189 114 209 L143 209 Q143 171 142 151 L243 151 L243 124 L145 124 Q160 37 249 0 Q238 -14 230 -25 Q146 18 128 97 Q110 22 26 -29 Q23 -25 17 -17 Q10 -8 7 -4 Q94 42 109 124 L13 124 ZM129 -20 Q124 -14 109 1 Q97 15 91 22 L112 38 Q115 35 122 27 Q141 5 151 -3 L129 -20 Z" /><glyph glyph-name="uni5938" unicode="&#x5938;" d="M15 164 L15 186 L106 186 Q112 198 116 211 L144 209 Q140 197 135 186 L241 186 L241 164 L165 164 Q190 134 248 121 Q244 117 238 107 Q235 102 233 99 Q202 109 181 121 L181 109 L77 109 L77 122 Q55 109 21 96 Q15 107 6 117 Q71 140 92 164 L15 164 ZM16 68 L16 90 L238 90 L238 68 L85 68 L80 48 L209 48 Q208 35 206 15 Q205 9 205 6 Q201 -24 160 -24 Q138 -24 103 -24 Q102 -21 101 -15 Q99 -5 97 0 Q119 -1 152 -1 Q178 -2 178 11 Q179 14 180 19 Q181 25 181 27 L49 27 L59 68 L16 68 ZM123 164 Q110 145 89 130 L168 130 Q150 143 138 164 L123 164 Z" /><glyph glyph-name="uni5947" unicode="&#x5947;" d="M22 165 L22 187 L116 187 Q118 199 118 211 L144 211 Q144 194 143 187 L235 187 L235 165 L136 165 L135 161 Q152 156 188 146 Q216 138 230 134 L218 114 L247 114 L247 92 L215 92 L215 9 Q217 -25 180 -26 Q168 -26 142 -26 Q141 -18 136 -1 Q156 -1 170 -1 Q190 -2 189 14 L189 92 L9 92 L9 114 L32 114 Q28 123 20 135 Q96 141 110 165 L22 165 ZM36 -8 L36 74 L153 74 L153 4 L61 4 L61 -8 L36 -8 ZM217 114 Q201 119 170 129 Q139 139 123 144 Q103 124 35 114 L217 114 ZM61 53 L61 25 L127 25 L127 53 L61 53 Z" /><glyph glyph-name="uni5955" unicode="&#x5955;" d="M12 38 L12 61 L113 61 Q114 64 114 69 Q115 74 115 76 L143 76 L140 61 L246 61 L246 38 L149 38 Q171 6 249 -1 Q242 -13 237 -27 Q153 -12 129 26 Q111 -12 18 -29 Q13 -18 7 -4 Q94 6 106 38 L12 38 ZM122 85 Q120 96 117 108 Q120 108 128 108 Q135 107 138 107 Q153 107 152 120 L152 161 L112 161 Q112 157 111 149 Q111 142 111 139 Q109 100 66 71 Q58 79 46 88 Q83 111 86 141 Q86 145 87 151 Q87 158 87 161 L14 161 L14 184 L118 184 Q117 187 115 192 Q111 203 109 208 L139 211 Q141 206 146 194 Q148 187 149 184 L243 184 L243 161 L177 161 L177 114 Q178 87 149 86 Q140 85 122 85 ZM229 89 Q223 95 214 105 Q196 123 186 132 L203 147 Q218 134 245 109 Q247 107 248 106 L229 89 ZM23 90 Q16 99 6 108 Q31 128 49 149 L67 134 Q47 112 23 90 Z" /><glyph glyph-name="uni5956" unicode="&#x5956;" d="M113 131 Q107 140 98 151 Q132 177 149 211 L176 208 Q175 206 172 201 Q169 196 162 186 L238 186 L238 163 Q209 101 126 81 L143 81 Q142 72 142 63 L245 63 L245 41 L145 41 Q164 4 248 -1 Q244 -8 239 -20 Q237 -25 236 -27 Q150 -14 128 23 Q112 -11 19 -30 Q12 -13 6 -4 Q101 7 109 41 L12 41 L12 63 L114 63 L115 81 L119 81 Q113 90 107 101 Q139 108 158 118 Q152 124 138 136 Q131 142 128 145 Q119 136 113 131 ZM14 90 L7 116 Q11 118 20 121 Q38 128 68 141 L68 210 L92 210 L92 74 L68 74 L68 115 Q43 105 14 90 ZM178 131 L163 120 Q191 133 211 164 L146 164 Q145 163 142 159 Q139 156 137 154 L144 159 Q152 153 168 140 Q174 134 178 131 ZM44 143 Q29 162 13 183 L32 195 Q42 185 59 164 Q62 159 64 157 L44 143 Z" /><glyph glyph-name="uni597D" unicode="&#x597d;" d="M23 -27 Q15 -19 5 -7 Q35 15 50 36 Q39 45 18 64 Q16 66 15 67 Q20 88 30 138 L9 138 L9 163 L34 163 Q37 187 40 210 L67 208 Q66 200 63 183 Q61 169 60 163 L102 163 L102 138 Q98 74 81 42 Q101 25 119 10 L99 -8 Q94 -3 82 7 Q73 15 68 19 Q54 -1 23 -27 ZM111 77 L111 102 L169 102 L169 132 L209 172 L120 172 L120 197 L242 197 L242 170 L197 124 L197 102 L249 102 L249 77 L197 77 L197 8 Q198 -25 163 -25 Q144 -25 130 -25 Q130 -23 129 -18 Q126 -4 125 0 Q138 0 153 0 Q170 0 169 16 L169 77 L111 77 ZM42 74 L62 58 Q75 88 78 138 L56 138 Q53 125 48 101 Q44 83 42 74 Z" /><glyph glyph-name="uni5982" unicode="&#x5982;" d="M138 -19 L138 185 L237 185 L237 -17 L211 -17 L211 2 L164 2 L164 -19 L138 -19 ZM109 -12 Q101 -4 80 12 Q95 0 77 15 Q62 -2 26 -29 Q20 -22 6 -8 Q37 10 57 33 Q37 51 17 68 Q26 101 34 139 L7 139 L7 164 L38 164 Q41 187 44 211 L73 208 Q70 187 65 164 L119 164 L119 140 Q113 71 93 37 Q101 31 117 17 Q125 10 129 7 L109 -12 ZM164 161 L164 26 L211 26 L211 161 L164 161 ZM92 139 L60 139 Q54 105 46 76 Q58 66 72 55 Q88 86 92 139 Z" /><glyph glyph-name="uni598D" unicode="&#x598d;" d="M194 -26 L194 80 L156 80 Q158 11 113 -30 Q111 -29 107 -25 Q96 -16 92 -13 Q132 21 130 80 L103 80 L103 104 L131 104 L131 173 L110 173 L110 197 L242 197 L242 173 L220 173 L220 104 L249 104 L249 80 L220 80 L220 -26 L194 -26 ZM86 -2 L66 17 Q52 -1 23 -27 Q20 -24 14 -17 Q7 -10 4 -7 Q32 13 47 35 L13 67 Q18 88 28 138 L8 138 L8 163 L31 163 Q36 187 37 210 L63 208 Q60 186 56 163 L100 163 L100 139 Q94 70 79 39 Q91 29 103 17 L86 -2 ZM156 173 L156 104 L194 104 L194 173 L156 173 ZM76 138 L52 138 Q46 102 38 74 Q43 70 52 62 Q57 58 59 56 Q72 86 76 138 Z" /><glyph glyph-name="uni5996" unicode="&#x5996;" d="M109 91 L109 115 L160 115 Q161 138 161 170 Q139 169 114 167 Q114 168 114 169 Q113 180 110 192 Q170 193 237 200 L240 176 Q215 173 188 172 Q188 162 187 141 Q187 123 187 115 L247 115 L247 91 L190 91 Q198 27 250 -2 Q248 -4 245 -9 Q243 -13 233 -26 Q184 10 174 63 Q164 12 110 -29 Q109 -28 106 -25 Q97 -13 91 -7 Q149 29 157 91 L109 91 ZM23 -27 Q15 -19 5 -7 Q35 14 49 35 Q45 38 37 46 Q33 50 14 67 Q23 99 29 138 L9 138 L9 163 L33 163 Q36 186 39 210 L66 208 Q65 201 63 189 Q60 171 58 163 L102 163 L102 137 Q98 75 80 40 Q82 39 85 36 Q96 27 111 14 L92 -4 Q82 4 68 18 Q58 3 26 -24 Q24 -26 23 -27 ZM40 73 L61 56 Q75 89 78 138 L54 138 Q48 102 40 73 Z" /><glyph glyph-name="uni59CB" unicode="&#x59cb;" d="M92 -6 L67 15 Q51 -5 22 -28 L5 -8 Q33 12 48 33 L13 65 Q21 94 28 139 L7 139 L7 163 L32 163 Q35 187 38 211 L64 208 Q61 194 58 169 Q60 184 57 163 L103 163 L103 139 Q98 71 81 37 L110 12 L92 -6 ZM116 -29 L116 81 L234 81 L234 -29 L208 -29 L208 -14 L142 -14 L142 -29 L116 -29 ZM114 104 L103 129 Q112 134 121 146 Q139 171 159 211 L186 201 Q158 157 138 131 Q155 132 195 134 Q189 133 207 134 Q205 138 200 145 Q192 159 188 166 L209 177 Q224 155 246 115 Q249 109 251 106 L228 94 Q224 102 219 111 Q158 109 137 107 Q123 107 114 104 ZM142 58 L142 8 L208 8 L208 58 L142 58 ZM79 139 L53 139 Q47 101 39 72 Q43 69 50 63 Q58 57 61 54 Q75 83 79 139 Z" /><glyph glyph-name="uni59D3" unicode="&#x59d3;" d="M127 95 L105 103 Q122 145 127 192 L150 189 L144 158 L170 158 L170 210 L195 210 L195 158 L244 158 L244 134 L195 134 L195 81 L242 81 L242 57 L195 57 L195 3 L249 3 L249 -20 L107 -20 L107 3 L170 3 L170 57 L117 57 L117 81 L170 81 L170 134 L138 134 Q133 115 127 95 ZM92 -4 Q88 -1 80 6 Q72 13 68 17 Q53 -2 23 -27 Q21 -26 14 -19 Q6 -12 4 -11 Q33 9 49 35 L14 67 Q19 88 29 138 L8 138 L8 163 L33 163 Q36 187 38 211 L64 208 Q64 207 63 204 Q60 176 57 163 L105 163 L105 147 Q99 76 80 39 L110 13 L92 -4 ZM80 138 L53 138 Q47 102 39 73 L61 55 Q75 84 80 138 Z" /><glyph glyph-name="uni59D4" unicode="&#x59d4;" d="M8 50 L8 72 L82 72 Q86 77 93 85 Q96 89 97 91 L127 89 L113 72 L248 72 L248 50 L202 50 Q189 28 168 11 Q176 9 191 5 Q222 -2 237 -6 L226 -28 Q184 -16 142 -2 Q100 -22 21 -29 Q19 -25 14 -12 Q12 -8 11 -6 Q72 -3 106 7 L43 25 Q45 28 50 33 Q54 37 65 50 L8 50 ZM13 134 L13 155 L115 155 L115 178 Q100 177 82 177 Q66 177 35 177 Q32 192 30 198 Q153 200 221 203 L225 182 Q206 181 169 180 Q150 179 141 179 L141 155 L243 155 L243 134 L158 134 Q195 111 248 104 Q240 92 237 81 Q172 96 141 125 L141 91 L115 91 L115 124 Q85 96 22 79 Q16 89 9 101 Q63 111 98 134 L13 134 ZM137 19 Q159 32 172 50 L95 50 Q93 48 88 42 Q84 37 81 34 Q114 26 137 19 Z" /><glyph glyph-name="uni5A07" unicode="&#x5a07;" d="M189 -26 L189 66 L211 66 Q183 85 172 117 Q160 87 132 66 L153 66 Q153 54 153 43 Q155 -2 114 -31 Q111 -29 106 -24 Q97 -17 93 -14 Q129 6 128 45 Q128 55 128 62 Q119 55 106 47 Q103 53 96 63 Q93 68 92 70 Q136 91 148 120 L105 120 L105 142 L155 142 Q158 157 158 174 L112 173 Q112 177 111 185 Q110 192 109 196 Q187 198 234 201 L238 178 Q211 177 184 175 Q184 157 181 142 L245 142 L245 120 L194 120 Q210 89 249 74 Q246 67 240 54 Q241 57 238 50 Q236 51 232 53 Q225 57 214 64 L214 -26 L189 -26 ZM86 -2 L64 18 Q50 -1 21 -27 Q19 -24 13 -17 Q8 -10 5 -7 Q32 13 46 34 L12 65 Q23 113 27 140 L8 140 L8 164 L30 164 Q31 172 33 187 Q35 203 36 210 L61 208 Q58 185 55 164 L97 164 L97 141 Q93 75 76 40 L104 16 L86 -2 ZM74 140 L51 140 Q49 128 45 106 Q40 82 38 72 L58 56 Q70 82 74 140 Z" /><glyph glyph-name="uni5A1C" unicode="&#x5a1c;" d="M86 115 L86 137 L100 137 L101 177 L85 177 L85 199 L162 199 Q162 102 160 10 Q159 -21 133 -21 Q124 -22 110 -22 Q110 -21 110 -19 Q109 -11 106 0 Q107 0 111 0 Q120 0 124 0 Q140 -1 139 16 L140 53 L116 53 Q113 9 82 -29 Q78 -25 70 -18 Q67 -15 65 -14 Q92 14 96 53 L85 53 L85 75 L98 75 L99 95 L99 115 L86 115 ZM177 -29 L177 197 L244 197 L244 174 L228 106 Q248 81 247 42 Q248 13 224 8 Q217 7 206 5 Q206 6 202 18 Q199 30 198 31 L198 -29 L177 -29 ZM68 4 L53 20 Q43 -1 20 -25 Q18 -23 14 -17 Q8 -8 5 -5 Q26 14 37 36 Q32 42 20 53 Q14 59 11 62 Q17 99 23 141 L8 141 L8 163 L26 163 Q27 171 29 187 Q30 202 31 210 L54 208 L47 163 L79 163 L79 141 Q76 75 63 42 Q72 33 82 24 L68 4 ZM198 175 L198 31 Q206 31 214 32 Q227 32 226 50 Q227 77 207 103 L223 175 L198 175 ZM60 141 L44 141 Q42 126 37 98 Q34 79 33 70 L46 57 Q57 84 60 141 ZM140 75 L141 115 L120 115 L119 94 Q119 90 118 84 Q118 78 118 75 L140 75 ZM141 177 L121 177 L121 137 L141 137 Q141 159 141 177 Z" /><glyph glyph-name="uni5A25" unicode="&#x5a25;" d="M94 165 Q93 171 91 181 Q90 186 90 188 Q127 191 161 197 L166 174 Q154 173 142 171 L142 137 L175 137 Q175 149 175 172 Q174 196 174 209 L198 209 Q198 163 199 137 L247 137 L247 113 L199 113 Q201 86 202 65 Q216 81 228 100 L247 86 Q228 58 206 34 Q206 31 207 28 Q212 -1 222 0 Q228 0 229 9 Q232 24 233 41 Q242 37 251 35 Q248 13 245 -1 Q239 -29 221 -28 Q195 -29 186 16 Q171 4 155 -6 Q152 -2 147 5 Q143 10 142 12 L142 3 Q143 -24 116 -25 Q105 -25 92 -25 Q90 -13 87 0 Q94 -1 106 -1 Q119 -2 118 9 L118 49 L92 43 L87 68 Q103 71 118 74 L118 113 L91 113 L91 137 L118 137 L118 167 Q114 166 106 166 Q98 165 94 165 ZM76 -3 L56 16 Q45 -1 20 -28 Q14 -19 6 -8 Q27 10 40 34 Q34 41 21 53 Q14 60 10 64 Q18 99 24 139 L8 139 L8 162 L28 162 Q29 170 31 187 Q32 202 33 210 L57 208 L50 162 L86 162 L86 139 Q82 73 67 40 Q71 36 79 29 Q87 21 92 16 L76 -3 ZM168 60 Q160 59 146 56 Q143 55 142 55 L142 14 Q165 28 181 44 Q177 78 176 113 L142 113 L142 79 L167 84 Q167 72 168 60 ZM65 139 L46 139 Q40 101 34 71 Q37 69 42 64 Q48 59 50 56 Q62 91 65 139 ZM227 153 Q214 169 198 184 L214 198 Q220 193 230 184 Q240 174 245 169 L227 153 Z" /><glyph glyph-name="uni5A67" unicode="&#x5a67;" d="M106 -28 L106 95 L236 95 L236 5 Q237 -26 206 -26 Q193 -26 173 -26 Q172 -18 168 -5 Q178 -6 197 -6 Q212 -7 211 7 L211 12 L131 12 L131 -28 L106 -28 ZM20 -27 Q18 -24 13 -17 Q7 -10 5 -7 Q29 11 43 33 Q26 48 11 62 Q20 97 26 140 L8 140 L8 161 L29 161 Q32 185 35 211 L59 208 Q56 184 52 161 L92 161 L92 139 Q88 76 72 38 L102 12 L86 -7 Q74 4 60 16 Q48 -3 20 -27 ZM99 174 L99 192 L158 192 L158 211 L183 211 L183 192 L245 192 L245 174 L183 174 L183 159 L239 159 L239 142 L183 142 L183 127 L249 127 L249 109 L97 109 L97 127 L158 127 L158 142 L105 142 L105 159 L158 159 L158 174 L99 174 ZM36 70 L54 54 Q66 84 69 140 L49 140 Q46 121 39 87 Q37 75 36 70 ZM131 77 L131 61 L211 61 L211 77 L131 77 ZM131 45 L131 29 L211 29 L211 45 L131 45 Z" /><glyph glyph-name="uni5A77" unicode="&#x5a77;" d="M82 -8 L57 17 Q46 -2 19 -27 Q17 -24 12 -17 Q7 -10 5 -7 Q28 12 41 34 L10 65 Q19 98 25 140 L8 140 L8 163 L28 163 Q33 187 34 210 L58 208 Q55 184 51 163 L88 163 L88 139 Q84 72 68 38 L99 9 L82 -8 ZM90 49 L90 89 L249 89 L249 49 L229 49 L229 31 L185 31 L185 0 Q186 -25 159 -25 Q142 -26 124 -26 Q123 -22 121 -14 Q120 -8 119 -4 Q133 -4 147 -4 Q160 -4 159 5 L159 31 L112 31 L112 49 L90 49 ZM111 102 L111 153 L228 153 L228 102 L111 102 ZM93 167 L93 187 L156 187 Q155 192 152 202 Q150 206 150 207 L177 210 L183 187 L248 187 L248 167 L93 167 ZM114 68 L114 51 L225 51 L225 68 L114 68 ZM67 140 L47 140 Q41 103 34 71 L51 55 Q63 82 67 140 ZM135 136 L135 120 L204 120 L204 136 L135 136 Z" /><glyph glyph-name="uni5A9B" unicode="&#x5a9b;" d="M98 122 L98 142 L118 142 L106 166 L127 172 Q130 167 135 155 Q139 147 141 143 L136 142 L164 142 Q160 157 154 170 L176 174 Q182 160 186 145 L172 142 L197 142 Q206 160 213 176 L236 170 Q233 165 229 156 Q224 147 221 142 L243 142 L243 122 L152 122 Q152 113 150 106 L247 106 L247 86 L147 86 Q144 77 143 70 L233 70 L233 48 Q216 22 197 8 Q214 0 250 -4 Q249 -7 246 -12 Q244 -18 240 -27 Q200 -19 176 -4 Q153 -18 107 -29 Q102 -20 96 -9 Q136 -1 155 8 Q141 20 129 38 Q117 14 95 -7 Q89 -1 83 4 L74 -6 Q64 3 56 13 Q41 -6 19 -28 Q13 -18 5 -7 Q27 12 40 31 Q27 47 11 63 Q19 98 25 140 L8 140 L8 162 L28 162 Q29 166 30 175 Q33 198 34 210 L57 208 Q54 184 50 162 L88 162 L88 139 Q85 72 68 36 Q71 33 77 26 Q83 20 86 16 Q113 47 123 86 L94 86 L94 106 L126 106 Q127 109 127 114 Q128 119 128 122 L98 122 ZM98 174 Q98 175 98 176 Q97 185 94 196 Q174 198 239 203 L242 182 Q166 176 98 174 ZM67 140 L47 140 Q41 101 34 70 Q43 62 51 53 Q64 86 67 140 ZM206 49 L147 49 Q159 32 176 20 Q194 32 206 49 Z" /><glyph glyph-name="uni5B50" unicode="&#x5b50;" d="M7 76 L7 101 L116 101 L116 127 L186 172 L29 172 L29 197 L227 197 L227 166 L145 114 L145 101 L249 101 L249 76 L145 76 L145 12 Q146 -24 110 -24 Q90 -25 67 -25 Q65 -10 62 2 Q71 1 96 1 Q117 0 116 21 L116 76 L7 76 Z" /><glyph glyph-name="uni5B57" unicode="&#x5b57;" d="M7 42 L7 67 L119 67 L119 81 L164 106 L50 106 L50 130 L205 130 L205 105 L147 72 L147 67 L249 67 L249 42 L147 42 L147 7 Q148 -26 113 -26 Q88 -26 73 -26 Q72 -22 71 -14 Q69 -4 68 0 Q85 -1 101 -1 Q120 -2 119 15 L119 42 L7 42 ZM16 125 L16 180 L118 180 Q114 190 107 208 L138 212 Q140 207 145 194 Q148 185 150 180 L240 180 L240 125 L213 125 L213 155 L43 155 L43 125 L16 125 Z" /><glyph glyph-name="uni5B59" unicode="&#x5b59;" d="M8 60 L6 89 Q23 92 41 97 L41 135 L72 173 L12 173 L12 198 L102 198 L102 172 L68 127 L68 103 L96 111 Q96 99 97 84 L68 77 L68 9 Q69 -24 37 -24 Q23 -24 12 -24 Q9 -13 8 0 Q10 0 15 0 Q23 0 27 0 Q42 -2 41 15 L41 70 Q36 69 25 65 Q14 62 8 60 ZM122 -25 Q120 -13 117 0 Q129 0 143 0 Q161 -1 160 16 L160 209 L188 209 L188 9 Q189 -24 155 -25 Q136 -25 122 -25 ZM227 33 Q217 76 199 145 L223 150 Q238 96 252 39 L227 33 ZM118 33 Q116 34 113 35 Q101 38 93 40 Q112 102 120 150 L145 145 Q134 92 118 33 Z" /><glyph glyph-name="uni5B5F" unicode="&#x5b5f;" d="M8 -17 L8 4 L31 4 L31 74 L225 74 L225 4 L248 4 L248 -17 L8 -17 ZM11 123 L11 146 L125 146 L125 157 L177 177 L39 177 L39 199 L220 199 L220 175 L153 146 L245 146 L245 123 L153 123 L153 116 Q154 86 123 85 Q109 84 80 84 Q78 94 75 104 Q84 103 110 103 Q126 102 125 117 L125 123 L11 123 ZM199 52 L167 52 L167 4 L199 4 L199 52 ZM57 52 L57 4 L89 4 L89 52 L57 52 ZM113 52 L113 4 L143 4 L143 52 L113 52 Z" /><glyph glyph-name="uni5B63" unicode="&#x5b63;" d="M31 177 Q31 179 30 184 Q29 192 28 198 Q120 198 223 203 L226 182 Q185 181 141 179 L141 156 L243 156 L243 135 L157 135 Q189 113 249 102 Q243 90 238 79 Q170 99 141 126 L141 96 L115 96 L115 126 Q83 97 18 76 Q14 87 6 99 Q67 113 98 135 L12 135 L12 156 L115 156 L115 178 L31 177 ZM7 21 L7 42 L119 42 L119 50 L157 67 L55 67 L55 87 L196 87 L196 67 L148 42 L248 42 L248 21 L146 21 L146 3 Q147 -26 115 -26 Q102 -27 72 -27 Q71 -23 69 -15 Q68 -8 67 -4 Q79 -5 103 -5 Q120 -6 119 8 L119 21 L7 21 Z" /><glyph glyph-name="uni5B66" unicode="&#x5b66;" d="M10 34 L10 59 L121 59 L121 66 L162 91 L52 91 L52 115 L202 115 L202 91 L150 59 L247 59 L247 34 L149 34 L149 5 Q150 -27 115 -27 Q93 -27 76 -27 Q73 -13 70 -1 Q75 -1 86 -1 Q97 -2 103 -2 Q123 -4 121 14 L121 34 L10 34 ZM16 106 L16 161 L166 161 L162 163 Q182 190 194 209 L223 200 Q219 195 212 185 Q200 169 194 161 L240 161 L240 106 L214 106 L214 137 L42 137 L42 106 L16 106 ZM56 163 Q52 169 44 182 Q35 194 31 200 L58 208 Q72 190 84 173 L56 163 ZM121 168 Q119 171 115 179 Q110 186 99 206 L126 211 Q138 193 150 174 L121 168 Z" /><glyph glyph-name="uni5B81" unicode="&#x5b81;" d="M9 78 L9 104 L247 104 L247 78 L148 78 L148 12 Q150 -25 110 -25 Q103 -25 90 -25 Q74 -26 64 -26 Q62 -13 59 0 Q80 0 98 0 Q122 0 120 19 L120 78 L9 78 ZM17 124 L17 178 L118 178 Q116 185 111 199 Q109 205 108 208 L140 212 Q144 196 150 178 L239 178 L239 124 L211 124 L211 152 L45 152 L45 124 L17 124 Z" /><glyph glyph-name="uni5B87" unicode="&#x5b87;" d="M40 106 L40 129 L219 129 L219 106 L147 106 L147 72 L247 72 L247 49 L147 49 L147 12 Q148 -25 110 -25 Q105 -25 93 -25 Q78 -26 71 -26 Q70 -19 67 -8 Q66 -2 65 0 Q78 0 100 0 Q121 -1 120 17 L120 49 L9 49 L9 72 L120 72 L120 106 L40 106 ZM15 133 L15 182 L120 182 Q114 196 109 208 L139 212 Q145 199 151 182 L240 182 L240 132 L213 132 L213 158 L43 158 L43 133 L15 133 Z" /><glyph glyph-name="uni5B89" unicode="&#x5b89;" d="M7 84 L7 110 L82 110 Q93 129 103 150 L133 142 Q129 135 121 121 Q116 114 114 110 L249 110 L249 84 L204 84 Q191 48 165 26 Q175 22 194 14 Q224 2 237 -2 L224 -28 Q173 -5 140 8 Q98 -15 26 -29 Q24 -24 20 -15 Q16 -6 14 -2 Q72 4 109 21 Q95 27 69 38 Q51 45 42 49 Q44 51 47 56 Q55 66 67 84 L7 84 ZM19 130 L19 180 L119 180 Q118 183 115 189 Q110 202 107 207 L137 211 Q141 203 151 181 L146 180 L238 180 L238 130 L210 130 L210 156 L46 156 L46 130 L19 130 ZM80 58 Q106 49 136 37 Q161 55 174 84 L98 84 Q89 70 80 58 Z" /><glyph glyph-name="uni5B9E" unicode="&#x5b9e;" d="M10 40 L10 64 L131 64 L133 72 Q141 108 141 148 L169 148 Q167 97 161 71 L160 64 L246 64 L246 40 L153 40 L150 33 Q183 20 242 -3 L229 -27 Q181 -4 136 13 Q109 -15 25 -29 Q19 -17 11 -3 Q108 7 122 40 L10 40 ZM15 129 L15 183 L118 183 Q117 186 114 193 Q113 197 107 208 L138 212 Q140 208 143 201 Q147 189 150 183 L241 183 L241 129 L214 129 L214 159 L41 159 L41 129 L15 129 ZM90 65 Q62 81 36 93 L49 113 Q55 110 67 104 Q91 92 103 86 L90 65 ZM113 103 Q86 119 61 131 L72 150 Q99 136 125 124 L113 103 Z" /><glyph glyph-name="uni5BA1" unicode="&#x5ba1;" d="M115 -29 L115 16 L59 16 L59 5 L33 5 L33 131 L115 131 L115 152 L141 152 L141 131 L223 131 L223 5 L197 5 L197 16 L141 16 L141 -29 L115 -29 ZM15 140 L15 185 L116 185 Q115 189 112 197 Q109 204 107 208 L137 212 Q139 208 142 200 Q146 190 148 185 L241 185 L241 140 L214 140 L214 162 L41 162 L41 140 L15 140 ZM59 64 L59 38 L115 38 L115 64 L59 64 ZM141 64 L141 38 L197 38 L197 64 L141 64 ZM197 109 L141 109 L141 84 L197 84 L197 109 ZM59 109 L59 84 L115 84 L115 109 L59 109 Z" /><glyph glyph-name="uni5BA3" unicode="&#x5ba3;" d="M39 20 L39 113 L217 113 L217 20 L39 20 ZM15 136 L15 188 L115 188 Q114 190 113 194 Q110 206 109 210 L139 213 L146 188 L241 188 L241 136 L214 136 L214 166 L42 166 L42 136 L15 136 ZM8 -19 L8 1 L249 1 L249 -19 L8 -19 ZM53 130 L53 149 L202 149 L202 130 L53 130 ZM66 59 L66 39 L190 39 L190 59 L66 59 ZM66 94 L66 75 L190 75 L190 94 L66 94 Z" /><glyph glyph-name="uni5BAA" unicode="&#x5baa;" d="M46 80 Q42 83 32 89 Q26 92 23 94 Q48 119 58 151 L85 148 Q80 137 77 128 L120 128 L120 155 L147 155 L147 128 L227 128 L227 105 L147 105 L147 74 L245 74 L245 50 L171 50 L171 14 Q170 -1 188 0 L202 0 Q218 -1 220 12 Q223 22 224 37 Q238 31 249 28 Q249 26 248 22 Q245 6 243 0 Q238 -24 207 -23 L178 -23 Q144 -24 144 8 L144 50 L106 50 Q106 -6 25 -30 Q18 -18 10 -5 Q79 8 79 50 L12 50 L12 74 L120 74 L120 105 L65 105 Q63 103 60 98 Q56 93 46 80 ZM16 140 L16 187 L115 187 L108 209 L140 212 Q141 210 142 206 Q144 201 147 187 L240 187 L240 141 L214 141 L214 164 L42 164 L42 140 L16 140 Z" /></font>
</defs>
</svg>
