<?xml version="1.0" standalone="no"?><!DOCTYPE svg PUBLIC "-//W3C//DTD SVG 1.1//EN" "http://www.w3.org/Graphics/SVG/1.1/DTD/svg11.dtd" ><svg xmlns="http://www.w3.org/2000/svg"><metadata></metadata><defs><font id="fonteditor" horiz-adv-x="256"><font-face font-family="e¹kcQpN­QÆÑ_GBK" font-weight="400" font-stretch="normal" units-per-em="256" panose-1="2 0 0 0 0 0 0 0 0 0" ascent="230" descent="-70" x-height="0" bbox="3 -68 252 216" underline-thickness="0" underline-position="0" unicode-range="U+0028-ff1a" /><missing-glyph horiz-adv-x="256"  /><glyph glyph-name="parenleft" unicode="(" d="M90 -68 L68 -68 Q18 -18 17 63 Q18 145 68 198 L89 198 Q41 140 42 63 Q41 -12 90 -68 Z" /><glyph glyph-name="parenright" unicode=")" d="M10 198 L32 198 Q81 146 82 63 Q81 -17 32 -68 L10 -68 Q59 -12 58 63 Q59 141 10 198 Z" /><glyph glyph-name="hyphen" unicode="-" d="M156 79 L17 79 L17 99 L156 99 L156 79 Z" /><glyph glyph-name="period" unicode="." d="M59 23 L59 -10 L25 -10 L25 23 L59 23 Z" /><glyph glyph-name="zero" unicode="0" d="M84 195 Q155 195 155 90 Q155 -14 84 -14 Q13 -13 12 90 Q14 192 84 195 ZM84 5 Q128 4 127 89 Q128 176 83 174 Q40 173 40 89 Q40 5 84 5 Z" /><glyph glyph-name="one" unicode="1" d="M69 -11 L69 152 Q49 129 7 112 L7 136 Q58 159 76 194 L96 194 L96 -11 L69 -11 Z" /><glyph glyph-name="two" unicode="2" d="M41 10 L149 10 L149 -11 L9 -11 L9 5 Q32 47 74 77 Q125 114 121 136 Q120 173 80 174 Q47 174 37 134 L12 142 Q28 196 85 196 Q145 194 149 140 Q154 104 99 68 Q60 41 41 10 Z" /><glyph glyph-name="three" unicode="3" d="M10 39 L37 45 Q44 5 82 5 Q125 6 126 47 Q125 83 76 83 Q63 83 57 83 L57 104 Q64 104 70 104 Q118 104 119 140 Q119 175 82 175 Q46 175 40 137 L14 143 Q28 195 83 196 Q144 194 147 142 Q146 106 107 95 Q151 86 154 45 Q151 -12 82 -14 Q22 -15 10 39 Z" /><glyph glyph-name="four" unicode="4" d="M129 56 L155 56 L155 36 L129 36 L129 -11 L104 -11 L104 36 L4 36 L4 52 L104 194 L129 194 L129 56 ZM31 56 L104 56 L104 140 Q104 151 104 164 Q104 163 104 163 Q103 159 100 155 Q100 154 98 152 Q95 148 93 145 Q86 135 67 108 Q67 107 65 106 Q64 103 60 97 Q51 85 37 65 Q32 57 31 56 Z" /><glyph glyph-name="five" unicode="5" d="M11 40 L37 46 Q44 5 83 5 Q126 8 128 54 Q126 100 83 102 Q55 101 40 80 L19 81 L30 191 L144 191 L144 169 L52 169 L45 104 Q63 122 90 122 Q151 119 155 56 Q153 -12 84 -14 Q24 -14 11 40 Z" /><glyph glyph-name="seven" unicode="7" d="M76 -11 L47 -11 Q59 75 122 169 L13 169 L13 191 L153 191 L153 172 Q84 79 76 -11 Z" /><glyph glyph-name="nine" unicode="9" d="M16 32 L41 37 Q50 5 79 5 Q129 4 129 89 Q112 60 74 59 Q15 63 12 125 Q16 193 81 196 Q156 197 155 95 Q155 -14 78 -14 Q27 -13 16 32 ZM128 121 Q126 173 81 175 Q40 173 38 127 Q40 82 80 80 Q125 82 128 121 Z" /><glyph glyph-name="colon" unicode=":" d="M58 -8 L25 -8 L25 25 L58 25 L58 -8 ZM58 99 L25 99 L25 134 L58 134 L58 99 Z" /><glyph glyph-name="C" unicode="c" d="M194 135 L167 128 Q151 171 109 172 Q47 167 43 90 Q46 12 108 7 Q158 7 169 61 L197 53 Q181 -13 109 -14 Q18 -9 14 89 Q19 190 110 195 Q173 193 194 135 Z" /><glyph glyph-name="D" unicode="d" d="M91 -11 L22 -11 L22 192 L91 192 Q191 190 193 91 Q196 -14 91 -11 ZM90 169 L49 169 L49 10 L90 10 Q165 10 165 90 Q163 167 90 169 Z" /><glyph glyph-name="G" unicode="g" d="M205 99 L205 24 Q183 -14 116 -14 Q19 -9 15 90 Q20 190 113 195 Q183 194 204 139 L177 130 Q162 172 112 172 Q48 167 44 89 Q48 12 116 7 Q160 8 180 33 L180 76 L112 76 L112 99 L205 99 Z" /><glyph glyph-name="a" unicode="a" d="M156 -11 L131 -11 Q123 -2 123 15 Q105 -13 59 -14 Q13 -12 11 26 Q12 67 65 73 Q114 80 122 89 Q125 122 84 120 Q48 120 41 92 L16 97 Q27 141 85 140 Q151 143 148 83 Q148 55 148 20 Q147 3 156 -11 ZM124 51 L124 72 Q112 61 78 57 Q35 51 37 27 Q36 4 70 5 Q120 7 124 51 Z" /><glyph glyph-name="e" unicode="e" d="M128 34 L156 29 Q141 -14 86 -14 Q13 -11 10 60 Q13 137 83 140 Q155 139 156 60 Q156 56 156 54 L38 54 Q40 7 85 5 Q120 5 128 34 ZM38 72 L129 72 Q127 118 84 120 Q41 118 38 72 Z" /><glyph glyph-name="h" unicode="h" d="M149 -11 L122 -11 L122 78 Q123 120 87 119 Q48 117 45 72 L45 -11 L19 -11 L19 198 L45 198 L45 110 Q63 139 96 140 Q150 141 149 82 L149 -11 Z" /><glyph glyph-name="i" unicode="i" d="M18 -11 L18 136 L45 136 L45 -11 L18 -11 ZM18 165 L18 194 L45 194 L45 165 L18 165 Z" /><glyph glyph-name="k" unicode="k" d="M91 79 L156 -11 L124 -11 L74 63 L45 36 L45 -11 L18 -11 L18 197 L45 197 L45 66 L117 136 L152 136 L91 79 Z" /><glyph glyph-name="m" unicode="m" d="M232 -11 L205 -11 L205 78 Q206 120 174 119 Q140 117 138 77 L138 -11 L112 -11 L112 78 Q113 120 80 119 Q46 117 45 76 L45 -11 L18 -11 L18 136 L45 136 L45 110 Q58 139 91 140 Q127 140 136 107 Q148 139 184 140 Q232 141 232 82 L232 -11 Z" /><glyph glyph-name="n" unicode="n" d="M149 -11 L123 -11 L123 77 Q124 120 87 119 Q50 116 45 76 L45 -11 L19 -11 L19 136 L45 136 L45 109 Q63 138 96 140 Q150 141 149 81 L149 -11 Z" /><glyph glyph-name="s" unicode="s" d="M134 101 L108 96 Q102 121 74 121 Q42 120 41 98 Q38 81 78 74 Q81 74 86 72 Q94 71 98 70 Q142 60 140 28 Q139 -14 78 -14 Q19 -16 9 30 L35 34 Q42 4 77 4 Q113 5 114 29 Q116 46 83 52 Q74 55 63 57 Q12 67 14 97 Q17 138 72 140 Q124 140 134 101 Z" /><glyph glyph-name="z" unicode="z" d="M139 -10 L5 -10 L5 5 L100 116 L12 116 L12 136 L135 136 L135 120 L38 8 L139 8 L139 -10 Z" /><glyph glyph-name="quotedblleft" unicode="&#x201c;" d="M187 163 L205 163 L205 128 L172 128 Q172 136 172 158 Q171 196 202 214 L211 204 Q186 188 187 163 ZM154 214 L163 204 Q139 188 139 163 L158 163 L158 128 L124 128 Q124 136 124 158 Q123 196 154 214 Z" /><glyph glyph-name="quotedblright" unicode="&#x201d;" d="M54 127 L46 138 Q70 154 70 179 L51 179 L51 214 L85 214 Q85 206 85 184 Q86 147 54 127 ZM102 127 L93 138 Q118 154 117 179 L99 179 L99 214 L133 214 Q133 206 133 184 Q134 148 102 127 Z" /><glyph glyph-name="uni3001" unicode="&#x3001;" d="M109 -4 L90 -21 L37 37 L54 52 L109 -4 Z" /><glyph glyph-name="uni3002" unicode="&#x3002;" d="M39 15 Q42 51 78 54 Q113 50 117 15 Q114 -18 78 -22 Q42 -19 39 15 ZM53 15 Q55 -6 78 -8 Q100 -6 102 15 Q100 37 78 39 Q55 37 53 15 Z" /><glyph glyph-name="uni300A" unicode="&#x300a;" d="M150 216 L99 90 L150 -35 L130 -35 L79 90 L130 216 L150 216 ZM191 216 L141 90 L192 -35 L172 -35 L121 90 L171 216 L191 216 Z" /><glyph glyph-name="uni300B" unicode="&#x300b;" d="M125 216 L176 90 L125 -35 L105 -35 L156 90 L105 216 L125 216 ZM84 216 L135 90 L84 -35 L63 -35 L115 90 L64 216 L84 216 Z" /><glyph glyph-name="uni4E00" unicode="&#x4e00;" d="M6 82 L6 108 L249 108 L249 82 L6 82 Z" /><glyph glyph-name="uni4E03" unicode="&#x4e03;" d="M11 90 L8 114 L88 125 L88 209 L114 209 L114 128 L244 145 L247 122 L114 104 L114 29 Q112 1 142 3 L186 3 Q209 2 212 24 Q214 32 217 59 Q222 57 243 50 Q242 42 239 27 Q237 17 236 11 Q230 -20 189 -19 L134 -19 Q87 -20 88 23 L88 100 L11 90 Z" /><glyph glyph-name="uni4E07" unicode="&#x4e07;" d="M11 169 L11 192 L246 192 L246 169 L105 169 Q105 153 103 124 Q103 125 103 121 L218 121 Q217 111 216 91 Q213 39 212 23 Q210 -23 165 -22 Q148 -23 119 -23 Q117 -10 114 0 Q136 0 157 0 Q186 -2 188 30 Q188 32 188 36 Q191 76 191 98 L101 98 Q94 19 26 -29 Q18 -21 8 -11 Q76 34 77 114 Q79 141 80 169 L11 169 Z" /><glyph glyph-name="uni4E09" unicode="&#x4e09;" d="M25 164 L25 188 L230 188 L230 164 L25 164 ZM9 -11 L9 12 L246 12 L246 -11 L9 -11 ZM36 79 L36 103 L219 103 L219 79 L36 79 Z" /><glyph glyph-name="uni4E0A" unicode="&#x4e0a;" d="M9 -15 L9 7 L103 7 L103 207 L129 207 L129 135 L228 135 L228 111 L129 111 L129 7 L247 7 L247 -15 L9 -15 Z" /><glyph glyph-name="uni4E0B" unicode="&#x4e0b;" d="M9 169 L9 193 L247 193 L247 169 L130 169 L130 107 L145 125 Q191 99 234 72 L218 50 Q179 76 130 106 L130 -27 L104 -27 L104 169 L9 169 Z" /><glyph glyph-name="uni4E0D" unicode="&#x4e0d;" d="M14 168 L14 191 L244 191 L244 168 L155 168 Q140 143 123 121 L140 121 L140 -29 L114 -29 L114 110 Q78 68 22 30 Q21 31 19 34 Q10 47 6 51 Q90 104 125 168 L14 168 ZM230 36 Q182 75 151 96 L167 113 Q176 107 194 94 Q231 68 248 56 L230 36 Z" /><glyph glyph-name="uni4E0E" unicode="&#x4e0e;" d="M118 -25 Q117 -19 115 -7 Q114 -2 113 0 Q136 -1 164 -1 Q199 -3 200 24 Q203 59 205 94 L42 94 L52 210 L77 210 L74 175 L246 175 L246 153 L72 153 L69 116 L231 116 Q230 92 226 37 Q225 26 225 21 Q224 -25 172 -24 Q151 -25 118 -25 ZM7 36 L7 59 L182 59 L182 36 L7 36 Z" /><glyph glyph-name="uni4E13" unicode="&#x4e13;" d="M22 159 L22 180 L92 180 Q100 197 104 211 L131 210 L119 180 L234 180 L234 159 L111 159 Q109 154 104 144 Q100 134 97 129 L249 129 L249 109 L88 109 Q85 104 81 95 Q76 85 73 80 L223 80 L223 57 L159 6 L199 -8 L185 -30 Q180 -28 170 -24 Q86 12 46 27 L58 47 Q64 44 78 39 Q92 33 134 16 L191 59 L46 59 L46 80 Q48 84 52 92 Q58 102 61 109 L8 109 L8 129 L70 129 Q73 134 77 144 Q82 154 84 159 L22 159 Z" /><glyph glyph-name="uni4E16" unicode="&#x4e16;" d="M9 128 L9 150 L38 150 L38 197 L62 197 L62 150 L107 150 L107 208 L130 208 L130 150 L190 150 L190 208 L213 208 L213 150 L246 150 L246 128 L213 128 L213 42 L107 42 L107 128 L62 128 L62 2 L242 2 L242 -19 L38 -19 L38 128 L9 128 ZM130 128 L130 64 L190 64 L190 128 L130 128 Z" /><glyph glyph-name="uni4E1A" unicode="&#x4e1a;" d="M8 -15 L8 6 L83 6 L83 206 L107 206 L107 6 L148 6 L148 206 L172 206 L172 6 L247 6 L247 -15 L8 -15 ZM200 52 L179 61 Q202 112 219 161 L241 153 Q226 111 200 52 ZM52 52 Q34 105 15 154 L36 161 Q47 136 66 83 Q71 67 74 60 L52 52 Z" /><glyph glyph-name="uni4E1C" unicode="&#x4e1c;" d="M10 154 L10 176 L74 176 Q83 193 91 210 L118 207 Q111 192 102 176 L246 176 L246 154 L90 154 Q73 122 55 95 L124 95 L124 140 L149 140 L149 95 L235 95 L235 73 L149 73 L149 11 Q151 -26 113 -25 Q105 -26 78 -26 Q76 -13 73 -2 Q84 -3 104 -3 Q125 -4 124 16 L124 73 L28 73 L28 98 Q46 124 62 154 L10 154 ZM23 -17 Q17 -11 5 -1 Q38 27 64 57 L83 43 Q53 10 23 -17 ZM232 -13 Q229 -10 221 -3 Q188 26 170 40 L186 56 Q212 36 250 3 L232 -13 Z" /><glyph glyph-name="uni4E24" unicode="&#x4e24;" d="M62 12 Q54 20 45 28 Q81 65 82 121 L44 121 L44 -26 L22 -26 L22 141 L82 141 Q83 152 83 174 L8 174 L8 195 L247 195 L247 174 L174 174 Q174 158 174 141 L233 141 L233 7 Q234 -25 202 -24 Q185 -25 167 -25 Q166 -21 165 -15 Q163 -7 162 -3 Q165 -3 172 -3 Q185 -4 192 -3 Q212 -4 211 10 L211 121 L172 120 Q170 102 167 86 Q178 76 196 58 Q205 48 210 43 L195 25 Q182 41 162 63 Q150 31 127 5 Q119 13 110 20 Q148 62 150 121 L104 121 Q103 106 101 93 Q107 87 119 77 Q127 70 132 66 L118 48 Q107 61 95 71 Q87 43 62 12 ZM105 174 L105 141 L151 141 L152 174 L105 174 Z" /><glyph glyph-name="uni4E25" unicode="&#x4e25;" d="M12 176 L12 197 L246 197 L246 176 L170 176 L170 109 L246 109 L246 89 L51 89 L51 69 Q53 6 25 -29 L5 -16 Q30 14 28 70 L28 109 L90 109 L90 176 L12 176 ZM112 176 L112 109 L148 109 L148 176 L112 176 ZM200 118 L183 130 Q201 149 214 168 L232 156 Q229 152 223 145 Q210 128 200 118 ZM58 119 Q54 124 47 134 Q35 150 29 157 L47 169 Q50 165 56 157 Q62 150 76 131 L58 119 Z" /><glyph glyph-name="uni4E2A" unicode="&#x4e2a;" d="M233 87 Q163 126 129 177 Q92 123 21 83 Q12 98 6 105 Q89 150 121 210 L149 208 Q146 202 142 197 Q178 145 249 110 Q243 102 233 87 ZM114 -29 L114 119 L141 119 L141 -29 L114 -29 Z" /><glyph glyph-name="uni4E2D" unicode="&#x4e2d;" d="M21 41 L21 161 L115 161 L115 211 L140 211 L140 161 L234 161 L234 42 L210 42 L210 55 L140 55 L140 -30 L115 -30 L115 55 L45 55 L45 41 L21 41 ZM210 139 L140 139 L140 78 L210 78 L210 139 ZM45 139 L45 78 L115 78 L115 139 L45 139 Z" /><glyph glyph-name="uni4E30" unicode="&#x4e30;" d="M18 151 L18 174 L115 174 L115 210 L140 210 L140 174 L238 174 L238 151 L140 151 L140 112 L223 112 L223 90 L140 90 L140 51 L246 51 L246 28 L140 28 L140 -29 L115 -29 L115 28 L9 28 L9 51 L115 51 L115 90 L32 90 L32 112 L115 112 L115 151 L18 151 Z" /><glyph glyph-name="uni4E39" unicode="&#x4e39;" d="M7 71 L7 93 L48 93 Q48 101 48 108 L48 200 L213 200 L213 93 L249 93 L249 71 L213 71 L213 10 Q215 -23 178 -24 Q158 -24 140 -24 Q139 -18 137 -7 Q136 -2 135 0 Q149 -1 168 -1 Q191 -3 189 17 L189 71 L71 71 Q70 10 37 -30 Q32 -27 23 -21 Q17 -17 14 -15 Q47 18 47 71 L7 71 ZM72 107 Q72 100 72 93 L189 93 L189 178 L72 178 L72 107 ZM138 106 Q122 128 103 150 L120 163 Q124 158 132 149 Q140 141 157 120 L138 106 Z" /><glyph glyph-name="uni4E3A" unicode="&#x4e3a;" d="M28 -30 Q27 -28 24 -25 Q15 -14 10 -9 Q96 42 102 127 L15 127 L15 149 L105 149 Q107 178 108 211 L133 211 Q133 196 131 166 Q130 155 130 149 L235 149 Q234 132 232 91 Q230 43 229 25 Q228 -24 181 -23 Q159 -24 133 -24 Q132 -9 127 0 Q148 0 173 0 Q205 -2 205 31 Q207 52 209 116 Q209 123 209 127 L127 127 Q120 26 28 -30 ZM167 40 Q149 62 129 81 L146 95 Q161 83 186 57 L167 40 ZM66 156 Q51 175 32 193 L49 207 Q55 202 67 190 Q79 179 85 173 L66 156 Z" /><glyph glyph-name="uni4E3B" unicode="&#x4e3b;" d="M19 144 L19 166 L236 166 L236 144 L140 144 L140 89 L225 89 L225 66 L140 66 L140 5 L246 5 L246 -16 L9 -16 L9 5 L115 5 L115 66 L30 66 L30 89 L115 89 L115 144 L19 144 ZM123 168 Q119 181 107 205 L132 211 Q139 195 148 174 L123 168 Z" /><glyph glyph-name="uni4E3D" unicode="&#x4e3d;" d="M22 -29 L22 151 L114 151 L114 4 Q115 -26 85 -25 Q73 -26 60 -26 Q60 -23 58 -15 Q57 -8 56 -4 Q58 -4 65 -4 Q75 -5 79 -5 Q94 -5 93 7 L93 130 L43 130 L43 -29 L22 -29 ZM139 -29 L139 151 L234 151 L234 2 Q235 -26 206 -25 Q198 -26 179 -26 Q179 -23 177 -17 Q176 -9 175 -5 Q183 -6 199 -6 Q214 -6 213 5 L213 130 L160 130 L160 -29 L139 -29 ZM8 175 L8 197 L247 197 L247 175 L8 175 ZM72 40 Q59 70 45 96 L61 103 Q62 102 63 100 Q80 69 90 48 L72 40 ZM192 41 Q181 67 164 99 L181 106 Q195 80 209 50 L192 41 Z" /><glyph glyph-name="uni4E49" unicode="&#x4e49;" d="M233 -26 Q165 -4 128 25 Q97 -1 22 -29 L7 -5 Q73 14 110 42 Q65 89 37 184 L60 192 Q83 104 128 60 Q175 107 192 193 L217 187 Q196 93 146 43 Q184 13 247 -1 Q245 -5 240 -14 Q235 -23 233 -26 ZM127 144 Q114 179 101 203 L122 211 Q132 194 150 153 L127 144 Z" /><glyph glyph-name="uni4E4B" unicode="&#x4e4b;" d="M15 -21 L5 3 Q14 13 32 31 Q43 41 51 41 Q53 41 55 40 Q57 40 58 40 Q134 85 194 143 L24 143 L24 165 L122 165 Q118 175 109 195 Q106 202 104 205 L130 210 Q138 193 149 167 L142 165 L226 165 L226 141 Q161 74 77 24 Q95 3 133 2 Q169 1 249 3 Q244 -8 242 -20 Q195 -20 174 -20 Q148 -19 128 -18 Q81 -18 56 12 Q51 16 46 12 Q31 -2 15 -21 Z" /><glyph glyph-name="uni4E50" unicode="&#x4e50;" d="M24 81 L37 191 Q119 191 220 200 L227 178 Q126 170 59 169 L50 102 L119 102 L119 153 L144 153 L144 102 L236 102 L236 81 L144 81 L144 9 Q146 -25 111 -25 Q101 -26 77 -26 Q74 -11 72 -1 Q85 -2 103 -2 Q120 -3 119 14 L119 81 L24 81 ZM26 -16 Q22 -12 9 -2 Q8 -1 7 0 Q33 24 64 67 L84 55 Q54 13 26 -16 ZM228 -15 Q195 25 170 54 L189 67 Q196 59 209 43 Q237 12 249 -1 L228 -15 Z" /><glyph glyph-name="uni4E5D" unicode="&#x4e5d;" d="M24 -28 L6 -8 Q80 34 78 119 L79 136 L14 136 L14 159 L80 159 Q81 178 81 210 L106 210 Q106 188 105 159 L186 159 L186 17 Q184 0 200 1 L208 1 Q222 1 223 15 Q225 24 227 56 Q241 52 250 49 Q249 43 248 33 Q246 12 245 4 Q240 -23 210 -22 L192 -22 Q158 -24 160 12 L160 136 L104 136 L103 118 Q103 19 24 -28 Z" /><glyph glyph-name="uni4E5F" unicode="&#x4e5f;" d="M116 24 L116 122 L62 109 L62 25 Q61 -1 88 0 L193 0 Q219 0 221 18 Q224 34 226 52 Q232 50 243 47 Q248 46 250 45 Q247 24 243 6 Q239 -21 198 -20 L80 -20 Q38 -21 39 18 L39 103 L9 96 L6 118 L39 126 L39 182 L62 182 L62 131 L116 144 L116 210 L140 210 L140 150 L226 170 Q225 150 223 113 Q222 95 222 87 Q221 47 186 48 Q177 47 158 47 Q157 54 154 66 Q153 69 153 70 Q163 70 179 70 Q200 68 199 90 Q200 99 201 121 Q202 136 202 143 L140 128 L140 24 L116 24 Z" /><glyph glyph-name="uni4E7E" unicode="&#x4e7e;" d="M8 10 L8 29 L52 29 L52 53 L16 53 L16 147 L52 147 L52 168 L9 168 L9 187 L52 187 L52 210 L73 210 L73 187 L114 187 L114 168 L73 168 L73 147 L108 147 L108 53 L73 53 L73 29 L115 29 L115 10 L73 10 L73 -28 L52 -28 L52 10 L8 10 ZM157 -22 Q128 -20 126 3 Q126 17 135 29 Q155 58 198 99 L134 99 L134 120 L228 120 L228 98 Q189 63 155 20 Q150 14 150 8 Q151 -1 166 -1 L200 -1 Q222 -2 225 16 Q228 31 229 51 Q240 47 250 44 Q246 16 244 6 Q238 -22 205 -22 L157 -22 ZM129 115 Q124 119 115 126 Q112 128 110 129 Q136 166 149 209 L173 206 Q171 202 169 195 Q164 184 162 178 L246 178 L246 156 L151 156 Q147 148 138 130 Q132 120 129 115 ZM35 93 L35 70 L90 70 L90 93 L35 93 ZM35 130 L35 108 L90 108 L90 130 L35 130 Z" /><glyph glyph-name="uni4E86" unicode="&#x4e86;" d="M61 -24 Q59 -10 56 0 Q74 0 97 0 Q122 -1 120 23 L120 118 L201 172 L16 172 L16 194 L235 194 L235 167 L146 106 L146 17 Q148 -24 106 -23 L61 -24 Z" /><glyph glyph-name="uni4E89" unicode="&#x4e89;" d="M31 34 L31 53 L111 53 L111 80 L8 80 L8 100 L111 100 L111 127 L41 127 L41 140 Q38 138 32 133 Q25 128 22 125 Q15 134 7 142 Q52 172 79 212 L105 208 Q99 199 91 190 L191 190 L191 172 L166 146 L219 146 L219 100 L249 100 L249 80 L219 80 L219 20 L196 20 L196 34 L135 34 L135 10 Q137 -25 99 -25 Q79 -26 62 -26 Q61 -14 58 -3 Q69 -4 91 -4 Q112 -5 111 15 L111 34 L31 34 ZM161 170 L74 170 Q63 158 48 146 L137 146 L161 170 ZM135 80 L135 53 L196 53 L196 80 L135 80 ZM196 127 L135 127 L135 100 L196 100 L196 127 Z" /><glyph glyph-name="uni4E8B" unicode="&#x4e8b;" d="M8 174 L8 190 L116 190 L116 211 L139 211 L139 190 L247 190 L247 174 L139 174 L139 159 L220 159 L220 112 L139 112 L139 97 L225 97 L225 63 L249 63 L249 48 L225 48 L225 1 L202 1 L202 14 L139 14 L139 8 Q141 -25 106 -25 L70 -26 Q68 -15 65 -6 Q81 -6 98 -6 Q117 -7 116 10 L116 14 L22 14 L22 29 L116 29 L116 48 L8 48 L8 63 L116 63 L116 82 L24 82 L24 97 L116 97 L116 112 L36 112 L36 159 L116 159 L116 174 L8 174 ZM202 82 L139 82 L139 63 L202 63 L202 82 ZM139 48 L139 29 L202 29 L202 48 L139 48 ZM198 145 L139 145 L139 126 L198 126 L198 145 ZM58 145 L58 126 L116 126 L116 145 L58 145 Z" /><glyph glyph-name="uni4E8C" unicode="&#x4e8c;" d="M29 154 L29 179 L226 179 L226 154 L29 154 ZM11 -2 L11 21 L244 21 L244 -2 L11 -2 Z" /><glyph glyph-name="uni4E8E" unicode="&#x4e8e;" d="M28 171 L28 194 L228 194 L228 171 L144 171 L144 110 L247 110 L247 86 L144 86 L144 12 Q146 -25 108 -25 Q88 -25 66 -25 Q65 -21 64 -13 Q62 -4 61 0 Q71 -1 98 -1 Q120 -2 118 18 L118 86 L8 86 L8 110 L118 110 L118 171 L28 171 Z" /><glyph glyph-name="uni4E94" unicode="&#x4e94;" d="M16 174 L16 196 L238 196 L238 174 L116 174 L106 114 L210 114 L210 4 L249 4 L249 -16 L7 -16 L7 4 L61 4 L76 91 L22 91 L22 114 L80 114 L91 174 L16 174 ZM185 91 L102 91 L87 4 L185 4 L185 91 Z" /><glyph glyph-name="uni4EA4" unicode="&#x4ea4;" d="M233 -28 Q162 -10 128 14 Q93 -10 20 -29 L9 -5 Q79 9 109 30 Q87 50 67 88 L88 99 Q108 63 128 46 Q149 67 165 100 L188 90 Q169 53 147 30 Q183 6 246 -3 Q244 -7 240 -14 Q236 -23 233 -28 ZM11 154 L11 176 L120 176 Q119 179 117 183 Q113 193 106 205 L133 210 Q141 196 147 179 L139 176 L245 176 L245 154 L11 154 ZM26 73 Q24 75 21 80 Q14 90 11 94 Q53 117 87 147 L104 129 Q68 100 26 73 ZM228 77 Q196 101 152 129 L167 147 Q174 143 187 134 Q223 111 244 99 L228 77 Z" /><glyph glyph-name="uni4EB2" unicode="&#x4eb2;" d="M8 101 L8 121 L81 121 Q77 128 66 144 Q62 151 60 154 L82 161 Q85 157 90 149 Q101 132 106 125 L98 121 L150 121 Q154 127 162 139 Q171 155 176 161 L198 154 Q196 151 192 145 Q182 129 176 121 L248 121 L248 101 L142 101 L142 71 L236 71 L236 51 L142 51 L142 10 Q144 -26 107 -25 Q93 -26 76 -26 Q74 -15 71 -3 Q86 -4 100 -4 Q120 -5 119 13 L119 51 L20 51 L20 71 L119 71 L119 101 L8 101 ZM20 163 L20 183 L120 183 L111 208 L137 211 Q143 197 146 183 L236 183 L236 163 L20 163 ZM25 -16 Q23 -14 19 -9 Q14 -1 10 2 Q40 19 70 44 L86 28 Q69 14 35 -9 Q28 -14 25 -16 ZM227 -15 Q208 -2 164 25 L178 42 Q208 24 241 1 L227 -15 Z" /><glyph glyph-name="uni4EBA" unicode="&#x4eba;" d="M230 -24 Q142 22 128 113 Q114 24 24 -27 Q22 -24 17 -18 Q10 -9 8 -5 Q104 46 112 147 Q114 170 114 207 L140 207 L139 172 Q149 40 248 -1 Q247 -2 246 -3 Q234 -18 230 -24 Z" /><glyph glyph-name="uni4EC5" unicode="&#x4ec5;" d="M235 -27 Q187 0 162 25 Q139 1 84 -29 Q82 -26 77 -18 Q71 -10 69 -7 Q117 16 146 44 Q111 86 95 168 L108 170 L87 170 L87 192 L234 192 L234 171 Q215 88 178 43 Q206 15 250 -4 Q249 -6 246 -9 Q239 -20 235 -27 ZM12 70 Q11 75 9 85 Q6 96 5 100 Q39 147 59 210 L82 204 Q73 175 60 148 L60 -28 L37 -28 L37 106 Q30 95 15 74 Q13 71 12 70 ZM209 170 L118 170 Q133 99 162 61 Q193 98 209 170 Z" /><glyph glyph-name="uni4EE3" unicode="&#x4ee3;" d="M81 102 L78 125 L133 131 Q130 165 129 210 L153 210 Q153 170 156 134 L243 144 L245 121 L157 111 Q164 50 178 22 Q190 -4 206 -3 Q218 -4 222 13 Q223 17 225 27 Q227 40 228 45 Q233 43 243 40 Q247 39 249 38 Q248 25 242 2 Q235 -27 208 -27 Q177 -27 157 9 Q139 45 134 108 L81 102 ZM40 -29 L40 108 Q27 87 11 68 Q10 73 8 82 Q6 92 5 96 Q41 145 62 209 L85 202 Q75 175 63 149 L63 -29 L40 -29 ZM214 150 Q213 151 211 153 Q187 175 173 186 L188 201 Q207 187 230 166 L214 150 Z" /><glyph glyph-name="uni4EE5" unicode="&#x4ee5;" d="M230 -23 Q216 -4 190 27 Q186 30 185 32 Q166 1 106 -30 Q103 -27 97 -18 Q93 -11 90 -8 Q191 32 188 136 Q190 174 190 204 L214 204 Q214 161 212 136 Q209 84 197 55 Q208 43 229 18 Q244 2 250 -4 L230 -23 ZM31 -14 L14 5 Q25 15 24 31 L24 200 L49 200 L49 29 Q80 49 112 73 Q112 71 113 67 Q116 51 118 45 Q86 24 48 0 Q44 -3 36 -9 Q33 -12 31 -14 ZM120 135 Q103 168 85 198 L105 209 Q126 178 143 147 L120 135 Z" /><glyph glyph-name="uni4EEC" unicode="&#x4eec;" d="M163 -26 Q160 -14 158 -1 Q174 -2 192 -2 Q215 -4 213 17 L213 168 L156 168 L156 191 L238 191 L238 12 Q239 -26 203 -26 L163 -26 ZM12 66 L6 98 Q39 150 54 208 L78 202 Q77 199 75 193 Q68 174 58 150 L58 -29 L35 -29 L35 104 Q24 84 12 66 ZM93 -26 L93 150 L117 150 L117 -26 L93 -26 ZM123 157 Q108 179 94 196 L113 208 Q133 186 144 171 L123 157 Z" /><glyph glyph-name="uni4F0A" unicode="&#x4f0a;" d="M72 113 L72 133 L126 133 Q126 159 126 175 L89 175 L89 195 L227 195 L227 133 L249 133 L249 113 L227 113 L227 35 L204 35 L204 52 L144 52 Q138 7 88 -29 Q85 -27 79 -21 Q73 -15 70 -12 Q112 16 120 52 L79 52 L79 72 L124 72 Q125 77 125 90 Q126 102 126 108 L126 113 L72 113 ZM12 69 Q11 71 10 77 Q7 92 5 99 Q41 153 56 209 L79 203 Q74 186 60 153 Q58 148 57 146 L57 -28 L35 -28 L35 104 Q30 95 19 79 Q14 72 12 69 ZM149 105 Q149 99 148 89 Q148 77 147 72 L204 72 L204 113 L149 113 Q149 110 149 105 ZM204 175 L150 175 L149 133 L204 133 L204 175 Z" /><glyph glyph-name="uni4F18" unicode="&#x4f18;" d="M76 123 L76 145 L127 145 Q128 176 128 209 L152 209 Q152 198 151 177 Q151 155 150 145 L243 145 L243 123 L149 123 L149 120 Q145 30 84 -29 L66 -11 Q123 40 125 120 L125 123 L76 123 ZM12 69 Q9 86 6 99 Q43 151 60 209 L84 202 Q74 172 60 145 L60 -28 L37 -28 L37 104 Q25 86 12 69 ZM189 -21 Q159 -21 159 8 L159 121 L182 121 L182 13 Q181 0 195 0 L207 0 Q221 0 223 16 Q223 17 223 19 Q226 40 227 54 Q238 49 249 46 Q246 20 243 5 Q239 -21 209 -21 L189 -21 ZM210 155 Q190 173 172 187 L186 202 Q207 187 226 172 L210 155 Z" /><glyph glyph-name="uni4F1A" unicode="&#x4f1a;" d="M14 51 L14 73 L241 73 L241 51 L120 51 Q93 21 72 1 Q93 2 149 3 Q167 4 176 4 Q166 17 152 29 L169 42 Q179 33 200 13 Q219 -5 229 -14 L210 -29 L195 -13 Q109 -16 73 -19 Q70 -19 64 -20 Q52 -20 45 -22 L33 0 Q45 4 54 13 Q74 31 90 51 L14 51 ZM235 104 Q162 139 130 184 Q89 137 20 101 Q12 113 6 122 Q83 158 122 212 L150 209 L143 201 Q179 154 249 126 Q239 112 235 104 ZM62 104 L62 125 L194 125 L194 104 L62 104 Z" /><glyph glyph-name="uni4F1F" unicode="&#x4f1f;" d="M177 0 Q176 3 174 14 Q173 18 172 20 Q177 20 185 19 Q193 19 197 19 Q214 19 215 33 Q215 38 216 49 Q216 59 216 63 L162 63 L162 -29 L138 -29 L138 63 L73 63 L73 84 L138 84 L138 112 L86 112 L86 133 L138 133 L138 159 L80 159 L80 180 L138 180 L138 210 L162 210 L162 180 L238 180 L238 159 L162 159 L162 133 L228 133 L228 112 L162 112 L162 84 L239 84 Q239 62 237 30 Q238 0 201 0 Q190 0 177 0 ZM13 65 Q12 69 10 77 Q7 89 5 95 Q36 144 56 209 L79 204 Q70 176 60 152 L60 -28 L37 -28 L37 104 Q25 83 13 65 Z" /><glyph glyph-name="uni4F20" unicode="&#x4f20;" d="M88 156 L88 176 L133 176 Q138 193 141 209 L166 208 L157 176 L240 176 L240 156 L152 156 L143 125 L249 125 L249 105 L137 105 Q134 90 129 76 L234 76 L234 54 L183 5 L216 -10 L203 -30 Q156 -4 92 25 L103 43 L162 15 L205 56 L104 56 L104 77 Q105 80 107 85 Q112 98 113 105 L76 105 L76 125 L119 125 Q121 130 124 141 Q127 151 128 156 L88 156 ZM13 66 Q12 73 8 86 Q7 91 6 94 Q36 139 57 209 L80 203 Q79 200 76 192 Q71 177 61 151 L61 -28 L38 -28 L38 105 Q26 84 13 66 Z" /><glyph glyph-name="uni4F46" unicode="&#x4f46;" d="M95 40 L95 196 L232 196 L232 40 L95 40 ZM13 67 Q12 73 10 83 Q7 93 6 98 Q38 146 56 209 L80 202 Q70 172 58 145 L58 -29 L35 -29 L35 100 Q24 83 13 67 ZM119 107 L119 61 L208 61 L208 107 L119 107 ZM119 175 L119 129 L208 129 L208 175 L119 175 ZM76 -15 L76 5 L249 5 L249 -15 L76 -15 Z" /><glyph glyph-name="uni4F4D" unicode="&#x4f4d;" d="M76 -18 L76 2 L162 2 Q187 70 205 130 L229 123 Q218 89 194 24 Q188 9 186 2 L249 2 L249 -18 L76 -18 ZM13 67 Q12 73 9 84 Q7 92 6 97 Q39 148 57 210 L81 203 Q78 196 73 182 Q65 162 61 153 L61 -30 L38 -30 L38 106 Q27 87 13 67 ZM82 144 L82 166 L156 166 Q150 184 142 206 L167 210 Q170 201 177 182 Q180 173 182 168 L172 166 L243 166 L243 144 L82 144 ZM125 21 Q118 50 98 113 Q96 120 95 123 L117 129 Q137 66 148 28 L125 21 Z" /><glyph glyph-name="uni4F4E" unicode="&#x4f4e;" d="M95 -20 L81 -1 Q92 7 91 23 L91 190 Q171 193 236 201 L242 180 Q211 177 184 174 Q184 146 186 115 L247 115 L247 94 L187 94 Q190 40 208 10 Q215 0 221 0 Q226 0 228 8 Q229 17 231 41 Q235 40 244 37 Q249 35 251 34 Q251 30 250 22 Q249 9 246 -3 Q240 -24 221 -24 Q202 -25 187 0 Q169 29 164 94 L114 94 L114 15 Q118 17 129 23 Q148 33 155 37 Q156 34 157 26 Q158 19 158 15 Q153 12 142 7 Q121 -3 111 -9 Q103 -14 95 -20 ZM37 -29 L37 107 Q25 86 11 70 L5 98 Q40 147 59 210 L82 204 Q71 174 59 147 L59 -29 L37 -29 ZM163 115 Q161 142 161 173 Q137 172 114 170 L114 115 L163 115 ZM155 -29 Q145 -14 133 0 L151 9 Q162 -1 175 -19 L155 -29 Z" /><glyph glyph-name="uni4F50" unicode="&#x4f50;" d="M79 147 L79 168 L131 168 Q132 171 133 177 Q135 188 141 210 L165 207 Q164 202 161 192 Q160 186 154 168 L247 168 L247 147 L148 147 Q140 122 127 96 L237 96 L237 75 L183 75 L183 4 L249 4 L249 -16 L82 -16 L82 4 L160 4 L160 75 L116 75 Q101 49 78 22 Q76 24 71 30 Q65 36 62 39 Q105 91 124 147 L79 147 ZM13 70 Q12 73 11 78 Q10 83 6 98 Q40 146 59 209 L82 202 Q72 173 60 147 L60 -29 L37 -29 L37 105 Q25 87 13 70 Z" /><glyph glyph-name="uni4F51" unicode="&#x4f51;" d="M81 147 L81 169 L138 169 Q145 188 151 210 L175 207 Q169 187 163 169 L247 169 L247 147 L154 147 Q144 123 131 100 L232 100 L232 -28 L209 -28 L209 -10 L129 -10 L129 -28 L106 -28 L106 64 Q100 55 85 37 Q80 32 78 29 L65 50 Q107 95 130 147 L81 147 ZM12 69 Q11 74 9 85 Q6 95 5 100 Q39 148 60 209 L83 204 Q71 173 58 144 L58 -29 L35 -29 L35 103 Q31 96 22 83 Q15 74 12 69 ZM129 79 L129 9 L209 9 L209 79 L129 79 Z" /><glyph glyph-name="uni4F53" unicode="&#x4f53;" d="M78 141 L78 161 L144 161 L144 209 L166 209 L166 161 L239 161 L239 141 L177 141 Q202 76 249 38 Q247 34 242 25 Q239 18 237 15 Q187 61 166 124 L166 37 L204 37 L204 17 L166 17 L166 -29 L144 -29 L144 17 L106 17 L106 37 L144 37 L144 123 Q121 57 74 11 Q72 16 65 27 Q62 32 61 34 Q110 77 133 141 L78 141 ZM36 -29 L36 103 Q24 85 12 68 Q10 74 7 88 Q6 94 5 97 Q37 144 57 210 L80 204 Q70 172 58 145 L58 -29 L36 -29 Z" /><glyph glyph-name="uni4F55" unicode="&#x4f55;" d="M86 170 L86 192 L249 192 L249 170 L229 170 L229 12 Q231 -24 193 -25 Q187 -25 171 -26 Q158 -26 154 -26 Q153 -18 150 -5 Q150 -7 149 -2 Q156 -2 168 -3 Q179 -3 184 -3 Q207 -5 205 16 L205 170 L86 170 ZM92 33 L92 138 L175 138 L175 33 L92 33 ZM12 70 Q9 85 5 100 Q38 147 58 209 L81 204 Q72 177 61 154 L61 -28 L39 -28 L39 110 Q27 90 12 70 ZM113 119 L113 52 L154 52 L154 119 L113 119 Z" /><glyph glyph-name="uni4F59" unicode="&#x4f59;" d="M235 109 Q214 118 196 128 L196 111 L143 111 L143 79 L240 79 L240 58 L143 58 L143 6 Q145 -27 109 -27 Q98 -28 78 -28 Q78 -27 78 -26 Q76 -11 73 -4 Q83 -5 100 -5 Q119 -6 118 10 L118 58 L16 58 L16 79 L118 79 L118 111 L59 111 L59 127 Q41 117 20 106 Q14 117 6 128 Q86 161 121 212 L148 209 Q147 208 145 205 Q143 203 142 201 Q182 153 248 131 Q247 129 245 125 Q242 120 235 109 ZM129 184 Q106 157 67 132 L189 132 Q153 153 129 184 ZM27 -19 Q25 -17 20 -11 Q14 -4 11 -1 Q38 16 69 49 L87 33 Q57 5 27 -19 ZM228 -17 Q197 8 166 31 L181 47 Q214 23 243 0 L228 -17 Z" /><glyph glyph-name="uni4F5C" unicode="&#x4f5c;" d="M91 94 Q88 98 80 105 Q76 109 74 111 Q106 152 124 211 L148 206 Q142 188 135 172 L249 172 L249 151 L164 151 L164 110 L235 110 L235 89 L164 89 L164 48 L242 48 L242 26 L164 26 L164 -28 L141 -28 L141 151 L125 151 Q111 122 91 94 ZM14 66 Q12 74 8 89 Q7 91 6 93 Q41 147 59 211 L83 205 Q74 177 62 151 L62 -28 L39 -28 L39 106 Q27 85 14 66 Z" /><glyph glyph-name="uni4F60" unicode="&#x4f60;" d="M13 65 Q11 72 9 82 Q7 90 6 94 Q40 143 61 210 L85 204 Q74 173 62 147 L62 -29 L39 -29 L39 103 Q27 83 13 65 ZM229 110 Q218 113 206 115 L221 152 L124 152 Q112 129 97 105 Q87 114 78 120 Q106 159 123 209 L147 204 Q141 189 135 174 L245 174 L245 153 L229 110 ZM115 -26 Q113 -13 110 -2 Q119 -3 136 -3 Q154 -4 153 11 L153 133 L177 133 L177 7 Q178 -24 145 -25 Q136 -26 115 -26 ZM227 9 Q215 42 193 93 L214 100 Q226 73 247 24 Q246 26 249 18 L227 9 ZM100 8 Q89 14 78 18 Q100 60 113 101 L135 93 Q116 44 100 8 Z" /><glyph glyph-name="uni4F69" unicode="&#x4f69;" d="M70 -27 L54 -11 Q77 23 75 99 L75 198 L222 198 L222 32 Q222 -3 231 -3 Q236 -3 236 4 Q238 24 238 39 Q242 36 251 34 Q251 30 250 21 Q249 6 248 0 Q245 -25 229 -25 Q203 -26 203 31 L203 179 L94 179 L94 99 Q94 50 89 25 Q85 0 70 -27 ZM104 138 L104 156 L192 156 L192 138 L157 138 L157 113 L189 113 L189 24 Q190 4 174 3 Q167 3 159 3 Q159 7 157 16 Q156 20 156 22 Q162 22 168 22 Q175 22 175 29 L175 95 L155 95 L155 -26 L140 -26 L140 95 L121 95 L121 1 L107 1 L107 113 L138 113 L138 138 L104 138 ZM13 68 Q12 74 8 88 Q7 96 6 99 Q31 144 43 209 L63 205 Q58 178 49 150 L49 -29 L30 -29 L30 101 Q22 85 13 68 Z" /><glyph glyph-name="uni4F9B" unicode="&#x4f9b;" d="M81 137 L81 159 L111 159 L111 209 L134 209 L134 159 L185 159 L185 209 L208 209 L208 159 L239 159 L239 137 L208 137 L208 71 L248 71 L248 50 L72 50 L72 71 L111 71 L111 137 L81 137 ZM12 70 Q11 75 9 86 Q7 96 6 101 Q39 149 57 209 L81 204 Q71 176 59 150 L59 -29 L37 -29 L37 107 Q25 88 12 70 ZM134 137 L134 71 L185 71 L185 137 L134 137 ZM89 -29 Q84 -24 70 -12 Q101 11 126 41 L146 27 Q116 -4 89 -29 ZM229 -28 Q214 -11 174 27 L191 41 Q204 29 229 5 Q242 -6 248 -12 L229 -28 Z" /><glyph glyph-name="uni4FCA" unicode="&#x4fca;" d="M79 -29 Q76 -24 70 -14 Q68 -11 67 -9 Q115 0 141 13 Q125 26 112 44 Q97 29 88 23 Q81 31 73 37 Q111 65 133 101 L155 97 Q149 88 143 80 L220 80 L220 59 Q201 29 180 13 Q202 3 249 -4 Q241 -20 238 -25 Q187 -13 160 0 Q129 -16 79 -29 ZM37 -28 L37 106 Q27 88 12 70 Q11 77 7 95 Q6 98 6 100 Q43 150 63 210 L86 204 Q84 199 80 189 Q73 172 60 145 L60 -28 L37 -28 ZM228 126 L215 140 Q159 138 113 135 Q107 135 96 133 Q92 132 91 132 L82 153 Q91 158 100 165 Q124 184 145 211 L169 202 Q168 201 166 199 Q129 164 117 155 Q156 157 198 158 L177 178 L192 189 Q220 164 245 139 L228 126 ZM128 61 L126 59 Q141 39 160 24 Q183 41 195 61 L128 61 ZM81 78 Q81 79 80 80 Q74 90 69 96 Q95 109 129 131 L142 116 Q125 104 87 82 Q83 79 81 78 ZM238 82 Q199 103 175 115 L186 131 Q229 111 248 100 L238 82 Z" /><glyph glyph-name="uni4FCF" unicode="&#x4fcf;" d="M90 -28 L90 142 L152 142 L152 210 L175 210 L175 142 L237 142 L237 7 Q238 -24 206 -24 Q196 -25 173 -25 Q171 -15 168 -3 Q181 -4 197 -4 Q216 -5 215 12 L215 25 L113 25 L113 -28 L90 -28 ZM34 -29 L34 103 Q31 97 23 85 Q16 73 12 67 Q12 68 11 71 Q8 89 5 97 Q37 151 53 209 L77 203 Q75 198 72 189 Q62 162 56 148 L56 -29 L34 -29 ZM113 73 L113 45 L215 45 L215 73 L113 73 ZM113 121 L113 93 L215 93 L215 121 L113 121 ZM210 151 L194 165 Q213 184 228 202 L244 189 Q229 172 210 151 ZM116 153 Q115 154 113 156 Q100 173 84 189 L101 202 Q118 184 133 166 L116 153 Z" /><glyph glyph-name="uni4FDE" unicode="&#x4fde;" d="M30 -28 L30 116 L129 116 L129 1 Q130 -25 101 -25 Q90 -25 78 -25 Q78 -23 77 -20 Q75 -10 74 -5 Q80 -6 94 -6 Q109 -6 108 6 L108 20 L51 20 L51 -28 L30 -28 ZM239 125 Q207 137 183 148 L183 134 L72 134 L72 147 Q48 134 17 121 Q10 135 7 142 Q86 171 121 212 L148 209 Q145 206 142 203 Q182 165 250 147 L239 125 ZM166 -26 Q166 -19 162 -3 Q172 -4 189 -4 Q207 -5 206 10 L206 119 L227 119 L227 5 Q229 -25 196 -25 Q192 -25 183 -25 Q172 -26 166 -26 ZM156 17 L156 107 L177 107 L177 17 L156 17 ZM129 189 Q111 171 81 152 L176 152 Q147 170 129 189 ZM51 59 L51 37 L108 37 L108 59 L51 59 ZM51 98 L51 76 L108 76 L108 98 L51 98 Z" /><glyph glyph-name="uni501F" unicode="&#x501f;" d="M91 -29 L91 87 L230 87 L230 -29 L207 -29 L207 -15 L113 -15 L113 -29 L91 -29 ZM82 159 L82 179 L113 179 L113 209 L136 209 L136 179 L184 179 L184 209 L206 209 L206 179 L241 179 L241 159 L206 159 L206 129 L247 129 L247 109 L74 109 L74 129 L113 129 L113 159 L82 159 ZM35 -29 L35 103 Q25 85 13 68 Q12 72 10 81 Q7 91 6 96 Q36 142 54 210 L77 204 Q69 174 57 147 L57 -29 L35 -29 ZM113 27 L113 2 L207 2 L207 27 L113 27 ZM113 68 L113 44 L207 44 L207 68 L113 68 ZM136 159 L136 129 L184 129 L184 159 L136 159 Z" /><glyph glyph-name="uni5029" unicode="&#x5029;" d="M89 -28 L89 94 L231 94 L231 3 Q232 -26 201 -26 Q196 -26 185 -26 Q171 -27 164 -27 Q162 -18 159 -7 Q171 -8 193 -8 Q210 -9 209 5 L209 13 L111 13 L111 -28 L89 -28 ZM79 175 L79 191 L149 191 L149 210 L171 210 L171 191 L245 191 L245 175 L171 175 L171 158 L237 158 L237 143 L171 143 L171 126 L249 126 L249 110 L72 110 L72 126 L149 126 L149 143 L85 143 L85 158 L149 158 L149 175 L79 175 ZM34 -29 L34 102 Q21 81 12 67 Q10 77 7 91 Q6 94 6 96 Q37 147 52 209 L74 203 Q65 176 55 150 L55 -29 L34 -29 ZM111 78 L111 60 L209 60 L209 78 L111 78 ZM111 46 L111 28 L209 28 L209 46 L111 46 Z" /><glyph glyph-name="uni5065" unicode="&#x5065;" d="M123 134 L123 151 L168 151 L168 170 L134 170 L134 187 L168 187 L168 210 L188 210 L188 187 L233 187 L233 151 L248 151 L248 134 L233 134 L233 98 L188 98 L188 79 L237 79 L237 62 L188 62 L188 43 L240 43 L240 27 L188 27 L188 1 L168 1 L168 27 L124 27 L124 43 L168 43 L168 62 L130 62 L130 79 L168 79 L168 98 L132 98 L132 114 L168 114 L168 134 L123 134 ZM242 -21 Q194 -21 173 -20 Q119 -18 96 4 Q86 -11 68 -29 Q61 -19 56 -11 Q58 -9 60 -6 Q77 10 82 20 Q71 37 61 72 L77 80 Q83 58 91 41 Q98 57 101 95 L65 95 L65 115 L101 168 L69 168 L69 188 L122 188 L122 167 L87 114 L120 114 L120 104 Q117 51 105 22 Q124 0 175 0 Q211 -2 249 0 Q248 -2 247 -6 Q243 -16 242 -21 ZM30 -28 L30 103 Q23 86 12 71 Q11 81 5 98 Q34 149 47 210 L68 207 Q67 202 64 193 Q56 164 50 150 L50 -28 L30 -28 ZM188 114 L215 114 L215 134 L188 134 L188 114 ZM215 170 L188 170 L188 151 L215 151 L215 170 Z" /><glyph glyph-name="uni50CF" unicode="&#x50cf;" d="M81 137 Q79 140 74 145 Q69 151 67 153 Q104 177 124 211 L147 208 Q142 199 136 192 L206 192 L206 176 L187 155 L236 155 L236 101 L158 101 L153 95 Q166 82 173 69 Q198 83 222 100 L234 84 L207 68 Q217 25 248 3 Q245 0 239 -7 Q236 -11 234 -13 Q201 14 190 58 L179 52 Q185 34 184 12 Q185 -24 148 -25 Q141 -26 122 -26 Q121 -17 119 -7 Q123 -7 131 -8 Q138 -8 142 -8 Q165 -9 164 13 Q164 16 163 22 Q163 28 163 30 Q130 -1 75 -21 Q74 -19 72 -15 Q68 -8 65 -4 Q120 12 159 48 Q158 50 157 54 Q155 60 154 62 Q123 33 76 16 Q74 19 72 23 Q68 29 66 32 Q118 49 146 74 Q143 79 139 83 Q116 67 75 52 Q74 55 69 62 Q66 66 65 68 Q116 82 134 101 L85 101 L85 140 L81 137 ZM12 69 Q10 78 5 98 Q37 148 53 210 L75 205 Q66 176 56 149 L56 -28 L34 -28 L34 105 Q25 86 12 69 ZM180 175 L123 175 Q114 164 103 155 L162 155 L180 175 ZM214 138 L173 138 Q172 126 167 117 L214 117 L214 138 ZM106 117 L145 117 Q151 126 152 138 L106 138 L106 117 Z" /><glyph glyph-name="uni5143" unicode="&#x5143;" d="M10 101 L10 124 L246 124 L246 101 L170 101 L170 17 Q168 -1 187 0 L199 0 Q219 -1 221 18 Q224 38 225 51 Q229 50 237 48 Q246 45 249 44 Q248 39 247 29 Q245 15 244 9 Q239 -23 202 -21 L179 -21 Q144 -22 145 11 L145 101 L100 101 L99 86 Q102 6 25 -29 Q23 -26 17 -18 Q11 -11 9 -8 Q78 21 75 88 Q75 89 75 93 Q76 98 76 101 L10 101 ZM32 173 L32 196 L223 196 L223 173 L32 173 Z" /><glyph glyph-name="uni5149" unicode="&#x5149;" d="M9 87 L9 109 L116 109 L116 210 L140 210 L140 109 L248 109 L248 87 L169 87 L169 13 Q169 -1 186 -1 L206 -1 Q222 -2 223 12 Q226 25 227 46 L250 38 Q247 14 244 1 Q239 -24 208 -23 L179 -23 Q146 -23 146 8 L146 87 L100 87 L99 74 Q99 3 21 -29 Q18 -25 11 -15 Q8 -10 6 -8 Q74 14 75 76 L76 87 L9 87 ZM183 125 L165 141 Q192 167 212 193 L231 179 Q209 152 183 125 ZM69 127 Q61 136 44 156 Q30 172 24 179 L41 193 Q67 167 88 142 L69 127 Z" /><glyph glyph-name="uni514B" unicode="&#x514b;" d="M10 164 L10 185 L115 185 L115 211 L140 211 L140 185 L244 185 L244 164 L140 164 L140 137 L219 137 L219 55 L166 55 L166 10 Q165 -4 181 -3 L205 -3 Q221 -3 223 9 Q223 11 224 17 Q225 20 227 36 Q239 32 249 29 Q249 26 248 20 Q247 10 244 0 Q238 -24 210 -24 L172 -24 Q142 -24 142 5 L142 55 L106 55 Q108 -10 20 -29 Q18 -24 11 -12 Q16 -20 8 -7 Q84 3 81 55 L36 55 L36 137 L115 137 L115 164 L10 164 ZM59 116 L59 75 L195 75 L195 116 L59 116 Z" /><glyph glyph-name="uni5165" unicode="&#x5165;" d="M229 -23 Q167 21 131 113 L127 120 Q101 32 23 -25 L6 -2 Q87 51 112 150 Q92 180 73 195 L92 208 Q125 182 154 119 Q190 34 249 0 Q238 -11 229 -23 Z" /><glyph glyph-name="uni5168" unicode="&#x5168;" d="M54 99 L54 121 L202 121 L202 99 L140 99 L140 64 L217 64 L217 42 L140 42 L140 3 L239 3 L239 -17 L16 -17 L16 3 L115 3 L115 42 L38 42 L38 64 L115 64 L115 99 L54 99 ZM236 103 Q160 141 129 186 Q88 137 19 101 Q11 114 5 122 Q83 160 119 212 L146 209 L142 202 Q180 154 249 125 L236 103 Z" /><glyph glyph-name="uni516B" unicode="&#x516b;" d="M230 -24 Q161 38 153 142 Q149 175 148 200 L172 201 Q173 171 177 140 Q186 46 249 -2 L230 -24 ZM25 -25 Q15 -15 6 -5 Q65 48 73 138 Q76 162 78 197 L102 196 Q100 154 98 139 Q91 40 25 -25 Z" /><glyph glyph-name="uni516C" unicode="&#x516c;" d="M214 -29 L198 -7 Q121 -10 65 -14 Q58 -14 46 -16 Q40 -17 37 -17 L26 4 Q38 10 47 21 Q81 60 113 116 L137 104 Q105 56 66 7 Q94 8 151 10 Q171 11 182 12 Q173 22 156 44 Q149 53 145 58 L163 71 Q181 50 218 4 Q230 -8 235 -15 L214 -29 ZM234 85 Q172 127 146 197 L168 205 Q193 141 250 108 Q246 102 237 90 Q235 87 234 85 ZM22 80 L6 101 Q59 140 87 201 L110 192 Q77 126 22 80 Z" /><glyph glyph-name="uni516D" unicode="&#x516d;" d="M10 120 L10 143 L246 143 L246 120 L10 120 ZM130 148 Q115 177 101 198 L124 208 Q140 184 154 159 L130 148 ZM33 -25 Q18 -13 12 -8 Q52 36 83 94 L106 83 Q69 16 33 -25 ZM218 -22 Q174 46 148 83 L169 94 Q183 75 212 34 Q233 4 242 -8 L218 -22 Z" /><glyph glyph-name="uni5170" unicode="&#x5170;" d="M17 135 L17 158 L85 158 Q79 166 63 187 Q56 195 53 199 L74 210 Q79 204 91 190 Q102 176 107 170 L87 158 L143 158 Q158 178 180 210 L204 200 Q188 179 170 158 L238 158 L238 135 L17 135 ZM8 -13 L8 8 L247 8 L247 -13 L8 -13 ZM35 61 L35 84 L220 84 L220 61 L35 61 Z" /><glyph glyph-name="uni5174" unicode="&#x5174;" d="M8 73 L8 95 L248 95 L248 73 L8 73 ZM29 -28 Q21 -18 12 -9 Q51 17 87 59 L106 43 Q73 8 29 -28 ZM225 -26 Q203 -4 149 43 L166 59 Q181 46 208 22 Q233 0 243 -8 L225 -26 ZM61 111 Q55 123 42 146 Q30 169 23 181 L44 191 Q48 183 57 169 Q73 141 83 122 L61 111 ZM191 110 L170 122 Q190 149 214 194 L236 184 Q233 178 226 167 Q204 130 191 110 ZM125 120 Q115 160 103 200 L126 205 Q133 183 144 144 Q147 132 149 126 L125 120 Z" /><glyph glyph-name="uni5175" unicode="&#x5175;" d="M8 40 L8 61 L48 61 L48 193 Q124 195 213 204 L221 182 Q138 175 72 172 L72 136 L236 136 L236 114 L184 114 L184 61 L248 61 L248 40 L8 40 ZM72 114 L72 61 L160 61 L160 114 L72 114 ZM21 -30 Q20 -28 17 -23 Q11 -14 8 -10 Q59 12 87 31 L102 12 Q99 10 92 6 Q42 -21 21 -30 ZM231 -29 Q228 -27 221 -23 Q174 2 153 12 L166 30 Q176 25 202 12 Q232 -3 243 -8 L231 -29 Z" /><glyph glyph-name="uni5176" unicode="&#x5176;" d="M12 161 L12 181 L47 181 L47 210 L71 210 L71 181 L184 181 L184 210 L208 210 L208 181 L244 181 L244 161 L208 161 L208 48 L249 48 L249 28 L7 28 L7 48 L47 48 L47 161 L12 161 ZM71 74 L71 48 L184 48 L184 74 L71 74 ZM71 118 L71 92 L184 92 L184 118 L71 118 ZM71 161 L71 136 L184 136 L184 161 L71 161 ZM18 -30 Q14 -20 8 -10 Q56 5 94 22 L106 3 Q61 -16 18 -30 ZM237 -29 Q186 -7 149 3 L159 22 Q208 5 247 -8 L237 -29 Z" /><glyph glyph-name="uni5185" unicode="&#x5185;" d="M70 28 Q68 31 60 39 Q56 45 54 47 Q119 80 116 143 L116 145 L50 145 L50 -26 L25 -26 L25 167 L117 167 Q117 185 117 209 L142 209 Q142 185 141 167 L230 167 L230 11 Q231 -24 195 -24 Q174 -24 154 -24 Q152 -13 149 0 Q163 0 185 0 Q207 -1 206 17 L206 145 L140 145 L140 143 Q140 122 135 105 Q163 84 200 50 L183 32 Q144 69 127 83 Q115 58 70 28 Z" /><glyph glyph-name="uni5199" unicode="&#x5199;" d="M130 -25 Q128 -14 125 -2 Q133 -2 150 -3 Q165 -3 172 -3 Q201 -4 201 19 Q201 22 202 27 Q204 58 204 72 L40 72 L57 165 L81 165 L77 142 L217 142 L217 122 L73 122 L68 93 L229 93 Q227 37 226 16 Q225 -25 177 -25 Q155 -25 130 -25 ZM16 148 L16 197 L240 197 L240 148 L216 148 L216 176 L39 176 L39 148 L16 148 ZM7 24 L7 45 L184 45 L184 24 L7 24 Z" /><glyph glyph-name="uni519B" unicode="&#x519b;" d="M17 122 L17 143 L81 143 Q83 146 86 151 Q90 158 98 172 L124 169 Q120 162 112 150 Q109 145 108 143 L238 143 L238 122 L94 122 Q79 99 63 78 L125 78 L125 110 L149 110 L149 78 L228 78 L228 58 L149 58 L149 26 L248 26 L248 6 L149 6 L149 -29 L125 -29 L125 6 L9 6 L9 26 L125 26 L125 58 L37 58 L37 79 Q53 99 68 122 L17 122 ZM17 156 L17 199 L241 199 L241 156 L217 156 L217 178 L40 178 L40 156 L17 156 Z" /><glyph glyph-name="uni51AF" unicode="&#x51af;" d="M148 -25 Q146 -16 143 -2 Q149 -2 162 -2 Q179 -3 189 -3 Q212 -4 214 16 Q215 29 216 67 Q217 76 217 80 L82 80 L91 164 L114 164 L108 101 L187 101 L194 177 L73 177 L73 199 L219 199 L210 101 L241 101 Q239 36 237 14 Q235 -25 191 -25 Q170 -25 148 -25 ZM67 27 L67 48 L198 48 L198 27 L67 27 ZM31 -14 L7 -4 Q22 31 40 94 Q50 90 62 85 Q44 29 31 -14 ZM41 125 Q36 136 26 157 Q16 179 11 189 L30 198 Q50 161 62 135 L41 125 Z" /><glyph glyph-name="uni51E0" unicode="&#x51e0;" d="M26 -26 Q24 -24 20 -20 Q17 -17 7 -7 Q38 17 47 42 Q57 65 57 116 L57 198 L184 198 L184 21 Q183 2 199 3 L207 3 Q222 2 224 18 Q226 32 227 58 Q239 53 250 50 Q249 39 247 20 Q246 12 246 8 Q241 -20 209 -19 L192 -19 Q158 -20 159 16 L159 175 L82 175 L82 110 Q86 18 26 -26 Z" /><glyph glyph-name="uni51E1" unicode="&#x51e1;" d="M24 -28 Q17 -21 7 -7 Q33 15 41 40 Q49 63 49 114 L49 198 L188 198 L188 18 Q187 0 201 2 L208 2 Q222 1 224 16 Q226 24 228 49 Q228 52 228 54 Q240 50 250 47 Q249 26 245 6 Q241 -21 211 -20 L195 -20 Q162 -21 163 13 L163 175 L73 175 L73 108 Q77 14 24 -28 ZM129 58 Q113 79 86 112 L104 126 Q105 124 108 121 Q137 89 148 74 L129 58 Z" /><glyph glyph-name="uni51E4" unicode="&#x51e4;" d="M23 -29 Q21 -27 18 -23 Q8 -14 5 -11 Q20 11 24 33 Q28 55 28 110 L28 197 L214 197 L214 88 Q214 23 219 5 Q220 0 225 0 Q230 0 231 9 Q233 31 235 50 Q244 46 251 44 Q249 19 246 -1 Q241 -28 223 -27 Q205 -27 198 -3 Q191 17 191 87 L191 176 L51 176 L51 106 Q51 50 46 25 Q41 -1 23 -29 ZM165 -2 Q157 5 142 22 Q133 32 128 37 Q105 11 66 -9 Q56 2 51 7 Q91 30 112 54 L70 100 L86 113 L126 72 Q140 96 146 129 L66 129 L66 149 L169 149 L169 129 Q160 84 141 56 Q148 48 162 35 Q176 20 182 13 L165 -2 Z" /><glyph glyph-name="uni51FA" unicode="&#x51fa;" d="M30 98 L30 186 L54 186 L54 120 L115 120 L115 209 L140 209 L140 120 L201 120 L201 186 L225 186 L225 98 L140 98 L140 4 L209 4 L209 70 L232 70 L232 -26 L209 -26 L209 -16 L22 -16 L22 70 L46 70 L46 4 L115 4 L115 98 L30 98 Z" /><glyph glyph-name="uni5206" unicode="&#x5206;" d="M115 -23 Q115 -22 115 -21 Q113 -6 111 0 Q128 0 151 0 Q177 -2 177 25 Q178 35 179 60 Q180 77 180 85 L106 85 Q105 70 102 58 Q97 0 26 -30 Q22 -22 12 -10 Q73 13 79 61 Q79 64 80 69 Q81 79 82 85 L41 85 L41 106 L205 106 Q204 91 203 58 Q201 31 201 20 Q200 -23 154 -22 Q138 -23 115 -23 ZM235 91 Q171 133 144 202 L166 210 Q192 144 249 114 Q248 112 244 105 Q238 96 235 91 ZM19 91 Q16 96 8 109 Q7 112 6 113 Q59 147 89 208 L112 198 Q77 133 19 91 Z" /><glyph glyph-name="uni5217" unicode="&#x5217;" d="M15 177 L15 199 L146 199 L146 177 L83 177 Q78 158 72 142 L135 142 L135 121 Q119 26 31 -29 Q29 -26 23 -20 Q18 -13 15 -10 Q68 22 90 62 L79 49 Q58 68 40 83 Q30 70 18 57 L5 76 Q46 123 59 177 L15 177 ZM165 -26 Q163 -14 160 -1 Q166 -1 177 -2 Q189 -2 194 -2 Q213 -3 212 14 L212 208 L235 208 L235 9 Q236 -25 203 -25 Q197 -25 183 -26 Q170 -26 165 -26 ZM158 31 L158 179 L180 179 L180 31 L158 31 ZM112 120 L62 120 Q60 115 54 106 Q52 102 51 100 Q63 91 84 75 Q90 70 93 68 Q105 90 112 120 Z" /><glyph glyph-name="uni5218" unicode="&#x5218;" d="M8 150 L8 172 L69 172 Q67 178 63 189 Q58 201 56 206 L79 210 Q82 204 88 189 Q92 177 94 172 L141 172 L141 150 L123 150 Q112 94 95 60 Q125 18 138 0 L118 -14 Q112 -6 100 11 Q88 29 82 38 Q64 10 24 -26 Q23 -25 19 -20 Q11 -11 7 -8 Q44 21 68 58 Q58 72 39 98 Q25 117 19 126 L38 138 Q47 126 66 100 Q75 87 80 81 Q94 111 101 150 L8 150 ZM166 -25 Q164 -12 161 0 Q167 0 178 -1 Q189 -1 194 -1 Q215 -4 213 16 L213 207 L236 207 L236 8 Q238 -25 205 -25 Q186 -25 166 -25 ZM156 31 L156 182 L178 182 L178 31 L156 31 Z" /><glyph glyph-name="uni5219" unicode="&#x5219;" d="M20 41 L20 198 L133 198 L133 41 L112 41 L112 177 L41 177 L41 41 L20 41 ZM21 -30 Q20 -29 17 -26 Q10 -16 6 -11 Q43 10 54 30 Q65 48 66 93 Q66 124 66 158 L88 158 Q88 114 87 93 Q88 65 82 46 Q93 37 122 13 Q140 -1 146 -6 L130 -24 Q122 -16 99 4 Q83 19 76 25 Q63 -3 21 -30 ZM167 -25 Q167 -22 165 -15 Q164 -6 163 -1 Q172 -2 195 -2 Q215 -4 213 14 L213 208 L235 208 L235 8 Q237 -25 203 -25 Q186 -25 167 -25 ZM162 35 L162 183 L184 183 L184 35 L162 35 Z" /><glyph glyph-name="uni521B" unicode="&#x521b;" d="M137 125 Q135 128 130 132 Q100 164 84 180 Q65 150 36 124 L133 124 Q133 98 131 71 Q129 38 99 39 Q86 38 71 38 Q69 50 67 59 Q80 58 92 58 Q110 59 110 75 Q111 82 111 104 L52 104 L52 15 Q51 -2 70 -1 L103 -1 Q122 -1 125 10 Q128 21 130 36 Q142 32 152 29 Q151 21 147 7 Q146 2 145 0 Q139 -23 108 -22 L65 -22 Q29 -23 30 11 L30 119 Q24 113 16 108 Q12 118 6 128 Q52 161 77 211 L100 208 Q99 207 98 204 Q96 200 94 198 Q109 184 134 160 Q146 148 153 142 L137 125 ZM171 -25 Q171 -22 169 -16 Q168 -6 167 -1 Q178 -2 198 -2 Q215 -3 214 13 L214 209 L237 209 L237 7 Q238 -24 206 -24 Q194 -25 171 -25 ZM161 31 L161 183 L183 183 L183 31 L161 31 Z" /><glyph glyph-name="uni5229" unicode="&#x5229;" d="M9 113 L9 134 L62 134 L62 174 L15 170 Q14 182 11 191 Q19 192 36 193 Q100 198 128 201 L133 180 L85 176 L85 134 L137 134 L137 113 L85 113 L85 83 L93 91 Q128 62 140 51 L125 34 Q119 40 101 56 Q90 66 85 70 L85 -28 L62 -28 L62 75 Q44 36 14 6 Q8 27 6 36 Q41 67 60 113 L9 113 ZM166 -25 Q165 -16 162 -3 Q162 -4 161 0 Q170 -1 197 -1 Q214 -2 213 14 L213 208 L236 208 L236 7 Q237 -23 205 -24 Q201 -24 188 -24 Q171 -25 166 -25 ZM152 30 L152 181 L174 181 L174 30 L152 30 Z" /><glyph glyph-name="uni522B" unicode="&#x522b;" d="M21 114 L21 198 L134 198 L134 114 L21 114 ZM66 -24 Q65 -20 64 -11 Q62 -4 62 -1 Q67 -1 76 -2 Q85 -2 89 -2 Q111 -4 111 18 Q111 25 112 41 Q112 57 113 64 L71 64 Q69 7 22 -29 Q11 -18 5 -13 Q47 19 49 64 L12 64 L12 84 L50 84 L51 106 L73 106 L72 84 L136 84 Q135 72 134 41 Q133 21 133 12 Q134 -24 97 -23 L66 -24 ZM164 -25 Q163 -13 160 -1 Q175 -2 193 -2 Q214 -3 213 14 L213 208 L236 208 L236 8 Q238 -24 202 -25 Q184 -25 164 -25 ZM161 31 L161 183 L183 183 L183 31 L161 31 ZM43 177 L43 134 L111 134 L111 177 L43 177 Z" /><glyph glyph-name="uni5230" unicode="&#x5230;" d="M10 176 L10 197 L146 197 L146 176 L80 176 Q61 148 44 124 L109 127 Q106 132 101 140 Q95 149 92 153 L109 163 Q133 128 147 105 L129 93 L120 109 Q102 108 71 107 Q52 105 43 105 Q42 105 39 104 Q26 103 20 101 L12 122 Q19 127 23 131 Q41 152 54 176 L10 176 ZM13 49 L13 70 L66 70 L66 97 L89 97 L89 70 L141 70 L141 49 L89 49 L89 8 L147 15 Q146 8 146 -5 Q85 -11 11 -20 L7 1 Q23 2 59 5 Q34 3 66 6 L66 49 L13 49 ZM170 -25 Q169 -12 166 -1 Q175 -2 199 -2 Q214 -3 214 13 L214 209 L237 209 L237 7 Q238 -24 207 -24 Q197 -25 170 -25 ZM161 31 L161 183 L183 183 L183 31 L161 31 Z" /><glyph glyph-name="uni524D" unicode="&#x524d;" d="M23 -29 L23 134 L130 134 L130 2 Q132 -24 103 -24 Q95 -25 73 -25 Q72 -21 71 -12 Q69 -7 69 -4 Q83 -4 95 -4 Q110 -5 109 6 L109 27 L45 27 L45 -29 L23 -29 ZM8 157 L8 177 L78 177 Q69 187 56 204 L79 211 Q94 194 105 179 L99 177 L150 177 Q159 187 176 208 Q177 209 177 210 L201 204 Q198 200 191 192 Q183 182 179 177 L248 177 L248 157 L8 157 ZM167 -25 L163 -2 Q172 -3 191 -3 Q211 -4 210 13 L210 140 L232 140 L232 8 Q234 -24 201 -24 Q184 -25 167 -25 ZM158 19 L158 129 L179 129 L179 19 L158 19 ZM45 71 L45 45 L109 45 L109 71 L45 71 ZM45 114 L45 89 L109 89 L109 114 L45 114 Z" /><glyph glyph-name="uni529B" unicode="&#x529b;" d="M26 -28 Q23 -25 16 -17 Q10 -9 8 -7 Q93 36 93 133 L16 133 L16 157 L95 157 Q95 166 96 183 Q96 201 97 209 L122 209 Q122 193 120 162 Q120 164 120 157 L232 157 Q229 63 227 29 Q226 -22 177 -21 Q156 -22 129 -22 Q128 -18 127 -12 Q126 -7 124 2 Q132 2 147 2 Q163 1 170 1 Q202 -1 202 39 Q204 60 205 114 Q206 127 206 133 L119 133 Q117 22 26 -28 Z" /><glyph glyph-name="uni529E" unicode="&#x529e;" d="M231 46 Q225 59 212 83 Q204 98 201 105 Q200 85 201 91 Q199 47 198 27 Q198 -22 150 -21 Q132 -22 109 -22 Q108 -15 105 -3 Q104 0 103 2 Q129 0 144 0 Q175 -2 174 32 Q176 66 178 144 L114 144 Q115 17 25 -28 Q25 -27 23 -26 Q14 -13 8 -8 Q56 20 71 50 Q87 77 89 144 L17 144 L17 166 L90 166 Q90 174 91 188 Q91 204 92 210 L116 210 L115 166 L203 166 L201 110 L218 118 Q221 112 227 102 Q243 73 252 57 L231 46 ZM26 42 Q22 45 11 51 Q8 53 6 54 Q24 84 39 120 L61 112 Q42 71 26 42 Z" /><glyph glyph-name="uni52A0" unicode="&#x52a0;" d="M146 -23 L146 182 L239 182 L239 -23 L216 -23 L216 0 L168 0 L168 -23 L146 -23 ZM20 -29 Q15 -23 3 -11 Q42 34 42 137 Q42 141 43 145 L11 145 L11 166 L43 166 Q44 187 44 210 L66 210 L66 166 L122 166 Q122 120 119 30 Q119 18 119 13 Q118 -23 87 -22 Q73 -23 58 -23 Q58 -20 56 -11 Q55 -3 54 0 Q66 0 77 0 Q96 -1 96 19 Q99 63 99 145 L65 145 Q65 141 65 136 Q64 19 20 -29 ZM168 160 L168 21 L216 21 L216 160 L168 160 Z" /><glyph glyph-name="uni52A8" unicode="&#x52a8;" d="M7 103 L7 124 L123 124 L123 103 L71 103 Q53 59 37 23 Q44 23 59 25 Q82 26 93 27 Q90 35 84 49 Q78 64 75 71 L94 78 Q105 54 125 7 Q152 42 153 125 Q153 128 154 132 Q154 137 154 139 L123 139 L123 160 L154 160 Q155 184 155 210 L178 210 Q177 187 177 160 L241 160 Q239 45 237 14 Q236 -22 203 -23 Q188 -23 169 -23 Q167 -10 164 0 Q169 0 179 0 Q189 0 194 0 Q215 -1 214 19 Q218 82 218 139 L176 139 Q176 132 176 124 Q176 24 125 -29 Q121 -27 113 -22 Q107 -18 104 -16 Q110 -10 119 0 Q122 4 123 5 L104 1 Q103 4 101 7 Q91 6 75 5 Q50 3 37 2 Q25 1 16 -1 L7 18 Q14 24 20 35 Q35 67 46 103 L7 103 ZM19 170 L19 191 L114 191 L114 170 L19 170 Z" /><glyph glyph-name="uni52B1" unicode="&#x52b1;" d="M147 -29 Q143 -25 134 -14 Q140 -22 131 -11 Q153 14 159 38 Q166 61 167 116 Q167 119 167 125 Q168 134 168 138 L148 138 L148 160 L168 160 Q168 184 168 210 L190 210 Q190 203 190 187 Q189 169 189 160 L239 160 Q239 118 236 15 Q236 -24 206 -23 Q192 -23 180 -23 Q178 -12 175 0 Q178 0 186 0 Q194 -1 198 -1 Q216 -3 215 19 Q215 22 215 28 Q218 107 218 138 L189 138 L188 118 Q187 56 179 29 Q172 1 147 -29 ZM52 129 L52 148 L140 148 L140 129 L90 129 L90 95 L135 95 Q135 64 132 13 Q132 -22 103 -21 Q99 -21 92 -22 Q87 -22 85 -22 Q84 -10 81 0 Q83 -1 97 -1 Q113 -3 113 16 Q115 54 115 76 L89 76 Q89 10 58 -27 Q55 -24 48 -17 Q45 -14 43 -12 Q70 21 70 89 L71 129 L52 129 ZM23 -27 L6 -11 Q17 13 20 36 Q24 60 24 110 L24 196 L144 196 L144 176 L44 176 L44 110 Q44 55 40 28 Q36 0 23 -27 Z" /><glyph glyph-name="uni5305" unicode="&#x5305;" d="M79 -21 Q37 -22 38 17 L38 122 Q28 110 16 98 Q14 105 9 116 Q7 120 6 122 Q45 161 66 211 L91 208 Q86 195 80 185 L220 185 Q220 142 218 69 Q217 26 178 27 Q160 27 144 27 Q143 32 140 44 Q139 48 138 50 Q154 50 172 50 Q193 49 194 71 Q197 114 197 163 L67 163 Q59 148 47 133 L152 133 L152 56 L61 56 L61 20 Q59 -1 85 0 L195 0 Q218 -1 221 15 Q221 18 222 26 Q224 39 225 47 Q237 43 249 40 Q247 32 245 18 Q243 8 242 4 Q237 -22 200 -21 L79 -21 ZM61 113 L61 76 L129 76 L129 113 L61 113 Z" /><glyph glyph-name="uni5316" unicode="&#x5316;" d="M88 40 Q86 44 78 55 Q75 59 74 61 Q106 77 131 93 L131 206 L156 206 L156 111 Q190 137 222 177 L241 161 Q204 116 156 81 L156 19 Q155 -1 176 0 L197 0 Q218 0 220 16 Q221 21 222 37 Q224 51 225 58 Q233 55 249 50 Q246 25 242 5 Q238 -22 199 -21 L169 -21 Q129 -23 131 16 L131 64 Q105 48 88 40 ZM15 64 Q13 70 9 82 Q6 89 5 93 Q44 138 70 209 L94 201 Q86 178 66 141 L66 -28 L43 -28 L43 103 Q33 87 15 64 Z" /><glyph glyph-name="uni5341" unicode="&#x5341;" d="M9 96 L9 121 L114 121 L114 209 L141 209 L141 121 L247 121 L247 96 L141 96 L141 -29 L114 -29 L114 96 L9 96 Z" /><glyph glyph-name="uni5347" unicode="&#x5347;" d="M18 161 Q18 162 17 165 Q16 178 14 184 Q87 188 143 196 L148 174 Q143 173 134 172 Q107 169 93 168 L93 105 L169 105 L169 209 L194 209 L194 105 L248 105 L248 83 L194 83 L194 -27 L169 -27 L169 83 L93 83 Q96 8 29 -30 Q25 -25 11 -11 Q69 18 68 83 L8 83 L8 105 L68 105 L68 165 Q67 165 65 165 Q44 164 18 161 Z" /><glyph glyph-name="uni534E" unicode="&#x534e;" d="M91 108 Q90 112 87 118 Q84 125 82 128 Q111 137 134 146 L134 207 L158 207 L158 157 Q191 172 222 195 L237 179 Q191 148 158 134 L158 119 Q157 100 177 101 L199 101 Q218 100 220 116 Q223 125 224 142 Q237 137 246 135 Q244 117 241 104 Q236 80 205 81 L169 81 Q133 79 134 115 L134 123 Q115 116 91 108 ZM9 27 L9 49 L115 49 L115 77 L139 77 L139 49 L246 49 L246 27 L139 27 L139 -29 L115 -29 L115 27 L9 27 ZM17 115 Q16 118 14 123 Q10 134 7 139 Q47 165 77 210 L100 202 Q98 199 93 193 Q85 183 72 166 L72 75 L49 75 L49 142 Q34 127 17 115 Z" /><glyph glyph-name="uni5360" unicode="&#x5360;" d="M34 -29 L34 99 L110 99 L110 209 L134 209 L134 169 L244 169 L244 147 L134 147 L134 99 L221 99 L221 -29 L197 -29 L197 -12 L58 -12 L58 -29 L34 -29 ZM58 77 L58 8 L197 8 L197 77 L58 77 Z" /><glyph glyph-name="uni536B" unicode="&#x536b;" d="M9 -15 L9 6 L89 6 L89 172 L21 172 L21 195 L228 195 Q228 136 225 104 Q225 55 177 57 Q164 56 141 56 Q140 68 135 82 Q148 81 171 81 Q201 78 200 109 Q202 137 202 172 L114 172 L114 6 L246 6 L246 -15 L9 -15 Z" /><glyph glyph-name="uni5373" unicode="&#x5373;" d="M117 -9 L101 15 Q98 14 92 11 Q60 -1 45 -9 Q35 -13 27 -19 L13 -1 Q22 5 21 18 L21 197 L121 197 L121 72 L43 72 L43 11 L90 33 Q81 45 75 55 L94 64 Q121 25 136 0 L117 -9 ZM148 -29 L148 192 L236 192 L236 41 Q238 7 205 8 Q196 7 181 7 Q180 17 177 30 Q187 29 197 29 Q215 28 214 45 L214 170 L169 170 L169 -29 L148 -29 ZM43 92 L100 92 L100 125 L43 125 L43 92 ZM43 177 L43 144 L100 144 L100 177 L43 177 Z" /><glyph glyph-name="uni539A" unicode="&#x539a;" d="M75 87 L75 162 L228 162 L228 87 L75 87 ZM23 -30 Q17 -23 6 -14 Q30 21 28 103 L28 197 L247 197 L247 179 L50 179 L50 102 Q52 15 23 -30 ZM55 13 L55 30 L147 30 L147 37 L191 54 L74 54 L74 70 L229 70 L229 52 L173 30 L247 30 L247 13 L171 13 L171 -1 Q171 -26 143 -26 Q135 -27 105 -27 Q105 -26 104 -23 Q104 -19 101 -8 Q119 -8 133 -8 Q148 -9 147 1 L147 13 L55 13 ZM97 118 L97 103 L206 103 L206 118 L97 118 ZM97 146 L97 132 L206 132 L206 146 L97 146 Z" /><glyph glyph-name="uni539F" unicode="&#x539f;" d="M108 -26 Q107 -18 103 -5 Q119 -6 131 -6 Q146 -6 145 5 L145 52 L77 52 L77 151 L125 151 L133 177 L52 177 L52 102 Q52 51 47 26 Q41 0 24 -29 Q21 -26 14 -20 Q8 -15 6 -13 Q32 23 30 106 L30 197 L247 197 L247 177 L157 177 L148 151 L229 151 L229 52 L167 52 L167 0 Q167 -24 141 -26 Q125 -26 108 -26 ZM99 132 L99 110 L207 110 L207 132 L99 132 ZM99 93 L99 71 L207 71 L207 93 L99 93 ZM65 -19 Q63 -17 58 -11 Q53 -6 50 -3 Q79 16 101 42 L118 28 Q97 7 65 -19 ZM233 -17 Q225 -9 210 4 Q194 19 185 28 L200 41 Q219 25 249 -2 L233 -17 Z" /><glyph glyph-name="uni53BB" unicode="&#x53bb;" d="M217 -28 Q214 -25 209 -19 Q204 -13 201 -10 Q155 -11 69 -15 Q51 -16 38 -19 L26 3 Q39 10 51 22 Q75 46 97 75 L8 75 L8 97 L115 97 L115 146 L26 146 L26 168 L115 168 L115 210 L140 210 L140 168 L230 168 L230 146 L140 146 L140 97 L248 97 L248 75 L130 75 Q107 47 67 5 L183 9 Q168 27 151 45 L169 57 Q182 44 206 19 Q227 -2 238 -13 L217 -28 Z" /><glyph glyph-name="uni53C2" unicode="&#x53c2;" d="M12 108 L12 126 L94 126 Q96 128 99 133 Q105 140 107 144 L131 140 Q125 133 121 126 L243 126 L243 108 L178 108 Q202 82 248 67 Q242 58 237 47 Q182 69 153 108 L106 108 Q78 76 17 49 Q12 59 6 68 Q51 85 76 108 L12 108 ZM212 136 Q209 139 202 144 Q199 147 197 148 Q175 148 129 147 Q79 147 62 146 Q51 146 39 144 L29 163 Q43 168 53 174 Q75 186 106 212 L133 205 Q104 185 71 164 Q83 164 118 164 Q158 165 174 165 Q167 170 154 180 Q149 184 146 186 L161 198 Q181 185 220 158 Q225 154 228 152 L212 136 ZM34 -31 Q33 -28 30 -21 Q26 -14 25 -11 Q122 0 208 40 L221 24 Q137 -17 34 -31 ZM46 7 Q40 19 37 24 Q113 39 176 68 L188 53 Q118 21 46 7 ZM57 45 Q55 50 50 59 Q48 61 48 62 Q100 74 148 95 L160 81 Q112 60 57 45 Z" /><glyph glyph-name="uni53CC" unicode="&#x53cc;" d="M234 -25 Q194 1 177 24 Q155 -1 109 -30 Q106 -24 95 -11 Q94 -10 93 -9 Q135 12 163 43 Q132 88 123 165 L145 169 Q154 99 177 63 Q201 98 212 170 L120 170 L120 192 L236 192 L236 170 Q223 85 191 43 Q212 16 250 -4 Q240 -16 234 -25 ZM97 4 L73 42 Q55 10 21 -22 Q19 -19 12 -11 Q7 -5 5 -3 Q41 29 59 64 Q37 101 11 138 L30 151 Q31 150 33 147 Q52 117 71 89 Q83 118 89 170 L10 170 L10 192 L112 192 L112 170 Q103 103 86 66 Q101 42 117 18 L97 4 Z" /><glyph glyph-name="uni53D1" unicode="&#x53d1;" d="M17 136 L17 159 Q29 185 34 202 L57 198 Q47 170 41 158 L89 158 Q97 184 101 211 L125 208 Q122 194 116 166 Q115 161 114 158 L247 158 L247 136 L108 136 Q104 121 98 107 L221 107 L221 87 Q201 45 170 20 Q197 4 247 -3 Q243 -9 236 -23 Q235 -26 234 -27 Q185 -13 149 6 Q112 -12 59 -30 Q53 -16 47 -7 Q101 5 129 21 Q102 43 87 79 Q61 25 16 -16 Q10 -1 5 6 Q64 63 83 136 L17 136 ZM194 87 L106 87 Q123 53 149 34 Q179 55 194 87 ZM202 161 Q181 179 163 194 L177 208 Q181 205 189 199 Q208 184 217 177 L202 161 Z" /><glyph glyph-name="uni53D7" unicode="&#x53d7;" d="M237 -27 Q163 -17 128 0 Q87 -18 19 -30 Q17 -25 12 -16 Q9 -11 8 -8 Q74 1 105 13 Q77 32 56 66 L41 66 L41 85 L206 85 L206 65 Q184 33 153 12 Q180 1 248 -4 Q245 -9 238 -24 Q237 -26 237 -27 ZM14 83 L14 131 L57 131 Q56 134 53 139 Q47 149 37 164 L60 169 Q61 167 65 161 Q75 144 79 137 L60 131 L167 131 Q182 153 193 174 L216 167 Q214 163 208 155 Q205 151 193 131 L241 131 L241 83 L218 83 L218 111 L38 111 L38 83 L14 83 ZM25 176 Q25 177 24 180 Q23 191 21 196 Q127 196 226 203 L231 183 Q143 178 25 176 ZM178 66 L83 66 Q103 37 128 24 Q158 41 178 66 ZM123 133 Q116 151 108 167 L131 172 Q139 157 145 138 L123 133 Z" /><glyph glyph-name="uni53E3" unicode="&#x53e3;" d="M28 -21 L28 188 L228 188 L228 -21 L203 -21 L203 0 L53 0 L53 -21 L28 -21 ZM53 165 L53 23 L203 23 L203 165 L53 165 Z" /><glyph glyph-name="uni53EA" unicode="&#x53ea;" d="M36 67 L36 195 L221 195 L221 67 L36 67 ZM60 173 L60 90 L196 90 L196 173 L60 173 ZM25 -29 Q23 -27 16 -20 Q10 -13 7 -10 Q49 18 86 56 L105 40 Q68 3 25 -29 ZM227 -28 Q192 4 148 40 L166 56 Q173 50 186 39 Q227 5 247 -10 L227 -28 Z" /><glyph glyph-name="uni53EF" unicode="&#x53ef;" d="M34 16 L34 136 L144 136 L144 34 L57 34 L57 16 L34 16 ZM7 171 L7 193 L249 193 L249 171 L213 171 L213 11 Q214 -24 177 -24 Q156 -25 134 -25 Q133 -16 129 -1 Q150 -2 167 -2 Q191 -4 189 18 L189 171 L7 171 ZM57 115 L57 54 L121 54 L121 115 L57 115 Z" /><glyph glyph-name="uni53F0" unicode="&#x53f0;" d="M37 -29 L37 81 L218 81 L218 -29 L194 -29 L194 -13 L60 -13 L60 -29 L37 -29 ZM229 94 L211 113 Q143 112 55 108 Q35 107 24 104 L12 127 Q28 134 37 143 Q81 179 107 212 L133 200 Q91 160 56 130 Q65 130 84 131 Q153 132 191 134 L159 167 L177 179 Q228 130 249 108 L229 94 ZM60 60 L60 6 L194 6 L194 60 L60 60 Z" /><glyph glyph-name="uni53F2" unicode="&#x53f2;" d="M20 -30 Q18 -27 14 -19 Q10 -11 8 -8 Q66 3 82 14 Q59 30 35 62 L54 75 Q78 43 99 30 Q114 45 115 79 L29 79 L29 176 L116 176 L116 210 L141 210 L141 176 L228 176 L228 67 L204 67 L204 79 L139 79 Q138 40 121 18 Q140 9 165 6 Q194 1 248 0 Q247 -4 244 -12 Q242 -20 240 -24 Q185 -21 163 -15 Q128 -10 104 1 Q79 -16 20 -30 ZM204 155 L140 155 L140 100 L204 100 L204 155 ZM52 155 L52 100 L116 100 L116 155 L52 155 Z" /><glyph glyph-name="uni53F6" unicode="&#x53f6;" d="M20 -2 L20 189 L101 189 L101 0 L79 0 L79 22 L42 22 L42 -2 L20 -2 ZM112 104 L112 127 L168 127 L168 209 L193 209 L193 127 L249 127 L249 104 L193 104 L193 -28 L168 -28 L168 104 L112 104 ZM42 167 L42 43 L79 43 L79 167 L42 167 Z" /><glyph glyph-name="uni53F7" unicode="&#x53f7;" d="M41 126 L41 200 L214 200 L214 126 L41 126 ZM6 83 L6 104 L249 104 L249 83 L79 83 L71 59 L218 59 Q217 35 213 11 Q211 -24 163 -25 Q138 -25 105 -25 Q104 -20 101 -7 Q100 -3 100 -1 Q119 -2 156 -2 Q189 -4 189 16 Q191 28 191 39 L41 39 L54 83 L6 83 ZM65 180 L65 147 L190 147 L190 180 L65 180 Z" /><glyph glyph-name="uni5408" unicode="&#x5408;" d="M39 -29 L39 77 L215 77 L215 -29 L192 -29 L192 -14 L63 -14 L63 -29 L39 -29 ZM235 103 Q213 114 196 124 L196 106 L59 106 L59 123 Q41 111 20 99 Q18 103 12 112 Q8 118 6 121 Q87 160 121 212 L148 209 L142 199 Q183 150 248 125 Q242 115 235 103 ZM63 56 L63 5 L192 5 L192 56 L63 56 ZM129 183 Q102 151 66 127 L191 127 Q153 152 129 183 Z" /><glyph glyph-name="uni540C" unicode="&#x540c;" d="M21 -26 L21 198 L234 198 L234 10 Q236 -24 200 -24 Q184 -25 162 -25 Q162 -15 157 -2 Q175 -2 191 -2 Q213 -4 211 14 L211 176 L45 176 L45 -26 L21 -26 ZM75 22 L75 103 L180 103 L180 22 L75 22 ZM60 129 L60 150 L196 150 L196 129 L60 129 ZM97 83 L97 42 L158 42 L158 83 L97 83 Z" /><glyph glyph-name="uni540D" unicode="&#x540d;" d="M17 47 Q15 52 10 61 Q7 66 6 69 Q127 96 195 163 L90 163 Q62 136 24 113 Q20 119 12 128 Q11 130 10 131 Q68 164 103 210 L128 205 Q119 195 110 184 L226 184 L226 162 Q178 109 106 79 L227 79 L227 -29 L203 -29 L203 -15 L76 -15 L76 -29 L52 -29 L52 58 Q45 56 32 52 Q22 49 17 47 ZM76 58 L76 4 L203 4 L203 58 L76 58 ZM105 102 Q92 115 67 137 Q68 136 64 139 L81 153 Q84 151 90 146 Q112 129 125 117 L105 102 Z" /><glyph glyph-name="uni540E" unicode="&#x540e;" d="M78 -27 L78 80 L227 80 L227 -27 L204 -27 L204 -12 L101 -12 L101 -27 L78 -27 ZM25 -28 L6 -12 Q23 14 28 40 Q34 65 34 112 L34 191 Q140 194 227 203 L236 180 Q152 173 58 169 L58 137 L247 137 L247 116 L58 116 L58 112 Q58 61 51 33 Q45 4 25 -28 ZM101 59 L101 7 L204 7 L204 59 L101 59 Z" /><glyph glyph-name="uni5410" unicode="&#x5410;" d="M20 -5 L20 183 L98 183 L98 15 L42 15 L42 -5 L20 -5 ZM116 112 L116 135 L165 135 L165 209 L189 209 L189 135 L239 135 L239 112 L189 112 L189 5 L249 5 L249 -16 L99 -16 L99 5 L165 5 L165 112 L116 112 ZM42 162 L42 36 L76 36 L76 162 L42 162 Z" /><glyph glyph-name="uni5411" unicode="&#x5411;" d="M22 -26 L22 176 L95 176 Q100 194 104 211 L130 208 Q125 193 119 176 L233 176 L233 8 Q235 -24 200 -24 L163 -25 Q162 -19 160 -8 Q159 -3 158 -1 Q168 -2 191 -2 Q211 -3 210 13 L210 154 L45 154 L45 -26 L22 -26 ZM77 27 L77 120 L178 120 L178 27 L77 27 ZM99 100 L99 48 L156 48 L156 100 L99 100 Z" /><glyph glyph-name="uni5412" unicode="&#x5412;" d="M17 0 L17 188 L91 188 L91 2 L70 2 L70 23 L38 23 L38 0 L17 0 ZM108 162 Q107 166 105 173 Q103 180 102 184 Q168 190 229 202 L235 180 Q226 179 206 176 Q181 172 169 170 L169 106 L247 114 L248 92 L169 84 L169 15 Q168 -2 186 0 L201 0 Q219 0 220 14 Q223 29 225 51 Q231 49 243 45 Q246 44 247 44 Q245 19 240 1 Q235 -22 204 -22 L181 -22 Q144 -23 145 11 L145 81 L102 77 L99 99 L145 104 L145 167 Q139 166 126 164 Q114 163 108 162 ZM38 167 L38 44 L70 44 L70 167 L38 167 Z" /><glyph glyph-name="uni541B" unicode="&#x541b;" d="M88 86 Q83 72 74 60 L222 60 L222 -28 L200 -28 L200 -16 L81 -16 L81 -28 L58 -28 L58 38 Q43 21 19 3 Q13 14 6 24 Q50 55 63 86 L23 86 L23 104 L70 104 Q75 117 76 133 L9 133 L9 152 L79 152 Q80 157 80 166 Q81 175 81 180 L29 180 L29 199 L220 199 L220 152 L249 152 L249 133 L220 133 L220 86 L88 86 ZM81 41 L81 1 L200 1 L200 41 L81 41 ZM100 133 Q97 118 94 104 L197 104 L197 133 L100 133 ZM104 180 Q104 175 103 166 Q103 157 102 152 L197 152 L197 180 L104 180 Z" /><glyph glyph-name="uni5434" unicode="&#x5434;" d="M25 83 L25 103 L230 103 L230 83 L139 83 Q139 78 138 70 Q138 61 137 57 L246 57 L246 37 L144 37 Q168 1 247 -5 Q246 -9 243 -16 Q240 -24 238 -27 Q151 -16 127 26 Q107 -14 17 -30 Q14 -21 7 -8 Q94 2 108 37 L9 37 L9 57 L113 57 Q115 67 115 83 L25 83 ZM37 126 L37 199 L219 199 L219 126 L37 126 ZM61 180 L61 146 L195 146 L195 180 L61 180 Z" /><glyph glyph-name="uni5468" unicode="&#x5468;" d="M24 -30 Q20 -26 7 -16 Q6 -15 5 -14 Q19 7 23 31 Q28 55 28 105 L28 200 L237 200 L237 10 Q239 -26 203 -25 Q198 -25 186 -25 Q173 -26 167 -26 Q166 -23 164 -14 Q162 -6 161 -2 Q172 -3 195 -3 Q215 -4 214 13 L214 180 L51 180 L51 103 Q51 51 45 24 Q40 -3 24 -30 ZM79 5 L79 73 L185 73 L185 5 L79 5 ZM73 135 L73 154 L121 154 L121 177 L143 177 L143 154 L192 154 L192 135 L143 135 L143 112 L201 112 L201 93 L64 93 L64 112 L121 112 L121 135 L73 135 ZM100 24 L163 24 L163 55 L100 55 L100 24 Z" /><glyph glyph-name="uni548C" unicode="&#x548c;" d="M132 -21 L132 184 L238 184 L238 -20 L215 -20 L215 1 L154 1 L154 -21 L132 -21 ZM10 116 L10 137 L53 137 L53 173 Q47 173 34 172 Q22 172 15 171 Q15 175 13 182 Q12 189 11 192 Q78 196 109 199 L114 178 Q95 177 75 175 L75 137 L117 137 L117 116 L75 116 L75 83 L83 92 Q87 88 95 81 Q112 66 120 58 L105 41 Q102 44 95 51 Q82 65 75 71 L75 -28 L53 -28 L53 79 Q39 44 14 14 Q10 27 5 39 Q33 70 50 116 L10 116 ZM154 163 L154 23 L215 23 L215 163 L154 163 Z" /><glyph glyph-name="uni54C1" unicode="&#x54c1;" d="M42 110 L42 199 L214 199 L214 110 L42 110 ZM142 -28 L142 83 L237 83 L237 -28 L216 -28 L216 -13 L164 -13 L164 -28 L142 -28 ZM18 -28 L18 83 L113 83 L113 -28 L91 -28 L91 -13 L40 -13 L40 -28 L18 -28 ZM66 178 L66 131 L190 131 L190 178 L66 178 ZM164 63 L164 5 L216 5 L216 63 L164 63 ZM40 63 L40 5 L91 5 L91 63 L40 63 Z" /><glyph glyph-name="uni54EA" unicode="&#x54ea;" d="M80 117 L80 136 L98 136 L98 178 L80 178 L80 198 L159 198 Q157 62 157 11 Q156 -20 129 -21 Q124 -21 117 -22 Q110 -22 106 -22 Q105 -12 102 -1 Q103 -1 108 -1 Q117 -2 121 -2 Q138 -3 138 15 L139 55 L111 55 Q108 9 76 -29 Q71 -21 62 -12 Q89 16 93 55 L80 55 L80 74 L95 74 L95 88 Q97 100 97 117 L80 117 ZM16 2 L16 189 L71 189 L71 11 L53 11 L53 24 L34 24 L34 2 L16 2 ZM176 -29 L176 196 L243 196 L243 176 L226 106 Q247 80 246 42 Q247 13 223 8 Q215 6 204 6 Q203 10 200 20 Q199 26 198 29 Q205 29 214 29 Q229 29 228 49 Q229 75 207 103 L225 176 L195 176 L195 -29 L176 -29 ZM34 168 L34 44 L53 44 L53 168 L34 168 ZM139 74 L140 117 L115 117 Q115 111 114 101 Q114 92 114 88 L113 74 L139 74 ZM140 178 L116 178 L116 136 L140 136 Q140 159 140 178 Z" /><glyph glyph-name="uni5510" unicode="&#x5510;" d="M53 97 L53 114 L130 114 L130 133 L67 133 L67 149 L130 149 L130 165 L152 165 L152 149 L225 149 L225 114 L248 114 L248 97 L225 97 L225 62 L152 62 L152 45 L130 45 L130 62 L65 62 L65 79 L130 79 L130 97 L53 97 ZM69 -29 L69 42 L225 42 L225 -29 L203 -29 L203 -18 L90 -18 L90 -29 L69 -29 ZM25 -29 Q24 -28 23 -27 Q11 -18 6 -14 Q21 10 25 32 Q29 53 29 103 L29 188 L127 188 Q124 198 120 208 L146 212 L154 188 L246 188 L246 169 L51 169 L51 101 Q53 11 25 -29 ZM90 25 L90 -1 L203 -1 L203 25 L90 25 ZM152 79 L203 79 L203 97 L152 97 L152 79 ZM203 133 L152 133 L152 114 L203 114 L203 133 Z" /><glyph glyph-name="uni552F" unicode="&#x552f;" d="M90 94 Q86 104 82 112 L82 -2 L63 -2 L63 15 L38 15 L38 -4 L18 -4 L18 187 L82 187 L82 119 Q113 159 129 210 L152 205 Q150 201 147 193 Q144 184 135 166 L184 166 Q183 169 180 176 Q172 196 168 204 L189 209 Q197 192 206 170 L189 166 L245 166 L245 147 L197 147 L197 112 L242 112 L242 93 L197 93 L197 59 L242 59 L242 40 L197 40 L197 4 L248 4 L248 -13 L131 -13 L131 -29 L109 -29 L109 119 Q107 117 104 112 Q100 107 90 94 ZM38 166 L38 36 L63 36 L63 166 L38 166 ZM131 40 L131 4 L176 4 L176 40 L131 40 ZM131 147 L131 112 L176 112 L176 147 L131 147 ZM131 93 L131 59 L176 59 L176 93 L131 93 Z" /><glyph glyph-name="uni559C" unicode="&#x559c;" d="M8 42 L8 58 L81 58 Q74 68 63 78 L79 82 L37 82 L37 129 L218 129 L218 82 L176 82 L193 78 Q190 75 182 66 Q178 61 176 58 L248 58 L248 42 L8 42 ZM33 -29 L33 27 L222 27 L222 -29 L199 -29 L199 -20 L56 -20 L56 -29 L33 -29 ZM13 175 L13 191 L116 191 L116 210 L139 210 L139 191 L243 191 L243 175 L139 175 L139 159 L227 159 L227 144 L28 144 L28 159 L116 159 L116 175 L13 175 ZM56 12 L56 -5 L199 -5 L199 12 L56 12 ZM59 114 L59 97 L196 97 L196 114 L59 114 ZM106 61 L98 58 L149 58 Q152 62 158 69 Q165 78 168 82 L88 82 Q90 80 94 75 Q103 66 106 61 Z" /><glyph glyph-name="uni5609" unicode="&#x5609;" d="M34 91 L34 136 L222 136 L222 91 L176 91 L190 88 Q185 83 177 71 L247 71 L247 55 L8 55 L8 71 L79 71 L66 88 L79 91 L34 91 ZM13 178 L13 194 L116 194 L116 211 L139 211 L139 194 L243 194 L243 178 L139 178 L139 164 L227 164 L227 149 L28 149 L28 164 L116 164 L116 178 L13 178 ZM143 -26 L143 40 L234 40 L234 -26 L214 -26 L214 -14 L163 -14 L163 -26 L143 -26 ZM23 -28 Q16 -21 8 -13 Q39 1 44 21 L15 21 L15 36 L47 36 Q48 44 48 53 L69 52 Q69 43 68 36 L125 36 Q125 18 123 3 Q122 -24 90 -24 Q78 -24 68 -24 Q68 -23 67 -21 Q65 -10 63 -5 Q67 -5 74 -6 Q82 -6 85 -6 Q103 -7 103 6 L104 21 L66 21 Q61 -8 23 -28 ZM56 122 L56 105 L199 105 L199 122 L56 122 ZM163 25 L163 0 L214 0 L214 25 L163 25 ZM90 91 L105 71 L150 71 Q151 72 152 73 Q162 86 165 91 L90 91 Z" /><glyph glyph-name="uni56DB" unicode="&#x56db;" d="M22 -29 L22 194 L237 194 L237 -29 L213 -29 L213 -13 L46 -13 L46 -29 L22 -29 ZM175 52 Q144 51 145 81 L145 172 L111 172 L111 126 Q114 70 66 35 Q58 43 49 51 Q92 81 89 128 Q89 148 89 172 L46 172 L46 6 L213 6 L213 172 L168 172 L168 89 Q167 73 184 74 L210 74 Q210 70 208 63 Q207 56 206 52 L175 52 Z" /><glyph glyph-name="uni56E2" unicode="&#x56e2;" d="M20 -29 L20 199 L236 199 L236 -29 L212 -29 L212 -17 L43 -17 L43 -29 L20 -29 ZM43 178 L43 1 L212 1 L212 178 L43 178 ZM57 119 L57 139 L146 139 L146 168 L168 168 L168 139 L202 139 L202 119 L168 119 L168 47 Q170 15 137 15 Q133 15 123 15 Q113 14 108 14 Q108 18 106 25 Q105 32 104 35 Q117 35 129 35 Q147 34 146 50 L146 110 Q121 65 64 30 Q60 35 51 47 Q50 48 49 49 Q101 76 130 119 L57 119 Z" /><glyph glyph-name="uni56F4" unicode="&#x56f4;" d="M19 -29 L19 198 L236 198 L236 -29 L214 -29 L214 -18 L42 -18 L42 -29 L19 -29 ZM42 179 L42 0 L214 0 L214 179 L42 179 ZM145 21 Q144 30 141 39 Q148 38 162 38 Q175 37 175 48 Q175 49 175 53 Q176 59 176 62 L130 62 L130 7 L107 7 L107 62 L53 62 L53 79 L107 79 L107 100 L63 100 L63 116 L107 116 L107 136 L56 136 L56 153 L107 153 L107 171 L130 171 L130 153 L198 153 L198 136 L130 136 L130 116 L190 116 L190 100 L130 100 L130 79 L196 79 Q196 65 194 46 Q194 22 168 22 Q165 22 157 22 Q149 21 145 21 Z" /><glyph glyph-name="uni56FD" unicode="&#x56fd;" d="M19 -29 L19 199 L237 199 L237 -29 L213 -29 L213 -16 L42 -16 L42 -29 L19 -29 ZM42 179 L42 2 L213 2 L213 179 L42 179 ZM58 137 L58 156 L197 156 L197 137 L137 137 L137 107 L192 107 L192 88 L137 88 L137 45 L200 45 L200 25 L55 25 L55 45 L115 45 L115 88 L63 88 L63 107 L115 107 L115 137 L58 137 ZM175 47 Q162 62 151 72 L163 83 Q176 73 189 59 L175 47 Z" /><glyph glyph-name="uni56FE" unicode="&#x56fe;" d="M18 -29 L18 201 L237 201 L237 -29 L214 -29 L214 -17 L40 -17 L40 -29 L18 -29 ZM40 182 L40 1 L214 1 L214 182 L40 182 ZM200 76 Q159 84 132 96 Q106 83 55 72 Q54 74 52 78 Q49 86 46 90 Q85 96 113 107 Q97 117 84 132 Q79 127 69 119 Q64 115 62 113 Q56 121 49 126 Q81 148 99 177 L120 174 Q115 167 109 159 L192 159 L192 143 Q173 121 151 106 Q175 99 209 94 Q208 92 206 88 Q202 81 200 76 ZM182 10 Q124 22 64 29 L69 47 Q129 38 187 28 L182 10 ZM168 49 Q125 58 87 62 L91 78 Q95 77 105 76 Q152 68 173 66 L168 49 ZM168 143 L96 143 Q110 125 131 115 Q153 127 168 143 Z" /><glyph glyph-name="uni5708" unicode="&#x5708;" d="M18 -29 L18 201 L237 201 L237 -29 L216 -29 L216 -18 L39 -18 L39 -29 L18 -29 ZM39 184 L39 0 L216 0 L216 184 L39 184 ZM202 59 Q183 66 165 79 L164 60 Q164 42 142 41 Q130 41 118 41 L114 54 Q126 53 137 53 Q146 53 147 61 Q147 66 147 69 L95 69 L95 42 Q93 26 111 28 L156 28 Q172 28 174 39 Q177 46 178 56 Q189 51 196 49 Q195 47 195 43 Q193 34 191 30 Q184 12 159 12 L105 12 Q75 10 77 39 L77 68 Q72 65 62 60 Q55 56 51 54 Q46 62 40 71 Q76 86 91 102 L49 102 L49 118 L102 118 Q107 124 110 133 L56 133 L56 148 L83 148 Q82 149 81 151 Q75 160 66 169 L82 175 Q86 171 91 164 Q97 157 100 153 L87 148 L115 148 Q118 162 120 176 L141 176 Q138 161 135 148 L168 148 L156 153 Q167 164 174 175 L190 169 Q186 164 178 155 Q174 150 172 148 L198 148 L198 133 L131 133 Q129 128 126 121 Q124 119 124 118 L207 118 L207 102 L165 102 Q183 84 212 76 Q206 68 202 59 ZM115 102 Q108 92 97 83 L161 83 Q151 92 144 102 L115 102 Z" /><glyph glyph-name="uni5728" unicode="&#x5728;" d="M17 157 L17 178 L85 178 Q93 194 98 211 L123 208 Q120 201 115 188 Q112 181 111 178 L248 178 L248 157 L101 157 Q90 133 69 103 L69 -28 L46 -28 L46 76 Q33 63 17 48 Q12 59 6 71 Q51 111 75 157 L17 157 ZM90 73 L90 94 L151 94 L151 141 L174 141 L174 94 L235 94 L235 73 L174 73 L174 7 L248 7 L248 -13 L78 -13 L78 7 L151 7 L151 73 L90 73 Z" /><glyph glyph-name="uni573A" unicode="&#x573a;" d="M10 124 L10 147 L38 147 L38 209 L60 209 L60 147 L86 147 L86 124 L60 124 L60 45 Q72 50 84 54 Q84 43 86 34 Q112 58 122 97 L92 97 L92 119 L189 176 L99 176 L99 196 L226 196 L226 173 L130 117 L240 117 L236 19 Q236 -24 199 -23 L169 -24 Q168 -20 166 -9 Q165 -3 165 -1 Q174 -2 192 -2 Q214 -4 215 21 Q216 33 217 69 Q218 88 218 97 L192 97 Q180 11 124 -30 Q117 -22 107 -13 Q159 23 171 97 L143 97 Q131 36 81 0 Q79 1 74 7 Q68 13 65 16 Q74 22 82 30 Q65 24 31 11 Q18 5 12 3 L6 26 L38 37 L38 124 L10 124 Z" /><glyph glyph-name="uni5747" unicode="&#x5747;" d="M10 124 L10 146 L41 146 L41 209 L64 209 L64 146 L91 146 L91 129 Q116 162 133 210 L157 205 Q151 188 144 173 L240 173 Q238 89 236 19 Q237 -24 191 -23 Q165 -23 148 -23 Q147 -19 145 -10 Q143 -2 143 0 Q149 0 161 0 Q175 0 184 0 Q213 -2 212 26 Q215 78 216 151 L133 151 Q121 130 108 111 Q105 113 100 117 Q94 122 90 124 L64 124 L64 38 Q69 40 80 43 Q90 47 95 48 Q95 32 96 24 Q83 21 50 10 Q24 2 12 0 L7 23 Q23 26 41 31 L41 124 L10 124 ZM111 17 L101 40 Q149 59 198 81 Q198 69 201 56 Q178 47 118 20 Q121 22 111 17 ZM157 76 Q152 81 140 93 Q127 105 120 112 L136 127 Q154 111 175 93 L157 76 Z" /><glyph glyph-name="uni575A" unicode="&#x575a;" d="M29 33 L29 54 L116 54 L116 74 L140 74 L140 54 L226 54 L226 33 L140 33 L140 1 L247 1 L247 -18 L8 -18 L8 1 L116 1 L116 33 L29 33 ZM237 76 Q199 87 173 104 Q150 89 115 77 Q111 88 103 98 Q134 107 155 119 Q135 140 120 174 L122 175 L111 175 L111 195 L233 195 L233 175 Q218 139 192 118 Q214 106 248 98 Q247 95 244 90 Q243 86 237 76 ZM74 75 L74 207 L97 207 L97 75 L74 75 ZM22 80 L22 198 L44 198 L44 80 L22 80 ZM209 175 L142 175 Q154 147 173 131 Q196 148 209 175 Z" /><glyph glyph-name="uni5761" unicode="&#x5761;" d="M82 -28 Q74 -22 63 -15 Q101 22 98 91 L98 178 L162 178 L162 209 L184 209 L184 178 L244 178 L238 127 Q229 130 218 129 L222 158 L184 158 L184 113 L232 113 L232 92 Q218 50 194 22 Q215 4 249 -4 Q242 -16 237 -27 Q202 -10 177 6 Q154 -12 115 -30 Q109 -20 102 -8 Q139 4 161 22 Q142 43 126 87 L140 93 L120 93 L120 91 Q122 16 82 -28 ZM9 127 L9 149 L37 149 L37 210 L59 210 L59 149 L86 149 L86 127 L59 127 L59 48 L84 57 Q84 46 86 34 Q52 24 11 7 L6 31 Q21 35 37 41 L37 127 L9 127 ZM147 93 Q159 57 177 37 Q196 57 209 93 L147 93 ZM120 158 L120 113 L162 113 L162 158 L120 158 Z" /><glyph glyph-name="uni5764" unicode="&#x5764;" d="M157 -29 L157 35 L120 35 L120 22 L99 22 L99 171 L157 171 L157 210 L179 210 L179 171 L238 171 L238 22 L216 22 L216 35 L179 35 L179 -29 L157 -29 ZM9 127 L9 149 L37 149 L37 209 L59 209 L59 149 L86 149 L86 127 L59 127 L59 40 L87 48 Q88 39 88 25 Q40 11 11 1 L6 26 Q14 28 30 32 Q35 33 37 34 L37 127 L9 127 ZM120 151 L120 112 L157 112 L157 151 L120 151 ZM216 151 L179 151 L179 112 L216 112 L216 151 ZM120 93 L120 55 L157 55 L157 93 L120 93 ZM179 93 L179 55 L216 55 L216 93 L179 93 Z" /><glyph glyph-name="uni578B" unicode="&#x578b;" d="M17 180 L17 199 L144 199 L144 180 L120 180 L120 142 L151 142 L151 123 L120 123 L120 73 L99 73 L99 123 L62 123 Q61 91 33 65 Q23 72 14 78 Q40 99 41 123 L9 123 L9 142 L42 142 L42 180 L17 180 ZM28 30 L28 50 L116 50 L116 71 L140 71 L140 50 L228 50 L228 30 L140 30 L140 0 L247 0 L247 -19 L8 -19 L8 0 L116 0 L116 30 L28 30 ZM172 70 Q172 74 170 81 Q169 88 168 91 Q179 91 197 91 Q215 89 213 108 L213 207 L234 207 L234 102 Q235 70 207 70 Q189 70 172 70 ZM163 113 L163 195 L183 195 L183 113 L163 113 ZM63 142 L99 142 L99 180 L63 180 L63 142 Z" /><glyph glyph-name="uni57CE" unicode="&#x57ce;" d="M223 -26 Q199 -27 186 11 Q170 -8 147 -27 Q140 -20 131 -11 Q161 9 180 35 Q171 76 167 144 L107 144 L107 111 L154 111 Q154 97 153 75 Q153 49 152 38 Q152 9 124 8 Q122 8 117 8 Q112 7 109 7 Q108 11 107 21 Q105 27 105 29 Q109 29 119 29 Q134 29 133 43 Q134 56 134 92 L107 92 Q110 13 77 -29 Q76 -28 73 -26 Q63 -20 58 -18 Q76 6 81 28 Q86 49 86 97 L86 164 L167 164 Q166 185 166 210 L187 210 Q187 202 188 186 Q188 171 188 164 L248 164 L248 144 L189 144 Q190 96 197 60 Q212 87 223 120 L242 112 Q224 63 203 33 L204 30 Q210 -1 222 -1 Q227 -1 228 5 Q229 11 231 28 Q232 36 233 40 Q242 36 251 33 Q248 9 245 -4 Q240 -26 223 -26 ZM9 130 L9 151 L33 151 L33 210 L53 210 L53 151 L76 151 L76 130 L53 130 L53 43 Q65 47 76 50 Q76 35 77 29 Q40 18 10 7 L6 30 Q9 31 15 32 Q27 36 33 37 L33 130 L9 130 ZM225 167 Q214 179 197 193 L211 204 Q220 197 237 181 Q239 180 240 179 L225 167 Z" /><glyph glyph-name="uni57F9" unicode="&#x57f9;" d="M102 -29 L102 68 L231 68 L231 -29 L208 -29 L208 -13 L124 -13 L124 -29 L102 -29 ZM9 125 L9 147 L37 147 L37 209 L59 209 L59 147 L87 147 L87 125 L59 125 L59 35 Q64 37 74 39 Q83 42 88 43 Q88 39 89 31 Q89 23 89 19 Q68 14 22 1 Q15 0 11 -1 L6 23 Q9 24 14 25 Q20 26 37 30 L37 125 L9 125 ZM85 93 L85 112 L177 112 Q181 119 190 134 Q198 148 202 155 L224 147 Q220 141 212 130 Q204 118 200 112 L248 112 L248 93 L85 93 ZM124 49 L124 4 L208 4 L208 49 L124 49 ZM95 160 L95 179 L159 179 Q153 193 147 205 L171 210 Q179 195 184 180 L180 179 L240 179 L240 160 L95 160 ZM134 114 Q124 130 111 146 L130 156 Q142 141 154 124 L134 114 Z" /><glyph glyph-name="uni586B" unicode="&#x586b;" d="M85 175 L85 192 L152 192 L152 210 L174 210 L174 192 L241 192 L241 175 L174 175 L174 157 L229 157 L229 31 L249 31 L249 14 L79 14 L79 27 Q68 23 46 15 Q23 6 12 2 L6 26 Q21 30 37 36 L37 126 L10 126 L10 147 L37 147 L37 209 L59 209 L59 147 L84 147 L84 126 L59 126 L59 43 L85 53 L87 31 L99 31 L99 157 L152 157 L152 175 L85 175 ZM121 48 L121 31 L207 31 L207 48 L121 48 ZM121 142 L121 125 L207 125 L207 142 L121 142 ZM121 79 L121 62 L207 62 L207 79 L121 79 ZM121 111 L121 94 L207 94 L207 111 L121 111 ZM86 -29 Q82 -21 77 -12 Q106 -2 141 11 L152 -3 Q128 -13 86 -29 ZM236 -29 Q199 -12 175 -3 L184 11 Q215 1 245 -12 L236 -29 Z" /><glyph glyph-name="uni589E" unicode="&#x589e;" d="M82 92 L82 180 L123 180 Q119 185 112 196 Q107 203 105 206 L127 211 L148 182 L143 180 L175 180 Q178 185 185 195 Q191 205 195 211 L218 205 Q215 201 210 194 Q203 184 199 180 L240 180 L240 92 L82 92 ZM92 -29 L92 75 L229 75 L229 -29 L208 -29 L208 -18 L114 -18 L114 -29 L92 -29 ZM10 123 L10 145 L33 145 L33 209 L54 209 L54 145 L75 145 L75 123 L54 123 L54 34 Q59 35 70 38 Q77 40 80 41 Q80 30 80 18 Q64 14 32 4 Q18 0 11 -1 L6 22 Q11 23 21 25 Q29 27 33 28 L33 123 L10 123 ZM220 163 L170 163 L170 110 L220 110 L220 163 ZM102 163 L102 110 L151 110 L151 163 L102 163 ZM114 20 L114 -1 L208 -1 L208 20 L114 20 ZM114 58 L114 35 L208 35 L208 58 L114 58 ZM129 119 Q124 128 112 145 Q110 146 110 147 L122 155 Q135 139 142 127 L129 119 ZM192 118 L179 126 Q194 146 199 154 L213 146 Q211 142 203 132 Q195 122 192 118 Z" /><glyph glyph-name="uni58EB" unicode="&#x58eb;" d="M8 111 L8 135 L114 135 L114 210 L141 210 L141 135 L247 135 L247 111 L141 111 L141 9 L231 9 L231 -12 L24 -12 L24 9 L114 9 L114 111 L8 111 Z" /><glyph glyph-name="uni5904" unicode="&#x5904;" d="M243 -21 Q179 -21 153 -17 Q105 -12 76 17 Q58 -3 21 -30 Q19 -27 13 -21 Q8 -14 6 -11 Q42 13 61 36 Q44 61 35 100 Q26 81 15 63 Q10 77 4 87 Q34 141 49 208 L73 205 Q72 202 71 197 Q65 175 61 164 L126 164 L126 142 Q119 77 90 36 Q115 8 155 4 Q190 0 250 2 Q249 0 248 -4 Q245 -15 243 -21 ZM230 78 Q225 83 213 93 Q192 113 180 122 L180 14 L157 14 L157 208 L180 208 L180 135 L189 143 Q219 119 247 95 L230 78 ZM103 142 L54 142 Q53 140 52 137 Q50 133 49 131 Q58 83 75 56 Q97 90 103 142 Z" /><glyph glyph-name="uni5907" unicode="&#x5907;" d="M37 -29 L37 85 L218 85 L218 -29 L196 -29 L196 -18 L59 -18 L59 -29 L37 -29 ZM13 83 Q10 95 5 104 Q74 114 105 126 Q84 137 63 159 Q47 143 26 128 Q24 130 19 135 Q14 141 11 144 Q56 174 80 212 L104 206 Q98 198 91 189 L218 189 L218 170 Q190 143 156 125 Q196 114 249 110 Q245 102 241 88 Q171 97 130 113 Q90 97 13 83 ZM187 171 L79 171 Q100 149 130 135 Q164 150 187 171 ZM138 24 L138 -1 L196 -1 L196 24 L138 24 ZM196 67 L138 67 L138 40 L196 40 L196 67 ZM59 24 L59 -1 L117 -1 L117 24 L59 24 ZM59 67 L59 40 L117 40 L117 67 L59 67 Z" /><glyph glyph-name="uni590D" unicode="&#x590d;" d="M16 128 Q12 139 7 149 Q41 173 64 212 L89 209 Q84 201 78 193 L244 193 L244 175 L65 175 Q60 168 49 157 L223 157 L223 74 L41 74 L41 149 Q30 139 16 128 ZM27 -30 Q24 -21 18 -11 Q69 -5 108 4 Q81 17 65 31 Q47 17 22 2 Q21 3 19 6 Q12 15 8 19 Q54 42 80 74 L104 71 Q98 64 92 56 L222 56 L222 38 Q196 17 166 4 Q199 -3 248 -7 Q247 -10 244 -17 Q241 -24 239 -27 Q175 -18 136 -5 Q94 -20 27 -30 ZM64 109 L64 91 L200 91 L200 109 L64 109 ZM64 141 L64 123 L200 123 L200 141 L64 141 ZM191 39 L86 39 Q108 23 135 13 Q167 25 191 39 Z" /><glyph glyph-name="uni590F" unicode="&#x590f;" d="M12 182 L12 200 L246 200 L246 182 L132 182 L125 166 L222 166 L222 65 L104 65 Q97 58 89 50 L220 50 L220 31 Q196 13 168 1 Q201 -4 247 -7 Q242 -18 239 -27 Q169 -19 137 -8 Q96 -22 25 -31 Q23 -26 18 -17 Q17 -13 16 -12 Q61 -7 108 1 Q90 9 63 27 Q45 14 22 2 Q19 5 13 13 Q10 17 9 18 Q48 35 78 65 L38 65 L38 166 L101 166 L106 182 L12 182 ZM61 96 L61 80 L199 80 L199 96 L61 96 ZM61 123 L61 108 L199 108 L199 123 L61 123 ZM61 151 L61 136 L199 136 L199 151 L61 151 ZM189 33 L87 33 Q109 18 137 9 Q165 20 189 33 Z" /><glyph glyph-name="uni591A" unicode="&#x591a;" d="M36 27 Q33 32 28 40 Q25 45 24 47 Q99 72 147 114 L172 108 Q170 106 165 102 Q155 94 151 90 L238 90 L238 70 Q167 -7 21 -30 Q18 -20 12 -8 Q80 0 122 18 Q112 28 91 44 Q94 42 87 48 L102 57 Q67 38 36 27 ZM32 134 Q27 144 19 153 Q80 177 118 213 L144 209 Q132 197 120 188 L227 188 L227 167 Q155 106 18 73 Q15 84 9 94 Q66 106 106 122 Q102 125 95 132 Q79 146 69 153 Q51 144 32 134 ZM207 71 L124 71 Q115 65 105 59 Q113 53 127 41 Q137 33 143 29 L132 22 Q172 40 207 71 ZM194 169 L94 169 L86 164 Q106 150 126 134 L111 124 Q157 142 194 169 Z" /><glyph glyph-name="uni5927" unicode="&#x5927;" d="M12 121 L12 144 L114 144 Q116 167 116 209 L142 209 L140 144 L244 144 L244 121 L141 121 Q154 32 248 -1 Q241 -10 231 -25 Q148 11 128 86 Q114 15 25 -28 Q23 -25 17 -17 Q11 -10 8 -6 Q106 37 112 121 L12 121 Z" /><glyph glyph-name="uni5929" unicode="&#x5929;" d="M23 173 L23 195 L232 195 L232 173 L140 173 Q140 152 138 116 L246 116 L246 93 L143 93 Q160 21 248 -1 Q247 -3 244 -7 Q239 -16 234 -25 Q145 4 127 71 Q112 9 24 -28 Q22 -25 16 -17 Q11 -10 8 -6 Q101 28 110 93 L9 93 L9 116 L113 116 Q114 125 114 145 Q115 163 115 173 L23 173 Z" /><glyph glyph-name="uni592A" unicode="&#x592a;" d="M12 126 L12 150 L114 150 Q116 186 116 209 L141 209 Q141 170 140 150 L243 150 L243 126 L142 126 Q159 35 248 -3 Q239 -16 232 -25 Q145 20 128 102 Q112 24 24 -28 Q16 -18 7 -7 Q96 40 111 126 L12 126 ZM129 -19 Q125 -14 114 -2 Q98 16 91 24 L109 38 Q112 34 121 24 Q140 4 148 -4 L129 -19 Z" /><glyph glyph-name="uni5938" unicode="&#x5938;" d="M15 166 L15 185 L107 185 Q113 197 118 211 L142 209 Q138 197 132 185 L241 185 L241 166 L161 166 Q187 134 247 119 Q245 116 241 110 Q237 103 235 100 Q201 110 180 123 L180 110 L77 110 L77 124 Q55 109 20 96 Q18 99 14 106 Q9 112 7 115 Q71 137 94 166 L15 166 ZM18 70 L18 89 L237 89 L237 70 L84 70 L79 47 L207 47 Q205 20 202 6 Q199 -23 159 -24 Q136 -24 104 -24 Q103 -20 101 -12 Q100 -6 99 -2 Q101 -2 104 -2 Q136 -4 153 -3 Q178 -3 180 10 Q182 18 182 29 L51 29 L61 70 L18 70 ZM122 166 Q108 145 84 129 L172 129 Q151 144 138 166 L122 166 Z" /><glyph glyph-name="uni5947" unicode="&#x5947;" d="M22 166 L22 185 L118 185 Q119 192 119 210 L142 210 Q142 193 141 185 L234 185 L234 166 L135 166 Q135 165 134 162 Q135 164 133 161 Q179 148 228 133 L218 114 Q207 118 185 125 Q144 139 122 146 Q101 124 31 114 Q27 123 21 133 Q98 141 112 166 L22 166 ZM9 93 L9 113 L247 113 L247 93 L213 93 L213 7 Q214 -26 179 -26 Q177 -26 168 -26 Q152 -27 143 -27 Q142 -24 140 -16 Q138 -8 137 -4 Q157 -4 171 -4 Q191 -5 190 11 L190 93 L9 93 ZM36 -8 L36 73 L151 73 L151 5 L59 5 L59 -8 L36 -8 ZM59 55 L59 24 L129 24 L129 55 L59 55 Z" /><glyph glyph-name="uni5955" unicode="&#x5955;" d="M12 39 L12 59 L115 59 L117 75 L141 75 Q141 73 140 67 Q139 62 138 59 L246 59 L246 39 L146 39 Q168 4 249 -4 Q243 -15 238 -26 Q154 -12 129 29 Q111 -12 17 -29 Q13 -21 7 -7 Q95 3 108 39 L12 39 ZM122 85 Q122 86 122 88 Q121 94 118 105 Q121 105 129 105 Q137 104 140 104 Q155 104 154 118 L154 162 L111 162 Q111 149 109 137 Q107 99 63 72 Q60 76 51 83 Q48 86 46 87 Q86 110 87 140 Q89 150 89 162 L14 162 L14 183 L121 183 Q119 189 113 203 Q112 206 111 207 L136 211 Q140 204 147 184 L142 183 L243 183 L243 162 L176 162 L176 113 Q177 86 148 85 Q135 85 122 85 ZM230 91 Q208 114 188 133 L203 147 Q226 126 247 106 L230 91 ZM22 92 Q20 95 7 108 Q32 128 50 148 L66 135 Q53 121 25 95 Q26 96 22 92 Z" /><glyph glyph-name="uni5956" unicode="&#x5956;" d="M118 80 Q116 84 112 90 Q108 96 106 99 Q185 116 214 165 L145 165 L141 160 Q145 156 153 150 Q168 138 176 131 L159 118 Q153 125 138 137 Q131 143 128 146 Q124 142 115 134 Q121 139 112 132 L99 148 Q133 177 151 211 L174 207 Q172 204 169 198 Q163 188 160 184 L237 184 L237 164 Q206 101 118 80 ZM141 80 Q140 70 140 62 L245 62 L245 42 L143 42 Q162 2 247 -4 Q241 -16 237 -27 Q149 -13 128 26 Q110 -12 18 -30 Q10 -14 7 -7 Q102 6 111 42 L12 42 L12 62 L115 62 Q116 65 116 71 Q117 77 117 80 L141 80 ZM14 91 L7 114 Q37 126 69 140 L69 209 L90 209 L90 74 L69 74 L69 118 Q62 114 48 108 Q25 97 14 91 ZM46 143 Q27 165 14 182 L30 193 Q55 166 63 155 L46 143 Z" /><glyph glyph-name="uni597D" unicode="&#x597d;" d="M99 -6 Q85 4 68 21 Q55 1 21 -26 Q12 -17 6 -8 Q35 11 51 36 Q38 48 15 67 Q24 101 31 140 L9 140 L9 161 L34 161 Q37 175 40 205 Q41 208 41 210 L65 208 Q64 201 61 186 Q59 169 57 161 L101 161 L101 139 Q95 73 79 41 Q98 25 116 10 L99 -6 ZM109 79 L109 101 L170 101 L170 134 L212 174 L118 174 L118 196 L241 196 L241 172 L194 126 L194 101 L249 101 L249 79 L194 79 L194 7 Q195 -25 161 -25 Q142 -25 129 -25 Q129 -24 128 -21 Q126 -8 124 -1 Q139 -2 153 -2 Q171 -3 170 13 L170 79 L109 79 ZM80 140 L54 140 Q47 102 39 73 L62 55 Q76 88 80 140 Z" /><glyph glyph-name="uni5982" unicode="&#x5982;" d="M139 -20 L139 184 L237 184 L237 -17 L214 -17 L214 1 L162 1 L162 -20 L139 -20 ZM110 -11 Q104 -5 90 6 Q81 14 77 18 Q60 -2 23 -29 Q15 -20 6 -10 Q42 10 59 33 Q38 53 18 68 Q28 103 35 140 L8 140 L8 162 L39 162 Q43 186 46 210 L71 208 Q68 185 63 162 L118 162 L118 141 Q111 70 90 37 Q109 22 128 6 L110 -11 ZM162 162 L162 23 L214 23 L214 162 L162 162 ZM94 140 L59 140 Q55 119 45 82 Q44 77 43 75 L72 52 Q88 82 94 140 Z" /><glyph glyph-name="uni598D" unicode="&#x598d;" d="M196 -27 L196 82 L154 82 Q156 11 110 -30 Q102 -22 92 -14 Q134 20 132 82 L102 82 L102 103 L132 103 L132 175 L110 175 L110 196 L241 196 L241 175 L218 175 L218 103 L249 103 L249 82 L218 82 L218 -27 L196 -27 ZM87 0 Q83 2 76 9 Q69 16 65 19 Q51 0 21 -26 Q9 -14 5 -9 Q34 13 49 35 Q33 50 13 68 Q24 105 29 140 L8 140 L8 162 L33 162 Q36 186 39 210 L61 208 Q58 184 54 162 L98 162 L98 140 Q93 70 76 39 Q81 35 89 28 Q98 20 102 16 L87 0 ZM154 175 L154 103 L196 103 L196 175 L154 175 ZM77 140 L50 140 Q44 102 36 73 L59 54 Q73 83 77 140 Z" /><glyph glyph-name="uni5996" unicode="&#x5996;" d="M108 92 L108 114 L161 114 Q162 139 162 172 Q139 171 112 169 Q112 175 110 186 Q109 190 109 191 Q189 194 236 199 L240 178 Q220 176 186 174 Q186 150 184 114 L247 114 L247 92 L187 92 Q196 25 250 -5 Q243 -14 235 -26 Q184 10 173 69 Q163 12 106 -29 Q100 -20 90 -10 Q151 28 158 92 L108 92 ZM91 -1 Q87 1 79 9 Q71 16 67 20 Q54 0 21 -26 Q17 -22 9 -11 Q7 -9 6 -8 Q36 14 51 35 Q50 36 48 38 Q35 50 15 67 Q24 101 30 140 L9 140 L9 162 L34 162 Q37 186 40 210 L63 208 Q60 184 56 162 L101 162 L101 139 Q95 75 78 40 Q83 36 93 28 Q103 19 108 15 L91 -1 ZM79 140 L52 140 Q49 127 44 102 Q40 81 38 72 Q42 69 50 63 Q57 57 61 54 Q76 87 79 140 Z" /><glyph glyph-name="uni59CB" unicode="&#x59cb;" d="M92 -5 Q88 -1 79 6 Q71 14 66 18 Q52 -2 20 -27 L5 -10 Q33 10 50 33 Q44 39 32 49 Q20 60 14 65 Q25 113 29 140 L7 140 L7 161 L33 161 Q34 169 36 186 Q38 202 39 210 L62 208 Q61 198 58 181 Q56 167 55 161 L101 161 L101 140 Q96 70 78 37 Q81 34 88 28 Q102 16 108 10 L92 -5 ZM116 -29 L116 80 L233 80 L233 -29 L210 -29 L210 -13 L138 -13 L138 -29 L116 -29 ZM113 105 L103 127 Q112 132 121 144 Q144 178 160 211 L184 202 Q180 197 173 185 Q148 146 135 129 Q157 130 209 132 Q200 149 189 166 L208 176 Q231 139 250 105 L230 94 L220 112 Q158 110 136 108 Q123 108 113 105 ZM138 60 L138 5 L210 5 L210 60 L138 60 ZM80 140 L51 140 Q45 101 37 71 Q49 62 61 51 Q74 76 80 140 Z" /><glyph glyph-name="uni59D3" unicode="&#x59d3;" d="M124 96 L104 103 Q121 142 128 192 L148 189 L142 157 L170 157 L170 210 L193 210 L193 157 L244 157 L244 136 L193 136 L193 79 L242 79 L242 58 L193 58 L193 0 L249 0 L249 -20 L105 -20 L105 0 L170 0 L170 58 L115 58 L115 79 L170 79 L170 136 L136 136 Q130 115 124 96 ZM92 -2 L67 20 Q53 0 21 -26 Q15 -21 5 -12 Q34 10 50 35 L14 67 Q23 101 30 140 L8 140 L8 161 L33 161 Q38 186 39 210 L62 208 Q61 199 58 182 Q56 168 55 161 L102 161 L102 146 Q98 80 78 38 L108 12 L92 -2 ZM80 140 L51 140 Q45 101 37 73 L60 53 Q76 83 80 140 Z" /><glyph glyph-name="uni59D4" unicode="&#x59d4;" d="M8 52 L8 70 L82 70 Q85 73 89 80 Q95 89 98 92 L123 89 L109 70 L248 70 L248 52 L200 52 Q187 27 164 10 Q181 5 213 -2 Q229 -6 237 -8 L227 -28 Q184 -15 142 -1 Q99 -22 20 -29 Q18 -23 11 -9 Q75 -4 111 6 L45 26 Q47 28 51 32 Q56 38 67 52 L8 52 ZM13 136 L13 154 L116 154 L116 180 Q103 179 76 179 Q49 178 35 178 Q34 182 32 190 Q31 195 31 197 Q154 199 220 203 L224 184 Q210 184 182 183 Q153 182 139 181 L139 154 L242 154 L242 136 L154 136 Q192 110 248 103 Q242 92 238 83 Q173 96 139 128 L139 90 L116 90 L116 127 Q83 97 20 80 Q15 90 9 99 Q65 110 102 136 L13 136 ZM137 18 Q161 31 174 52 L94 52 Q92 50 89 46 Q82 37 79 34 L137 18 Z" /><glyph glyph-name="uni5A07" unicode="&#x5a07;" d="M86 0 L62 20 Q50 -1 19 -26 L5 -9 Q33 12 47 35 L13 65 Q14 68 15 74 Q24 116 28 142 L9 142 L9 163 L31 163 Q34 186 37 210 L59 208 L52 163 L95 163 L95 142 Q89 70 73 40 Q88 28 101 15 L86 0 ZM111 175 Q110 186 108 195 Q169 196 233 200 L237 180 Q210 179 181 177 Q181 158 177 141 L244 141 L244 121 L192 121 Q208 88 249 73 Q243 63 239 52 Q185 76 172 121 L170 121 Q159 83 104 49 Q102 53 97 61 Q94 66 92 69 Q136 92 148 121 L103 121 L103 141 L155 141 Q157 150 159 174 Q159 175 159 176 Q151 176 134 175 Q118 175 111 175 ZM109 -31 Q101 -24 92 -16 Q129 5 128 45 Q128 56 128 66 L150 66 Q150 53 150 43 Q151 -2 109 -31 ZM74 142 L49 142 Q43 101 35 71 L57 54 Q70 80 74 142 ZM190 -26 L190 66 L212 66 L212 -26 L190 -26 Z" /><glyph glyph-name="uni5A1C" unicode="&#x5a1c;" d="M85 117 L85 136 L101 136 L102 178 L84 178 L84 198 L161 198 Q161 187 161 166 Q159 50 158 11 Q159 -20 131 -21 Q126 -21 119 -22 Q112 -22 109 -22 Q109 -19 107 -12 Q106 -5 105 -1 Q108 -2 124 -2 Q141 -3 140 15 L141 55 L115 55 Q111 9 80 -29 Q78 -27 73 -22 Q68 -18 65 -15 Q93 14 97 55 L84 55 L84 74 L98 74 L99 88 Q100 100 100 117 L85 117 ZM68 5 L52 22 Q44 4 18 -24 Q16 -20 8 -10 Q6 -8 5 -7 Q26 13 38 36 Q25 48 12 61 Q18 100 24 142 L8 142 L8 162 L27 162 Q28 170 30 186 Q31 201 32 209 L52 207 Q49 185 46 162 L77 162 L77 142 Q76 79 60 41 Q71 32 81 22 L68 5 ZM177 -29 L177 196 L243 196 L243 176 L226 106 Q247 81 246 43 Q247 13 223 9 Q217 7 204 7 Q202 17 198 29 Q210 29 214 30 Q229 30 228 49 Q229 74 208 104 L225 177 L196 177 L196 -29 L177 -29 ZM60 142 L43 142 Q39 114 30 68 L46 54 Q59 87 60 142 ZM141 74 L142 117 L119 117 L117 88 L116 74 L141 74 ZM142 178 L120 178 Q120 156 119 136 L142 136 Q142 159 142 178 Z" /><glyph glyph-name="uni5A25" unicode="&#x5a25;" d="M93 166 Q92 172 90 181 Q89 184 89 186 Q116 188 161 196 L166 176 Q162 176 153 174 Q145 173 140 172 L140 135 L176 135 Q176 147 176 171 Q175 195 175 209 L196 209 Q196 174 197 135 L247 135 L247 115 L198 115 Q198 84 201 60 Q216 78 229 99 L246 87 Q224 54 204 34 L205 30 Q211 -4 223 -3 Q228 -4 230 7 Q233 22 234 39 Q243 35 250 33 Q249 16 245 -2 Q240 -28 222 -27 Q198 -28 187 17 Q172 5 154 -5 Q151 -2 146 4 Q143 9 141 11 Q161 22 183 41 Q178 71 177 115 L140 115 L140 77 Q154 80 166 83 Q166 73 168 62 L140 56 L140 2 Q141 -25 114 -25 Q103 -25 91 -25 Q91 -24 91 -23 Q90 -14 87 -3 Q94 -4 106 -4 Q120 -4 119 7 L119 51 L91 44 L86 66 Q103 69 119 73 L119 115 L91 115 L91 135 L119 135 L119 169 L93 166 ZM76 -1 Q66 9 55 19 Q44 -1 18 -27 Q13 -19 5 -10 Q28 9 41 34 Q38 37 31 44 Q19 57 11 64 Q19 99 25 140 L8 140 L8 160 L28 160 Q29 167 31 183 Q34 201 35 210 L56 207 L48 160 L84 160 L84 141 Q80 75 65 39 L90 16 L76 -1 ZM66 140 L45 140 Q44 134 42 124 Q38 101 31 71 Q34 68 40 62 Q47 57 50 54 Q61 82 66 140 ZM228 154 Q216 168 199 184 L213 197 Q224 187 244 167 L228 154 Z" /><glyph glyph-name="uni5A67" unicode="&#x5a67;" d="M106 -28 L106 94 L235 94 L235 3 Q236 -25 206 -26 Q202 -26 192 -26 Q180 -27 174 -27 Q172 -18 169 -7 Q179 -8 198 -8 Q215 -9 214 5 L214 13 L128 13 L128 -28 L106 -28 ZM19 -27 Q15 -23 8 -14 Q6 -11 5 -10 Q28 8 44 32 Q27 47 12 61 Q21 98 27 141 L8 141 L8 159 L30 159 Q33 185 36 210 L57 208 L50 159 L90 159 L90 140 Q86 74 69 37 L100 10 L86 -7 L59 18 Q47 -1 19 -27 ZM99 175 L99 191 L159 191 L159 210 L181 210 L181 191 L245 191 L245 175 L181 175 L181 158 L238 158 L238 143 L181 143 L181 126 L249 126 L249 110 L96 110 L96 126 L159 126 L159 143 L105 143 L105 158 L159 158 L159 175 L99 175 ZM34 68 L53 51 Q67 84 70 141 L47 141 Q44 125 39 94 Q35 77 34 68 ZM128 78 L128 60 L214 60 L214 78 L128 78 ZM128 46 L128 28 L214 28 L214 46 L128 46 Z" /><glyph glyph-name="uni5A77" unicode="&#x5a77;" d="M83 -7 L56 19 Q43 -4 17 -27 Q10 -18 5 -10 Q32 16 41 34 Q28 49 11 64 Q20 99 26 141 L8 141 L8 162 L29 162 Q32 176 35 206 Q36 209 36 210 L57 208 Q56 202 54 190 Q53 183 49 162 L86 162 L86 140 Q82 72 66 38 L97 8 L83 -7 ZM111 103 L111 153 L227 153 L227 103 L111 103 ZM112 33 L112 51 L227 51 L227 33 L182 33 L182 0 Q182 -25 157 -25 Q141 -26 124 -26 Q122 -17 119 -6 Q124 -6 134 -7 Q143 -7 147 -7 Q161 -6 160 3 L160 33 L112 33 ZM90 50 L90 88 L249 88 L249 50 L228 50 L228 70 L111 70 L111 50 L90 50 ZM92 168 L92 186 L158 186 Q157 190 155 197 Q152 204 151 207 L174 210 L181 186 L247 186 L247 168 L92 168 ZM67 141 L46 141 Q45 134 42 121 Q39 103 32 70 L50 52 Q64 85 67 141 ZM132 137 L132 119 L206 119 L206 137 L132 137 Z" /><glyph glyph-name="uni5A9B" unicode="&#x5a9b;" d="M98 123 L98 141 L119 141 Q118 144 115 149 Q113 153 106 167 L124 173 Q132 160 138 145 L126 141 L197 141 Q202 150 209 165 Q213 173 215 177 L235 171 Q232 165 226 155 Q220 146 218 141 L243 141 L243 123 L150 123 Q150 114 148 105 L247 105 L247 87 L145 87 Q143 77 140 69 L232 69 L232 49 Q214 21 195 7 Q212 0 250 -7 Q244 -18 241 -27 Q201 -18 176 -3 Q150 -19 108 -29 Q106 -26 103 -20 Q100 -14 98 -11 Q134 -2 158 7 Q142 21 130 41 Q115 10 91 -11 Q86 -4 79 0 L77 -2 Q66 8 57 18 Q48 4 24 -21 Q20 -25 18 -27 Q12 -18 5 -8 Q29 11 42 33 Q29 48 12 64 Q20 99 27 141 L8 141 L8 161 L29 161 Q34 185 35 210 L56 208 Q52 183 49 161 L87 161 L87 141 Q83 71 67 38 L89 16 Q116 48 124 87 L93 87 L93 105 L127 105 Q129 114 129 123 L98 123 ZM98 176 Q98 177 98 178 Q97 186 94 195 Q167 197 239 202 L242 183 Q231 182 206 181 Q139 177 98 176 ZM68 141 L46 141 Q44 130 40 111 Q35 82 33 70 Q42 61 52 52 Q65 85 68 141 ZM209 51 L145 51 Q157 32 176 18 Q194 30 209 51 ZM165 142 Q163 150 157 164 Q155 169 154 171 L174 175 Q180 161 184 146 L165 142 Z" /><glyph glyph-name="uni5B50" unicode="&#x5b50;" d="M7 77 L7 100 L118 100 L118 127 L190 174 L30 174 L30 197 L226 197 L226 169 L143 115 L143 100 L249 100 L249 77 L143 77 L143 10 Q144 -23 109 -25 Q103 -25 90 -25 Q76 -26 68 -26 Q66 -12 63 0 Q67 0 77 0 Q90 -1 98 -1 Q119 -2 118 18 L118 77 L7 77 Z" /><glyph glyph-name="uni5B57" unicode="&#x5b57;" d="M7 44 L7 66 L120 66 L120 80 L168 108 L51 108 L51 129 L203 129 L203 107 L144 73 L144 66 L249 66 L249 44 L144 44 L144 6 Q146 -25 111 -26 Q88 -26 73 -26 Q72 -15 69 -3 Q86 -4 101 -4 Q121 -5 120 13 L120 44 L7 44 ZM16 126 L16 178 L121 178 Q115 196 109 208 L136 212 Q138 206 144 190 Q147 183 148 179 L141 178 L240 178 L240 126 L216 126 L216 156 L39 156 L39 126 L16 126 Z" /><glyph glyph-name="uni5B59" unicode="&#x5b59;" d="M8 60 L5 85 Q11 87 24 90 Q36 93 42 94 L42 134 L75 175 L12 175 L12 196 L101 196 L101 173 L66 127 L66 100 L95 109 Q95 99 96 86 Q90 84 76 80 Q69 78 66 77 L66 7 Q67 -24 36 -24 Q22 -24 11 -24 Q10 -15 8 -2 Q16 -2 27 -2 Q44 -4 42 12 L42 70 L8 60 ZM123 -25 Q123 -22 121 -14 Q120 -6 119 -2 Q131 -2 145 -2 Q164 -3 163 14 L163 209 L186 209 L186 8 Q187 -24 155 -25 Q137 -25 123 -25 ZM229 33 Q219 76 201 145 L221 149 Q224 140 229 120 Q244 67 251 39 L229 33 ZM116 32 Q108 36 97 38 Q98 38 94 39 Q111 92 122 149 L144 145 Q133 90 116 32 Z" /><glyph glyph-name="uni5B5F" unicode="&#x5b5f;" d="M8 -16 L8 2 L31 2 L31 73 L224 73 L224 2 L248 2 L248 -16 L8 -16 ZM11 125 L11 145 L127 145 L127 157 L181 179 L40 179 L40 198 L220 198 L220 177 L151 148 L151 145 L245 145 L245 125 L151 125 L151 116 Q152 86 121 86 Q109 85 80 85 Q79 94 76 103 Q85 102 110 102 Q128 101 127 116 L127 125 L11 125 ZM201 54 L166 54 L166 2 L201 2 L201 54 ZM55 54 L55 2 L90 2 L90 54 L55 54 ZM111 54 L111 2 L145 2 L145 54 L111 54 Z" /><glyph glyph-name="uni5B63" unicode="&#x5b63;" d="M31 178 Q30 188 28 197 Q133 199 222 203 L226 184 Q207 183 168 182 Q149 181 139 181 L139 156 L243 156 L243 137 L155 137 Q189 113 249 101 Q243 90 238 81 Q171 100 139 131 L139 98 L116 98 L116 130 Q84 99 17 78 Q12 87 6 98 Q66 113 100 137 L11 137 L11 156 L116 156 L116 180 Q102 180 74 179 Q45 179 31 178 ZM7 23 L7 42 L120 42 L120 51 L160 70 L55 70 L55 88 L195 88 L195 69 L144 42 L248 42 L248 23 L144 23 L144 3 Q145 -25 113 -27 Q91 -27 71 -27 Q71 -26 71 -24 Q70 -18 67 -6 Q79 -7 103 -7 Q121 -8 120 7 L120 23 L7 23 Z" /><glyph glyph-name="uni5B66" unicode="&#x5b66;" d="M9 35 L9 57 L122 57 L122 66 L166 93 L53 93 L53 114 L201 114 L201 92 L146 59 L146 57 L247 57 L247 35 L146 35 L146 4 Q147 -28 114 -27 Q99 -28 76 -28 Q74 -16 71 -4 Q76 -4 87 -4 Q98 -5 104 -5 Q123 -6 122 11 L122 35 L9 35 ZM16 107 L16 159 L175 159 L164 164 Q188 194 197 208 L221 199 Q206 180 190 159 L240 159 L240 107 L217 107 L217 138 L39 138 L39 107 L16 107 ZM124 167 Q112 187 100 205 L123 211 Q136 193 148 173 L124 167 ZM58 163 Q45 182 33 199 L56 207 Q70 189 82 172 L58 163 Z" /><glyph glyph-name="uni5B81" unicode="&#x5b81;" d="M9 80 L9 103 L247 103 L247 80 L146 80 L146 11 Q148 -25 108 -25 Q88 -25 65 -25 Q64 -21 62 -13 Q61 -6 60 -2 Q80 -2 99 -2 Q123 -3 122 17 L122 80 L9 80 ZM18 124 L18 176 L121 176 Q119 181 116 190 Q112 202 110 208 L137 212 Q140 204 145 188 Q147 181 148 177 L145 176 L238 176 L238 124 L215 124 L215 154 L42 154 L42 124 L18 124 Z" /><glyph glyph-name="uni5B87" unicode="&#x5b87;" d="M40 108 L40 128 L219 128 L219 108 L145 108 L145 71 L247 71 L247 50 L145 50 L145 10 Q146 -25 110 -25 Q93 -25 72 -25 Q71 -18 68 -7 Q67 -4 67 -2 Q79 -3 101 -3 Q122 -5 121 15 L121 50 L9 50 L9 71 L121 71 L121 108 L40 108 ZM216 133 L216 159 L40 159 L40 133 L16 133 L16 180 L123 180 Q122 183 119 189 Q114 202 111 207 L136 212 Q139 206 145 193 Q148 185 150 181 L146 180 L240 180 L240 133 L216 133 Z" /><glyph glyph-name="uni5B89" unicode="&#x5b89;" d="M7 86 L7 108 L82 108 Q94 128 104 149 L130 142 Q127 137 122 129 Q114 115 110 108 L249 108 L249 86 L202 86 Q189 49 160 25 Q169 21 188 13 Q201 8 236 -5 L223 -28 Q178 -6 138 9 Q95 -15 25 -29 Q23 -22 16 -10 Q15 -7 14 -5 Q80 3 112 20 L45 50 Q48 55 55 65 Q64 79 69 86 L7 86 ZM213 130 L213 157 L43 157 L43 131 L19 131 L19 178 L123 178 Q120 184 113 198 Q110 203 109 206 L134 211 Q137 207 142 196 Q147 186 150 180 L141 178 L237 178 L237 130 L213 130 ZM78 57 Q90 53 116 43 Q129 38 136 35 Q163 55 176 86 L97 86 Q93 80 85 68 Q80 61 78 57 Z" /><glyph glyph-name="uni5B8B" unicode="&#x5b8b;" d="M10 87 L10 108 L116 108 L116 143 L139 143 L139 108 L245 108 L245 87 L152 87 Q183 39 249 11 Q247 8 243 2 Q237 -6 235 -10 Q169 22 139 71 L139 -29 L116 -29 L116 71 Q81 17 20 -12 Q14 -3 6 7 Q70 38 103 87 L10 87 ZM215 130 L215 157 L40 157 L40 131 L17 131 L17 178 L119 178 Q118 183 114 193 Q111 203 109 207 L134 211 Q136 207 139 198 Q144 185 146 179 L143 178 L239 178 L239 130 L215 130 Z" /><glyph glyph-name="uni5B9E" unicode="&#x5b9e;" d="M10 41 L10 62 L131 62 Q132 64 132 66 Q142 93 141 147 L166 147 Q166 103 157 65 L157 62 L246 62 L246 41 L150 41 L146 33 Q194 12 242 -6 L230 -26 Q188 -6 134 15 Q109 -13 23 -30 Q20 -23 12 -10 Q14 -13 10 -6 Q107 6 123 41 L10 41 ZM15 130 L15 181 L121 181 Q120 183 118 188 Q112 202 109 207 L135 211 Q138 206 143 194 Q146 185 148 181 L240 181 L240 130 L217 130 L217 160 L38 160 L38 130 L15 130 ZM89 66 Q63 82 36 94 L47 111 Q55 107 52 109 Q84 93 101 85 L89 66 ZM112 104 Q85 119 61 131 L71 148 Q98 136 123 122 L112 104 Z" /><glyph glyph-name="uni5BA1" unicode="&#x5ba1;" d="M116 -29 L116 18 L57 18 L57 7 L34 7 L34 131 L116 131 L116 153 L139 153 L139 131 L221 131 L221 7 L199 7 L199 18 L139 18 L139 -29 L116 -29 ZM15 140 L15 184 L119 184 Q113 196 109 207 L134 212 Q142 197 146 184 L240 184 L240 140 L217 140 L217 164 L38 164 L38 140 L15 140 ZM57 66 L57 38 L116 38 L116 66 L57 66 ZM139 66 L139 38 L199 38 L199 66 L139 66 ZM199 111 L139 111 L139 83 L199 83 L199 111 ZM57 111 L57 83 L116 83 L116 111 L57 111 Z" /><glyph glyph-name="uni5BA3" unicode="&#x5ba3;" d="M41 20 L41 112 L215 112 L215 20 L41 20 ZM16 137 L16 186 L118 186 Q115 198 111 210 L137 212 Q137 211 138 209 Q142 193 145 186 L240 186 L240 137 L217 137 L217 167 L39 167 L39 137 L16 137 ZM8 -19 L8 0 L249 0 L249 -19 L8 -19 ZM64 59 L64 37 L191 37 L191 59 L64 59 ZM64 95 L64 73 L191 73 L191 95 L64 95 ZM52 131 L52 148 L203 148 L203 131 L52 131 Z" /></font>
</defs>
</svg>
