<?xml version="1.0" standalone="no"?><!DOCTYPE svg PUBLIC "-//W3C//DTD SVG 1.1//EN" "http://www.w3.org/Graphics/SVG/1.1/DTD/svg11.dtd" ><svg xmlns="http://www.w3.org/2000/svg"><metadata></metadata><defs><font id="fonteditor" horiz-adv-x="277"><font-face font-family="e¹kckcY'Ñ{OS" font-weight="400" font-stretch="normal" units-per-em="256" panose-1="2 0 0 0 0 0 0 0 0 0" ascent="229" descent="-86" x-height="0" bbox="2 -35 265 212" underline-thickness="0" underline-position="0" unicode-range="U+0025-ff1a" /><missing-glyph horiz-adv-x="256"  /><glyph glyph-name="percent" unicode="%" d="M219 201 L98 -30 L58 -30 L178 201 L219 201 ZM118 144 Q117 88 65 87 Q14 89 12 143 Q14 198 65 200 Q117 199 118 144 ZM84 144 Q84 173 65 173 Q46 174 46 144 Q46 115 65 114 Q84 114 84 144 ZM265 27 Q264 -27 212 -28 Q160 -26 158 26 Q160 81 212 83 Q264 82 265 27 ZM230 27 Q230 56 211 56 Q192 57 193 27 Q193 -2 211 -2 Q230 -2 230 27 Z" /><glyph glyph-name="plus" unicode="+" d="M107 14 L68 14 L68 76 L11 76 L11 106 L68 106 L68 165 L107 165 L107 106 L163 106 L163 76 L107 76 L107 14 Z" /><glyph glyph-name="zero" unicode="0" d="M178 89 Q179 -23 94 -22 Q12 -20 11 89 Q13 198 94 202 Q177 201 178 89 ZM129 88 Q130 173 95 171 Q59 172 59 88 Q59 7 95 7 Q129 7 129 88 Z" /><glyph glyph-name="one" unicode="1" d="M125 -18 L77 -18 L77 134 Q49 114 8 108 L8 135 Q58 156 77 198 L125 198 L125 -18 Z" /><glyph glyph-name="two" unicode="2" d="M59 10 L170 10 L170 -18 L11 -18 L11 11 Q32 47 74 78 Q126 115 123 137 Q123 171 92 170 Q60 169 55 128 L10 128 Q23 200 95 201 Q168 199 171 139 Q174 96 122 65 Q76 38 59 10 Z" /><glyph glyph-name="three" unicode="3" d="M19 7 L19 42 Q48 8 86 8 Q127 9 128 42 Q128 73 81 73 L61 73 L61 110 L80 110 Q124 110 124 141 Q123 169 94 170 Q63 169 59 138 L14 138 Q27 200 95 201 Q169 199 171 145 Q172 104 126 94 Q175 85 177 42 Q177 -22 97 -22 Q48 -23 19 7 Z" /><glyph glyph-name="A" unicode="a" d="M222 -18 L172 -18 L154 31 L70 31 L52 -18 L2 -18 L83 197 L141 197 L222 -18 ZM112 153 L80 62 L143 62 L112 153 Z" /><glyph glyph-name="D" unicode="d" d="M89 -18 L19 -18 L19 197 L86 197 Q207 199 205 91 Q211 -23 89 -18 ZM85 167 L67 167 L67 10 L85 10 Q159 8 156 91 Q159 168 85 167 Z" /><glyph glyph-name="I" unicode="i" d="M65 -18 L18 -18 L18 197 L65 197 L65 -18 Z" /><glyph glyph-name="O" unicode="o" d="M228 88 Q223 -16 121 -22 Q19 -16 14 88 Q19 196 121 200 Q221 194 228 88 ZM179 88 Q177 167 121 170 Q65 166 62 88 Q64 10 121 6 Q178 8 179 88 Z" /><glyph glyph-name="P" unicode="p" d="M112 57 L66 57 L66 -18 L19 -18 L19 197 L112 197 Q191 197 190 127 Q192 55 112 57 ZM66 167 L66 88 L103 88 Q144 87 142 127 Q143 168 103 167 L66 167 Z" /><glyph glyph-name="S" unicode="s" d="M14 18 L14 56 Q51 7 99 6 Q144 6 145 39 Q145 65 104 72 Q12 87 19 141 Q22 199 100 200 Q176 198 188 133 L142 133 Q131 168 101 169 Q67 169 68 141 Q66 116 106 110 Q194 93 194 42 Q195 -22 106 -22 Q48 -25 14 18 Z" /><glyph glyph-name="d" unicode="d" d="M97 139 L125 139 L125 212 L172 212 L172 -22 L97 -22 Q10 -23 11 57 Q11 139 97 139 ZM106 7 L125 7 L125 108 L107 108 Q59 109 60 56 Q60 7 106 7 Z" /><glyph glyph-name="uni300A" unicode="&#x300a;" d="M166 89 L211 -30 L182 -30 L136 89 L182 211 L211 211 L166 89 ZM118 89 L163 -30 L132 -30 L88 89 L132 211 L163 211 L118 89 Z" /><glyph glyph-name="uni300B" unicode="&#x300b;" d="M74 -30 L44 -30 L89 89 L44 211 L74 211 L119 89 L74 -30 ZM123 -30 L93 -30 L138 89 L93 211 L123 211 L168 89 L123 -30 Z" /><glyph glyph-name="uni4E00" unicode="&#x4e00;" d="M10 87 L10 118 L246 118 L246 87 L10 87 Z" /><glyph glyph-name="uni4E03" unicode="&#x4e03;" d="M79 206 L126 206 L126 147 L243 147 L243 117 L126 117 L126 27 Q124 8 147 9 L189 9 Q202 9 202 22 L202 38 L240 38 L240 15 Q240 -20 202 -20 L116 -20 Q80 -21 79 20 L79 117 L13 117 L13 147 L79 147 L79 206 Z" /><glyph glyph-name="uni4E09" unicode="&#x4e09;" d="M27 191 L230 191 L230 161 L27 161 L27 191 ZM38 79 L38 109 L219 109 L219 79 L38 79 ZM13 -10 L13 18 L243 18 L243 -10 L13 -10 Z" /><glyph glyph-name="uni4E0B" unicode="&#x4e0b;" d="M13 163 L13 194 L243 194 L243 163 L144 163 L144 -24 L97 -24 L97 163 L13 163 ZM154 129 Q195 121 231 99 L231 52 Q193 81 154 95 L154 129 Z" /><glyph glyph-name="uni4E2D" unicode="&#x4e2d;" d="M22 37 L22 170 L105 170 L105 207 L151 207 L151 170 L234 170 L234 84 Q236 34 193 37 L151 37 L151 -26 L105 -26 L105 37 L22 37 ZM64 141 L64 66 L105 66 L105 141 L64 141 ZM192 141 L151 141 L151 66 L178 66 Q193 66 192 83 L192 141 Z" /><glyph glyph-name="uni4E5D" unicode="&#x4e5d;" d="M16 149 L16 180 L67 180 L67 207 L115 207 L115 180 L194 180 L194 18 Q194 8 202 8 Q211 8 211 18 L211 32 L244 32 L244 15 Q245 -20 207 -20 L184 -20 Q146 -21 147 19 L147 149 L114 149 Q117 30 13 -25 L13 3 Q69 52 67 149 L16 149 Z" /><glyph glyph-name="uni4E8C" unicode="&#x4e8c;" d="M33 152 L33 183 L222 183 L222 152 L33 152 ZM240 25 L240 -4 L16 -4 L16 25 L240 25 Z" /><glyph glyph-name="uni4E94" unicode="&#x4e94;" d="M19 166 L19 196 L238 196 L238 166 L132 166 L127 122 L217 122 L217 12 L245 12 L245 -15 L11 -15 L11 12 L69 12 L78 92 L27 92 L27 122 L81 122 L86 166 L19 166 ZM174 92 L124 92 L115 12 L174 12 L174 92 Z" /><glyph glyph-name="uni4F5C" unicode="&#x4f5c;" d="M240 49 L240 21 L176 21 L176 -23 L132 -23 L132 148 Q114 130 84 122 L84 145 Q111 167 114 205 L159 205 Q157 195 154 186 L246 186 L246 158 L176 158 L176 118 L232 118 L232 90 L176 90 L176 49 L240 49 ZM36 -23 L36 112 Q25 108 13 105 L13 130 Q42 148 51 205 L95 205 Q88 172 77 153 L77 -23 L36 -23 Z" /><glyph glyph-name="uni516B" unicode="&#x516b;" d="M98 197 L98 148 Q103 29 13 -24 L13 6 Q35 35 42 65 Q50 95 50 149 L50 197 L98 197 ZM158 197 L206 197 L206 149 Q203 52 243 6 L243 -24 Q153 29 158 148 L158 197 Z" /><glyph glyph-name="uni516C" unicode="&#x516c;" d="M200 67 Q222 27 233 -19 L190 -19 Q189 -15 188 -8 Q186 -3 186 -1 Q112 -13 56 -12 L35 -12 L35 22 Q74 61 97 122 L147 122 Q122 61 79 22 Q130 22 178 26 Q171 47 161 67 L200 67 ZM243 82 Q159 111 144 201 L189 201 Q198 140 243 109 L243 82 ZM13 82 L13 109 Q58 140 67 201 L112 201 Q97 111 13 82 Z" /><glyph glyph-name="uni516D" unicode="&#x516d;" d="M240 179 L240 148 L16 148 L16 179 L102 179 L102 205 L153 205 L153 179 L240 179 ZM13 -24 L13 8 Q50 44 47 125 L93 125 Q97 22 13 -24 ZM243 -24 Q159 22 163 125 L209 125 Q206 44 243 8 L243 -24 Z" /><glyph glyph-name="uni5173" unicode="&#x5173;" d="M26 150 L26 179 L57 179 Q54 190 52 203 L98 203 Q99 188 103 179 L153 179 Q157 187 158 203 L204 203 Q202 190 199 179 L230 179 L230 150 L153 150 L153 103 L241 103 L241 73 L157 73 Q171 27 243 3 L243 -24 Q160 -5 130 36 Q98 -5 13 -24 L13 3 Q91 29 101 73 L15 73 L15 103 L104 103 L104 150 L26 150 Z" /><glyph glyph-name="uni51C6" unicode="&#x51c6;" d="M84 -24 L84 111 Q75 107 66 102 L66 130 Q96 159 102 204 L145 204 Q142 189 137 176 L157 176 L157 200 L199 200 L199 176 L242 176 L242 148 L199 148 L199 122 L239 122 L239 95 L199 95 L199 69 L239 69 L239 42 L199 42 L199 14 L245 14 L245 -12 L125 -12 L125 -24 L84 -24 ZM50 -20 L9 -20 Q29 34 34 100 L70 100 Q66 25 50 -20 ZM50 195 Q65 160 70 135 L31 135 Q26 162 13 195 L50 195 ZM125 42 L125 14 L157 14 L157 42 L125 42 ZM125 95 L125 69 L157 69 L157 95 L125 95 ZM125 148 L125 122 L157 122 L157 148 L125 148 Z" /><glyph glyph-name="uni51FB" unicode="&#x51fb;" d="M104 206 L152 206 L152 184 L232 184 L232 155 L152 155 L152 121 L245 121 L245 91 L152 91 L152 11 L175 11 Q190 11 190 27 L190 73 L231 73 L231 19 Q231 -16 195 -16 L25 -16 L25 73 L67 73 L67 11 L104 11 L104 91 L11 91 L11 121 L104 121 L104 155 L23 155 L23 184 L104 184 L104 206 Z" /><glyph glyph-name="uni5219" unicode="&#x5219;" d="M19 47 L19 198 L140 198 L140 47 L106 47 L106 170 L52 170 L52 47 L19 47 ZM80 20 Q56 -11 16 -25 L16 0 Q64 31 61 82 L61 158 L97 158 L97 82 Q94 33 141 3 L141 -25 Q99 -7 80 20 ZM150 25 L150 189 L187 189 L187 25 L150 25 ZM197 205 L235 205 L235 9 Q236 -21 203 -21 L174 -21 L174 5 L188 5 Q197 5 197 14 L197 205 Z" /><glyph glyph-name="uni521B" unicode="&#x521b;" d="M59 206 L101 206 Q116 164 147 139 L147 112 Q140 115 132 119 L132 73 Q135 34 95 36 L76 36 L76 64 L84 64 Q96 64 95 75 L95 99 L66 99 L66 22 Q65 7 78 8 L100 8 Q112 7 111 20 L111 28 L144 28 L144 14 Q145 -19 112 -18 L59 -18 Q25 -20 26 17 L26 116 Q24 115 20 113 Q17 112 15 111 L15 138 Q45 163 59 206 ZM199 205 L237 205 L237 9 Q238 -23 205 -22 L172 -22 L172 4 L190 4 Q199 4 199 13 L199 205 ZM152 25 L152 188 L186 188 L186 25 L152 25 ZM80 162 Q66 140 46 127 L116 127 Q97 138 80 162 Z" /><glyph glyph-name="uni5341" unicode="&#x5341;" d="M104 -24 L104 99 L14 99 L14 129 L104 129 L104 206 L152 206 L152 129 L242 129 L242 99 L152 99 L152 -24 L104 -24 Z" /><glyph glyph-name="uni5353" unicode="&#x5353;" d="M12 10 L12 38 L106 38 L106 51 L33 51 L33 155 L101 155 L101 206 L146 206 L146 194 L240 194 L240 167 L146 167 L146 155 L225 155 L225 88 Q226 50 189 51 L151 51 L151 38 L245 38 L245 10 L151 10 L151 -25 L106 -25 L106 10 L12 10 ZM171 77 Q183 77 183 88 L183 91 L75 91 L75 77 L171 77 ZM75 129 L75 115 L183 115 L183 129 L75 129 Z" /><glyph glyph-name="uni53C2" unicode="&#x53c2;" d="M13 49 L13 73 Q54 88 74 107 L16 107 L16 134 L96 134 Q99 139 101 143 L147 143 Q146 142 145 139 Q143 136 142 134 L241 134 L241 107 L184 107 Q205 84 242 72 L242 49 Q216 54 195 62 Q160 19 43 11 L43 34 Q118 40 150 65 L190 65 Q175 71 162 82 Q133 55 57 49 L57 63 Q39 55 13 49 ZM198 196 Q216 173 227 143 L186 143 Q186 144 185 145 Q184 147 184 151 Q131 146 69 146 L35 146 L35 174 Q64 185 86 205 L142 205 Q118 184 92 174 Q133 173 173 176 Q167 185 160 196 L198 196 ZM27 -27 L27 -4 Q140 4 184 40 L239 40 Q179 -23 27 -27 ZM79 73 Q104 77 122 90 L154 90 Q150 94 143 102 Q140 105 139 107 L123 107 Q106 86 79 73 Z" /><glyph glyph-name="uni53D1" unicode="&#x53d1;" d="M67 -24 L67 0 Q103 9 125 22 Q105 42 91 67 Q67 29 13 -8 L13 23 Q65 74 80 139 L18 139 L18 168 Q24 182 28 201 L70 201 Q69 198 67 191 Q61 174 57 168 L87 168 Q90 184 92 205 L138 205 Q135 186 131 168 L178 168 L178 201 L216 201 L216 168 L245 168 L245 139 L124 139 Q123 134 119 124 Q118 120 117 118 L225 118 L225 89 Q208 47 181 22 Q205 7 240 0 L240 -24 Q184 -15 152 2 Q119 -14 67 -24 ZM105 90 Q104 88 102 84 Q99 80 98 78 L132 78 Q141 59 153 45 Q170 64 180 90 L105 90 Z" /><glyph glyph-name="uni5412" unicode="&#x5412;" d="M108 193 L193 193 Q213 193 238 200 L238 169 Q217 164 195 164 L177 164 L177 113 L244 113 L244 84 L177 84 L177 23 Q176 7 192 8 L194 8 Q208 7 207 20 L207 31 L241 31 L241 12 Q241 -19 209 -19 L168 -19 Q135 -19 134 14 L134 84 L106 84 L106 113 L134 113 L134 164 L108 164 L108 193 ZM20 -1 L20 190 L102 190 L102 34 Q103 -3 68 -1 L20 -1 ZM68 34 L68 163 L54 163 L54 25 L59 25 Q69 24 68 34 Z" /><glyph glyph-name="uni54C1" unicode="&#x54c1;" d="M217 196 L217 143 Q218 105 182 105 L40 105 L40 196 L217 196 ZM82 166 L82 135 L163 135 Q176 134 175 148 L175 166 L82 166 ZM120 91 L120 16 Q121 -19 85 -18 L20 -18 L20 91 L120 91 ZM57 61 L57 8 L71 8 Q84 7 83 19 L83 61 L57 61 ZM237 91 L237 16 Q238 -19 203 -18 L135 -18 L135 91 L237 91 ZM173 61 L173 8 L188 8 Q201 7 200 19 L200 61 L173 61 Z" /><glyph glyph-name="uni54EA" unicode="&#x54ea;" d="M88 115 L88 141 L98 141 L98 174 L87 174 L87 199 L165 199 L165 11 Q166 -20 136 -19 L120 -19 L120 3 L125 3 Q136 2 135 15 L135 57 L126 57 Q125 5 82 -26 L82 3 Q97 25 98 57 L87 57 L87 82 L98 82 L98 115 L88 115 ZM18 -7 L18 192 L82 192 L82 23 Q83 -9 53 -7 L18 -7 ZM232 108 Q246 85 246 55 Q247 3 206 4 L206 34 Q218 34 217 58 Q218 85 204 106 Q212 137 213 167 L202 167 L202 -24 L173 -24 L173 196 L245 196 L245 172 Q241 133 232 108 ZM57 24 L57 166 L45 166 L45 17 L49 17 Q58 17 57 24 ZM135 174 L126 174 L126 141 L135 141 L135 174 ZM126 115 L126 82 L135 82 L135 115 L126 115 Z" /><glyph glyph-name="uni56DB" unicode="&#x56db;" d="M22 -18 L22 194 L236 194 L236 23 Q237 -19 194 -18 L22 -18 ZM178 10 Q195 9 194 26 L194 43 L172 43 Q136 42 137 81 L137 165 L120 165 L120 133 Q124 57 64 36 L64 10 L178 10 ZM194 165 L176 165 L176 82 Q176 71 186 71 L194 71 L194 165 ZM64 165 L64 68 Q82 83 81 133 L81 165 L64 165 Z" /><glyph glyph-name="uni56DE" unicode="&#x56de;" d="M197 171 L59 171 L59 7 L182 7 Q198 6 197 23 L197 171 ZM18 -19 L18 199 L238 199 L238 21 Q238 -19 199 -19 L18 -19 ZM145 120 L113 120 L113 59 L133 59 Q146 58 145 71 L145 120 ZM76 31 L76 148 L182 148 L182 67 Q183 30 148 31 L76 31 Z" /><glyph glyph-name="uni56FD" unicode="&#x56fd;" d="M18 -20 L18 201 L239 201 L239 19 Q240 -21 200 -20 L18 -20 ZM196 173 L61 173 L61 6 L180 6 Q196 6 196 22 L196 173 ZM73 109 L105 109 L105 132 L69 132 L69 158 L187 158 L187 132 L147 132 L147 109 L183 109 L183 82 L147 82 L147 46 L189 46 L189 19 L67 19 L67 46 L105 46 L105 82 L73 82 L73 109 ZM178 78 Q185 65 188 50 L158 50 Q156 63 150 78 L178 78 Z" /><glyph glyph-name="uni589E" unicode="&#x589e;" d="M97 205 L139 205 Q140 196 144 189 L173 189 Q176 196 177 205 L219 205 Q218 196 215 189 L240 189 L240 125 Q242 89 209 91 L76 91 L76 189 L101 189 Q98 196 97 205 ZM86 -20 L86 82 L228 82 L228 16 Q230 -22 192 -20 L86 -20 ZM79 14 Q51 1 11 -4 L11 28 Q14 28 19 29 Q24 29 26 29 L26 137 L13 137 L13 163 L26 163 L26 206 L63 206 L63 163 L73 163 L73 137 L63 137 L63 37 Q67 38 75 40 Q77 41 79 42 L79 14 ZM190 56 L124 56 L124 42 L190 42 L190 56 ZM178 4 Q191 3 190 16 L190 19 L124 19 L124 4 L178 4 ZM109 164 L109 116 L141 116 L141 124 L118 124 Q112 138 111 158 L135 158 Q137 139 141 126 L141 164 L109 164 ZM205 157 Q203 136 197 123 L175 123 L175 116 L194 116 Q207 115 206 130 L206 164 L175 164 L175 128 Q178 140 180 157 L205 157 Z" /><glyph glyph-name="uni5927" unicode="&#x5927;" d="M18 129 L18 160 L103 160 L103 205 L153 205 L153 160 L238 160 L238 129 L153 129 Q166 37 243 3 L243 -24 Q156 3 129 60 Q97 0 13 -24 L13 3 Q92 38 102 129 L18 129 Z" /><glyph glyph-name="uni5929" unicode="&#x5929;" d="M28 195 L227 195 L227 165 L154 165 L154 121 L241 121 L241 91 L157 91 Q172 34 243 3 L243 -24 Q156 0 129 50 Q99 -3 13 -24 L13 3 Q87 37 100 91 L15 91 L15 121 L104 121 L104 165 L28 165 L28 195 Z" /><glyph glyph-name="uni592A" unicode="&#x592a;" d="M19 129 L19 160 L103 160 L103 205 L153 205 L153 160 L237 160 L237 129 L155 129 Q168 42 243 3 L243 -24 Q156 10 129 70 Q119 52 105 37 L134 37 Q140 24 147 0 Q148 -4 149 -7 L110 -7 Q108 1 102 23 Q101 28 100 30 Q69 0 13 -24 L13 3 Q93 52 101 129 L19 129 Z" /><glyph glyph-name="uni592B" unicode="&#x592b;" d="M26 182 L105 182 L105 206 L153 206 L153 182 L230 182 L230 153 L153 153 L153 110 L241 110 L241 80 L158 80 Q173 34 243 4 L243 -24 Q160 -3 130 43 Q99 -6 13 -24 L13 3 Q90 35 101 80 L15 80 L15 110 L105 110 L105 153 L26 153 L26 182 Z" /><glyph glyph-name="uni5956" unicode="&#x5956;" d="M105 146 L105 166 Q130 176 140 205 L180 205 Q179 203 178 200 Q176 196 175 194 L241 194 L241 166 Q210 98 127 86 L152 86 L152 80 Q152 76 152 72 L242 72 L242 44 L159 44 Q174 10 243 0 L243 -24 Q166 -16 128 18 Q96 -18 13 -24 L13 0 Q80 8 97 44 L16 44 L16 72 L104 72 Q104 76 104 80 L104 86 L115 86 L115 108 Q144 115 156 123 Q140 129 125 132 L125 150 Q116 147 105 146 ZM65 82 L65 114 Q43 103 13 93 L13 129 Q45 136 65 147 L65 206 L102 206 L102 82 L65 82 ZM58 152 Q37 164 16 167 L16 197 Q40 196 58 189 L58 152 ZM197 166 L157 166 Q150 160 141 156 Q157 155 170 150 L170 132 Q182 143 197 166 Z" /><glyph glyph-name="uni59D4" unicode="&#x59d4;" d="M33 197 L147 197 Q185 196 226 206 L226 176 Q192 168 154 169 L151 169 L151 157 L241 157 L241 129 L205 129 Q213 114 239 105 L239 82 Q225 85 214 88 L214 76 L244 76 L244 48 L212 48 Q206 19 180 6 Q206 2 240 0 L240 -24 Q163 -18 128 -10 Q93 -18 16 -24 L16 0 Q51 2 76 6 Q50 19 44 48 L13 48 L13 76 L42 76 L42 88 Q31 85 17 82 L17 105 Q43 114 51 129 L16 129 L16 157 L107 157 L107 169 L33 169 L33 197 ZM107 91 L107 129 L95 129 Q83 102 52 91 L87 91 L87 76 L169 76 L169 91 L204 91 Q174 102 160 129 L151 129 L151 91 L107 91 ZM90 48 Q95 26 128 17 Q160 27 166 48 L90 48 Z" /><glyph glyph-name="uni59DC" unicode="&#x59dc;" d="M198 205 Q197 196 194 189 L237 189 L237 162 L152 162 L152 151 L224 151 L224 124 L152 124 L152 112 L244 112 L244 85 L13 85 L13 112 L106 112 L106 124 L33 124 L33 151 L106 151 L106 162 L20 162 L20 189 L62 189 Q59 196 58 205 L104 205 Q105 196 108 189 L148 189 Q151 196 152 205 L198 205 ZM17 41 L17 69 L43 69 L43 80 L86 80 L86 69 L170 69 L170 80 L213 80 L213 69 L240 69 L240 41 L212 41 Q208 14 184 1 Q189 1 201 0 Q223 0 236 -1 L236 -24 Q160 -19 128 -13 Q96 -19 20 -24 L20 -1 Q33 0 55 0 Q67 1 72 1 Q47 15 44 41 L17 41 ZM87 41 Q91 19 128 10 Q165 19 169 41 L87 41 Z" /><glyph glyph-name="uni5A03" unicode="&#x5a03;" d="M11 148 L11 176 L19 176 L19 205 L53 205 L53 176 L68 176 L68 205 L102 205 L102 176 L110 176 L110 148 L102 148 L102 102 Q102 49 80 22 Q90 13 105 4 L105 -22 Q77 -8 59 3 Q41 -9 11 -22 L11 4 Q29 13 40 23 Q18 49 19 102 L19 148 L11 148 ZM115 40 L115 69 L155 69 L155 91 L198 91 L198 69 L238 69 L238 40 L198 40 L198 10 L244 10 L244 -16 L109 -16 L109 10 L155 10 L155 40 L115 40 ZM119 153 L119 181 L155 181 L155 206 L198 206 L198 181 L234 181 L234 153 L198 153 L198 125 L241 125 L241 97 L112 97 L112 125 L155 125 L155 153 L119 153 ZM60 50 Q68 67 68 101 L68 148 L53 148 L53 101 Q53 68 60 50 Z" /><glyph glyph-name="uni5A46" unicode="&#x5a46;" d="M111 73 L111 92 Q129 95 142 100 Q127 111 116 126 L116 123 Q118 84 71 73 L71 96 Q81 103 81 120 L81 195 L145 195 L145 208 L183 208 L183 195 L239 195 L239 161 L205 161 L205 174 L183 174 L183 153 L231 153 L231 132 Q218 113 202 100 Q217 96 237 93 L237 74 Q198 77 173 85 Q148 76 111 73 ZM14 39 L14 65 L40 65 L40 72 L82 72 L82 65 L174 65 L174 72 L216 72 L216 65 L243 65 L243 39 L214 39 Q206 15 182 3 Q193 2 217 0 Q232 0 241 -1 L241 -23 Q170 -19 128 -11 Q87 -19 15 -23 L15 -1 Q24 0 39 0 Q49 1 74 3 Q50 15 42 39 L14 39 ZM56 75 L13 75 Q32 97 38 125 L73 125 Q68 94 56 75 ZM87 39 Q97 22 128 14 Q159 22 169 39 L87 39 ZM59 165 Q68 154 73 133 L35 133 Q28 154 22 165 L59 165 ZM55 205 Q64 188 68 173 L30 173 Q24 194 16 205 L55 205 ZM116 174 L116 153 L145 153 L145 174 L116 174 ZM155 127 Q164 120 171 115 Q181 122 190 132 L116 132 L116 127 L155 127 Z" /><glyph glyph-name="uni5B50" unicode="&#x5b50;" d="M11 76 L11 105 L109 105 L109 130 Q133 142 160 166 L28 166 L28 196 L229 196 L229 167 Q193 135 157 120 L157 105 L244 105 L244 76 L157 76 L157 20 Q157 -21 115 -21 L75 -21 L75 6 L96 6 Q109 6 109 20 L109 76 L11 76 Z" /><glyph glyph-name="uni5B5F" unicode="&#x5b5f;" d="M12 -17 L12 11 L31 11 L31 77 L226 77 L226 11 L244 11 L244 -17 L12 -17 ZM15 119 L15 147 L114 147 L114 156 Q132 160 151 169 L38 169 L38 198 L219 198 L219 168 Q196 155 166 147 L242 147 L242 119 L162 118 Q163 81 127 82 L81 82 L81 107 L103 107 Q115 106 114 119 L15 119 ZM121 49 L121 11 L135 11 L135 49 L121 49 ZM186 49 L172 49 L172 11 L186 11 L186 49 ZM71 49 L71 11 L84 11 L84 49 L71 49 Z" /><glyph glyph-name="uni5B66" unicode="&#x5b66;" d="M15 37 L15 65 L110 65 L110 73 Q129 80 151 95 L46 95 L46 124 L212 124 L212 94 Q185 76 158 67 L158 65 L242 65 L242 37 L158 37 L158 18 Q158 -24 116 -24 L77 -24 L77 3 L97 3 Q111 2 110 16 L110 37 L15 37 ZM224 206 Q216 186 206 172 L238 172 L238 129 L198 129 L198 145 L58 145 L58 129 L18 129 L18 172 L167 172 Q177 189 181 206 L224 206 ZM33 206 L73 206 Q81 192 84 179 L44 179 Q39 194 33 206 ZM99 206 L139 206 Q145 196 151 179 L110 179 Q105 194 99 206 Z" /><glyph glyph-name="uni5B89" unicode="&#x5b89;" d="M12 83 L12 113 L37 113 L37 137 L83 137 L83 113 L173 113 L173 137 L219 137 L219 113 L246 113 L246 83 L217 83 Q210 34 170 11 Q200 5 243 1 L243 -24 Q171 -17 128 -4 Q85 -17 13 -24 L13 1 Q56 5 86 11 Q46 34 39 83 L12 83 ZM236 191 L236 144 L193 144 L193 161 L63 161 L63 144 L20 144 L20 191 L102 191 L102 206 L153 206 L153 191 L236 191 ZM84 83 Q89 44 128 25 Q167 44 172 83 L84 83 Z" /><glyph glyph-name="uni5BA1" unicode="&#x5ba1;" d="M31 7 L31 135 L107 135 L107 154 L151 154 L151 135 L227 135 L227 46 Q227 8 189 7 L151 7 L151 -25 L107 -25 L107 7 L31 7 ZM239 192 L239 147 L196 147 L196 164 L60 164 L60 147 L17 147 L17 192 L102 192 L102 205 L153 205 L153 192 L239 192 ZM69 57 L69 35 L107 35 L107 57 L69 57 ZM69 106 L69 85 L107 85 L107 106 L69 106 ZM175 35 Q188 34 187 48 L187 57 L151 57 L151 35 L175 35 ZM187 106 L151 106 L151 85 L187 85 L187 106 Z" /><glyph glyph-name="uni5C4A" unicode="&#x5c4a;" d="M200 122 L69 122 L69 55 Q73 -6 14 -25 L14 2 Q29 13 28 47 L28 197 L237 197 L237 161 Q238 121 200 122 ZM76 -19 L76 104 L137 104 L137 118 L176 118 L176 104 L237 104 L237 16 Q237 -19 206 -19 L76 -19 ZM69 169 L69 150 L186 150 Q198 150 197 162 L197 169 L69 169 ZM113 29 L113 5 L137 5 L137 29 L113 29 ZM190 5 Q200 5 200 16 L200 29 L176 29 L176 5 L190 5 ZM200 78 L176 78 L176 55 L200 55 L200 78 ZM113 78 L113 55 L137 55 L137 78 L113 78 Z" /><glyph glyph-name="uni5C5E" unicode="&#x5c5e;" d="M75 60 L75 106 L132 106 L132 112 L72 112 L72 132 L146 132 Q193 131 234 138 L234 117 Q193 112 170 112 L170 106 L229 106 L229 88 Q231 58 202 60 L170 60 L170 53 L239 53 L239 7 Q240 -25 210 -23 L185 -23 L185 -4 L193 -4 Q198 -4 199 -3 L182 -3 Q181 0 181 2 Q154 -3 110 -3 L110 18 L132 18 L132 33 L106 33 L106 -25 L68 -25 L68 53 L132 53 L132 60 L75 60 ZM205 140 L67 140 L67 57 Q70 -3 15 -26 L15 1 Q28 17 27 50 L27 199 L237 199 L237 173 Q238 139 205 140 ZM67 174 L67 163 L188 163 Q198 162 197 172 L197 174 L67 174 ZM175 30 L193 30 Q199 14 201 0 Q201 2 201 3 L201 33 L170 33 L170 20 Q174 21 177 21 Q177 26 175 30 ZM193 88 L170 88 L170 78 L185 78 Q194 77 193 85 L193 88 ZM111 88 L111 78 L132 78 L132 88 L111 88 Z" /><glyph glyph-name="uni5E03" unicode="&#x5e03;" d="M87 206 L135 206 Q134 203 132 196 Q129 190 128 186 L242 186 L242 157 L116 157 Q107 139 97 124 L118 124 L118 146 L162 146 L162 124 L229 124 L229 34 Q229 -2 192 -2 L169 -2 L169 24 L176 24 Q189 23 188 36 L188 95 L162 95 L162 -25 L118 -25 L118 95 L92 95 L92 -5 L51 -5 L51 76 Q36 64 16 51 L16 84 Q52 119 69 157 L19 157 L19 186 L81 186 Q82 190 84 196 Q86 203 87 206 Z" /><glyph glyph-name="uni5EA7" unicode="&#x5ea7;" d="M244 165 L67 165 L67 55 Q71 -3 13 -25 L13 1 Q27 16 26 45 L26 193 L114 193 L114 207 L165 207 L165 193 L244 193 L244 165 ZM75 37 L75 63 L133 63 L133 158 L171 158 L171 63 L230 63 L230 37 L171 37 L171 9 L242 9 L242 -16 L63 -16 L63 9 L133 9 L133 37 L75 37 ZM204 94 Q194 77 174 68 L174 94 Q189 110 188 137 L188 150 L220 150 L220 137 Q220 110 235 94 L235 67 Q212 78 204 94 ZM100 94 Q90 75 70 68 L70 94 Q84 107 84 137 L84 150 L116 150 L116 136 Q115 110 130 94 L130 68 Q109 78 100 94 Z" /><glyph glyph-name="uni5F0F" unicode="&#x5f0f;" d="M13 147 L13 177 L130 177 Q130 181 130 191 Q129 201 129 207 L174 207 Q174 191 174 177 L193 177 L193 201 L228 201 L228 177 L242 177 L242 147 L175 147 Q176 96 185 51 Q194 3 211 5 Q220 5 219 19 L246 19 Q247 -24 211 -22 Q164 -24 147 41 Q135 80 131 147 L13 147 ZM18 92 L18 121 L128 121 L128 92 L95 92 L95 27 Q100 28 109 29 Q127 31 137 33 L137 6 Q79 -9 14 -8 L14 24 Q35 24 53 24 L53 92 L18 92 Z" /><glyph glyph-name="uni5F52" unicode="&#x5f52;" d="M121 162 L121 191 L236 191 L236 22 Q237 -15 199 -14 L112 -14 L112 14 L180 14 Q192 13 191 25 L191 77 L121 77 L121 106 L191 106 L191 162 L121 162 ZM111 206 L111 70 Q116 1 33 -26 L33 0 Q73 26 70 66 L70 206 L111 206 ZM19 33 L19 185 L57 185 L57 33 L19 33 Z" /><glyph glyph-name="uni5F80" unicode="&#x5f80;" d="M245 11 L245 -16 L86 -16 L86 11 L144 11 L144 71 L96 71 L96 100 L144 100 L144 151 L93 151 L93 180 L144 180 L144 205 L189 205 L189 180 L240 180 L240 151 L189 151 L189 100 L236 100 L236 71 L189 71 L189 11 L245 11 ZM13 66 L13 91 Q43 109 55 141 L96 141 Q88 117 76 102 L76 -24 L35 -24 L35 72 Q26 69 13 66 ZM14 130 L14 154 Q44 171 53 205 L95 205 Q78 143 14 130 Z" /><glyph glyph-name="uni5FD7" unicode="&#x5fd7;" d="M13 149 L13 178 L105 178 L105 206 L151 206 L151 178 L243 178 L243 149 L151 149 L151 115 L227 115 L227 85 L30 85 L30 115 L105 115 L105 149 L13 149 ZM68 74 L109 74 L109 23 Q108 7 123 8 L153 8 Q164 7 163 19 L163 24 L197 24 L197 11 Q198 -20 165 -20 L102 -20 Q68 -21 68 14 L68 74 ZM225 74 Q239 37 246 -8 L206 -8 Q204 31 189 74 L225 74 ZM28 74 L62 74 Q59 29 47 -8 L10 -8 Q23 27 28 74 ZM163 74 Q174 50 176 28 L137 28 Q135 54 127 74 L163 74 Z" /><glyph glyph-name="uni620C" unicode="&#x620c;" d="M74 140 L74 96 L127 96 L127 68 L74 68 L74 58 Q77 -3 16 -25 L16 0 Q30 17 29 51 L29 169 L131 169 Q131 187 131 206 L174 206 L174 169 L193 169 L193 201 L227 201 L227 169 L244 169 L244 140 L174 140 Q175 102 178 76 Q190 96 200 121 L242 121 Q221 62 187 30 Q195 4 206 4 Q215 3 215 18 L245 18 Q246 -25 208 -24 Q177 -24 157 7 Q129 -7 89 -21 L89 4 Q123 20 145 38 Q142 49 140 61 Q134 93 132 140 L74 140 Z" /><glyph glyph-name="uni626B" unicode="&#x626b;" d="M109 161 L109 190 L234 190 L234 25 Q234 -16 198 -15 L103 -15 L103 13 L178 13 Q190 12 189 24 L189 77 L112 77 L112 106 L189 106 L189 161 L109 161 ZM39 205 L80 205 L80 177 L101 177 L101 149 L80 149 L80 106 Q90 109 102 112 L102 84 L80 76 L80 10 Q80 -22 47 -22 L21 -22 L21 4 L32 4 Q40 3 39 13 L39 65 Q27 62 12 59 L12 94 Q18 95 28 96 Q36 98 39 98 L39 149 L13 149 L13 177 L39 177 L39 205 Z" /><glyph glyph-name="uni6295" unicode="&#x6295;" d="M243 1 L243 -24 Q197 -15 168 1 Q139 -15 91 -25 L91 0 Q121 10 141 22 Q120 45 105 73 L149 73 Q154 65 164 52 Q167 48 168 46 Q182 61 189 82 L100 82 L100 110 L234 110 L234 82 Q220 45 196 21 Q215 9 243 1 ZM36 205 L76 205 L76 177 L93 177 L93 150 L76 150 L76 106 L93 111 L93 84 L76 78 L76 7 Q77 -24 41 -23 L18 -23 L18 3 L28 3 Q37 3 36 11 L36 67 Q26 64 12 62 L12 95 L36 98 L36 150 L15 150 L15 177 L36 177 L36 205 ZM151 171 L151 163 Q153 120 94 115 L94 137 Q113 141 112 162 L112 199 L222 199 L222 154 Q221 143 232 144 L243 144 L243 118 L216 118 Q183 117 184 151 L184 171 L151 171 Z" /><glyph glyph-name="uni6559" unicode="&#x6559;" d="M22 163 L22 191 L46 191 L46 206 L85 206 L85 191 L105 191 L105 169 Q109 178 115 187 L149 187 Q138 163 126 144 L128 144 L128 116 L102 116 Q91 105 85 101 L125 101 L125 74 Q116 61 105 53 Q120 55 136 56 L136 30 Q117 26 99 23 L99 9 Q100 -23 67 -22 L34 -22 L34 3 L48 3 Q60 3 59 14 L59 19 Q37 17 12 17 L12 48 Q21 48 37 49 Q52 49 59 49 L59 56 Q71 63 81 74 L41 74 Q36 71 24 66 Q16 62 12 60 L12 87 Q39 102 58 116 L14 116 L14 144 L46 144 L46 163 L22 163 ZM245 179 L245 151 L232 151 Q231 84 205 43 Q219 24 241 7 L241 -23 Q203 -2 185 18 Q163 -2 127 -24 L127 6 Q151 25 166 44 Q148 75 141 116 Q136 114 131 111 L131 139 Q151 164 155 205 L193 205 Q192 201 191 193 Q189 183 188 179 L245 179 ZM171 142 Q175 107 185 80 Q194 104 197 151 L177 151 Q174 148 171 142 ZM87 144 Q94 153 100 163 L85 163 L85 144 L87 144 Z" /><glyph glyph-name="uni65B0" unicode="&#x65b0;" d="M230 -20 L191 -20 L191 112 L179 112 L179 48 Q183 -8 132 -26 L132 -7 Q100 6 98 51 L128 51 Q130 25 139 14 Q142 23 141 38 L141 195 L196 195 Q222 194 244 202 L244 172 Q226 167 202 167 L179 167 L179 140 L245 140 L245 112 L230 112 L230 -20 ZM125 157 Q124 145 119 132 L136 132 L136 104 L96 104 L96 88 L133 88 L133 60 L96 60 L96 13 Q97 -23 61 -22 L39 -22 L39 3 L48 3 Q59 2 58 15 L58 60 L17 60 L17 88 L58 88 L58 104 L12 104 L12 132 L30 132 Q25 145 24 157 L59 157 Q60 145 65 132 L84 132 Q89 145 90 157 L125 157 ZM17 163 L17 191 L53 191 L53 204 L96 204 L96 191 L132 191 L132 163 L17 163 ZM9 -11 L9 12 Q24 26 26 51 L56 51 Q55 4 9 -11 Z" /><glyph glyph-name="uni65B9" unicode="&#x65b9;" d="M16 158 L16 187 L102 187 L102 205 L154 205 L154 187 L240 187 L240 158 L95 158 L95 147 Q95 140 95 132 L222 132 L222 22 Q223 -21 176 -20 L131 -20 L131 8 L162 8 Q177 8 176 22 L176 104 L94 104 Q92 9 16 -24 L16 4 Q36 26 42 52 Q49 79 49 138 L49 158 L16 158 Z" /><glyph glyph-name="uni65F6" unicode="&#x65f6;" d="M19 -5 L19 194 L114 194 L114 31 Q116 -7 79 -5 L19 -5 ZM226 206 L226 173 L246 173 L246 144 L226 144 L226 16 Q228 -23 191 -21 L148 -21 L148 6 L170 6 Q182 6 181 17 L181 144 L121 144 L121 173 L181 173 L181 206 L226 206 ZM156 124 Q168 95 175 54 L135 54 Q133 84 120 124 L156 124 ZM77 31 L77 84 L58 84 L58 21 L67 21 Q77 21 77 31 ZM58 165 L58 111 L77 111 L77 165 L58 165 Z" /><glyph glyph-name="uni66B4" unicode="&#x66b4;" d="M34 128 L34 198 L224 198 L224 161 Q226 126 194 128 L189 128 L189 119 L234 119 L234 96 L189 96 L189 86 L243 86 L243 63 L197 63 Q212 51 244 44 L244 21 Q219 25 201 31 Q200 29 196 24 Q194 20 193 18 L186 18 Q208 14 226 7 L226 -22 Q189 -5 154 0 L154 21 Q157 21 160 21 Q166 33 168 46 L170 46 Q159 52 150 63 L106 63 Q97 54 87 47 L90 47 Q92 34 99 23 L103 24 L103 1 Q108 2 108 12 L108 56 L151 56 L151 8 Q152 -25 119 -24 L87 -24 L87 -6 Q68 -13 28 -19 L28 7 Q59 9 87 19 L64 19 Q58 25 55 31 Q37 25 12 21 L12 44 Q44 51 59 63 L15 63 L15 86 L68 86 L68 96 L24 96 L24 119 L68 119 L68 128 L34 128 ZM184 178 L74 178 L74 171 L184 171 L184 178 ZM175 147 Q184 147 184 155 L74 155 L74 147 L175 147 ZM108 96 L108 86 L149 86 L149 96 L108 96 ZM108 128 L108 119 L149 119 L149 128 L108 128 Z" /><glyph glyph-name="uni6700" unicode="&#x6700;" d="M12 90 L12 115 L245 115 L245 90 L130 90 L130 19 Q131 19 133 19 Q137 20 139 20 L139 0 Q153 5 163 11 Q146 27 137 49 L176 49 Q180 40 186 33 Q190 38 197 51 Q199 54 200 56 L135 56 L135 81 L238 81 L238 57 Q228 27 211 11 Q223 4 239 0 L239 -25 Q209 -17 188 -5 Q176 -13 138 -24 L138 -1 Q136 -1 133 -2 Q131 -2 130 -2 L130 -25 L94 -25 L94 -9 Q56 -15 14 -18 L14 9 Q21 9 28 9 L28 90 L12 90 ZM220 198 L220 156 Q221 120 188 122 L36 122 L36 198 L220 198 ZM170 142 Q180 141 179 151 L77 151 L77 142 L170 142 ZM77 178 L77 169 L179 169 L179 178 L77 178 ZM64 58 L64 46 L94 46 L94 58 L64 58 ZM64 11 Q67 11 74 12 Q86 13 94 14 L94 25 L64 25 L64 11 ZM64 90 L64 78 L94 78 L94 90 L64 90 Z" /><glyph glyph-name="uni671F" unicode="&#x671f;" d="M190 4 Q201 3 200 15 L200 54 L179 54 Q181 -2 134 -26 L134 2 Q143 19 142 56 L142 200 L237 200 L237 13 Q238 -22 204 -21 L183 -21 L183 4 L190 4 ZM14 190 L25 190 L25 206 L62 206 L62 190 L89 190 L89 206 L126 206 L126 190 L137 190 L137 162 L126 162 L126 59 L138 59 L138 31 L10 31 L10 59 L25 59 L25 162 L14 162 L14 190 ZM13 -26 L13 -2 Q31 5 35 26 L71 26 Q63 -16 13 -26 ZM130 -26 Q86 -13 79 26 L115 26 Q117 7 130 0 L130 -26 ZM179 114 L179 81 L200 81 L200 114 L179 114 ZM200 173 L179 173 L179 141 L200 141 L200 173 ZM62 76 L62 59 L89 59 L89 76 L62 76 ZM62 119 L62 103 L89 103 L89 119 L62 119 ZM62 162 L62 146 L89 146 L89 162 L62 162 Z" /><glyph glyph-name="uni673A" unicode="&#x673a;" d="M209 15 Q209 9 214 9 Q218 8 218 15 L218 23 L246 23 L246 9 Q246 -17 219 -17 L197 -17 Q168 -17 168 13 L168 169 L147 169 L147 89 Q151 5 90 -26 L90 4 Q107 24 106 88 L106 197 L209 197 L209 15 ZM15 148 L15 176 L37 176 L37 207 L77 207 L77 176 L97 176 L97 148 L78 148 Q83 122 99 95 L99 58 Q86 73 77 85 L77 -25 L37 -25 L37 64 Q29 48 10 22 L10 62 Q28 104 36 148 L15 148 Z" /><glyph glyph-name="uni6743" unicode="&#x6743;" d="M243 3 L243 -24 Q192 -3 168 18 Q145 0 95 -26 L95 4 Q126 24 144 43 Q115 82 103 151 L143 151 Q152 105 168 76 Q187 109 191 163 L100 163 L100 192 L234 192 L234 164 Q224 81 193 44 Q212 24 243 3 ZM15 148 L15 176 L38 176 L38 207 L78 207 L78 176 L97 176 L97 148 L78 148 Q84 119 99 93 L99 53 Q87 67 78 80 L78 -25 L38 -25 L38 63 Q29 42 10 21 L10 61 Q27 98 37 148 L15 148 Z" /><glyph glyph-name="uni676F" unicode="&#x676f;" d="M94 97 L94 60 Q135 108 146 163 L100 163 L100 192 L239 192 L239 163 L192 163 Q186 144 180 127 L186 127 L186 -24 L143 -24 L143 67 Q121 43 92 24 L92 57 Q93 58 93 58 Q83 70 75 82 L75 -25 L35 -25 L35 65 Q28 48 9 23 L9 65 Q27 106 34 147 L12 147 L12 176 L35 176 L35 207 L75 207 L75 176 L96 176 L96 147 L75 147 Q80 123 94 97 ZM193 111 Q221 101 242 80 L242 31 Q218 59 193 74 L193 111 Z" /><glyph glyph-name="uni6784" unicode="&#x6784;" d="M100 148 Q119 165 122 205 L162 205 Q161 201 160 193 Q158 188 158 185 L237 185 L237 17 Q239 -23 199 -22 L163 -22 L163 4 L187 4 Q199 3 199 17 L199 156 L145 156 Q131 133 100 126 L100 148 ZM15 150 L15 176 L41 176 L41 206 L80 206 L80 176 L100 176 L100 150 L80 150 Q86 121 101 98 L101 61 Q98 65 92 72 Q84 82 80 87 L80 -25 L41 -25 L41 66 Q31 46 11 21 L11 61 Q32 103 40 150 L15 150 ZM183 101 Q192 54 194 21 L164 21 Q164 27 164 32 Q145 27 122 27 L105 27 L105 55 Q117 88 122 134 L158 134 Q149 86 134 55 Q153 55 161 56 Q160 74 155 101 L183 101 Z" /><glyph glyph-name="uni6807" unicode="&#x6807;" d="M15 147 L15 176 L35 176 L35 206 L74 206 L74 176 L92 176 L92 147 L75 147 Q80 119 93 96 L93 52 Q82 66 74 79 L74 -25 L35 -25 L35 63 Q25 41 10 22 L10 68 Q27 105 34 147 L15 147 ZM93 109 L93 137 L244 137 L244 109 L187 109 L187 12 Q188 -23 151 -22 L127 -22 L127 4 L136 4 Q147 3 146 14 L146 109 L93 109 ZM102 195 L235 195 L235 167 L102 167 L102 195 ZM245 -6 Q193 19 195 90 L230 90 Q230 44 245 23 L245 -6 ZM89 -6 L89 23 Q104 46 104 90 L140 90 Q140 19 89 -6 Z" /><glyph glyph-name="uni6B66" unicode="&#x6b66;" d="M11 126 L11 154 L148 154 Q148 159 148 170 Q147 192 148 205 L189 205 Q188 177 188 154 L245 154 L245 126 L188 126 Q189 80 194 48 Q200 5 213 3 Q222 3 221 18 L248 18 Q248 -24 213 -24 Q174 -26 159 41 Q152 72 149 126 L11 126 ZM24 109 L61 109 L61 21 Q69 21 76 21 L76 119 L116 119 L116 90 L148 90 L148 62 L116 62 L116 24 Q133 26 153 29 L153 0 Q74 -13 12 -12 L12 20 L24 20 L24 109 ZM27 167 L27 194 L139 194 L139 167 L27 167 ZM227 199 Q236 181 240 161 L204 161 Q202 179 193 199 L227 199 Z" /><glyph glyph-name="uni6BD4" unicode="&#x6bd4;" d="M126 205 L171 205 L171 142 Q192 148 204 171 L247 171 Q228 121 171 116 L171 22 Q171 8 185 8 L194 8 Q209 8 208 22 L208 35 L241 35 L241 15 Q241 -20 204 -20 L163 -20 Q126 -21 126 20 L126 205 ZM70 27 Q90 32 116 44 L116 10 Q72 -12 26 -26 L26 204 L70 204 L70 147 L116 147 L116 118 L70 118 L70 27 Z" /><glyph glyph-name="uni6C42" unicode="&#x6c42;" d="M151 207 L151 176 L176 176 L176 201 L217 201 L217 176 L241 176 L241 146 L151 146 L151 119 Q154 113 162 103 Q167 95 169 92 Q178 112 182 137 L223 137 Q217 106 205 87 L174 87 Q199 53 240 26 L240 -6 Q181 24 151 57 L151 20 Q152 -22 108 -21 L80 -21 L80 6 L91 6 Q107 5 106 23 L106 146 L16 146 L16 176 L106 176 L106 207 L151 207 ZM100 52 Q62 17 16 -1 L16 40 Q58 55 100 90 L100 52 ZM33 137 L74 137 Q79 110 89 87 L51 87 Q39 106 33 137 Z" /><glyph glyph-name="uni6D4E" unicode="&#x6d4e;" d="M78 164 L78 191 L137 191 L137 205 L184 205 L184 191 L244 191 L244 164 L229 164 Q214 132 192 114 Q213 106 245 100 L245 75 Q229 77 215 80 L215 -20 L174 -20 L174 80 L211 80 Q184 85 160 95 Q139 86 111 80 L142 80 L142 39 Q144 -10 81 -26 L81 0 Q102 9 101 35 L101 79 Q89 76 76 75 L76 100 Q107 106 129 114 Q106 132 91 164 L78 164 ZM53 -21 L10 -21 Q30 24 37 79 L73 79 Q69 27 53 -21 ZM57 141 Q68 118 73 92 L35 92 Q30 115 21 141 L57 141 ZM54 201 Q64 177 70 152 L31 152 Q27 177 17 201 L54 201 ZM160 131 Q178 145 187 164 L133 164 Q143 146 160 131 Z" /><glyph glyph-name="uni6D77" unicode="&#x6d77;" d="M69 168 Q95 177 103 206 L146 206 Q143 197 140 190 L240 190 L240 165 L120 165 Q110 156 93 152 L230 152 L230 92 L245 92 L245 65 L230 65 L230 34 L243 34 L243 7 L230 7 Q230 -24 197 -24 L160 -24 L160 0 L181 0 Q190 0 192 7 L112 7 Q80 7 80 38 L80 65 L70 65 L70 92 L80 92 L80 148 Q79 148 75 148 Q71 147 69 147 L69 168 ZM51 -20 L11 -20 Q29 25 33 81 L69 81 Q66 17 51 -20 ZM51 201 Q60 184 66 152 L28 152 Q23 180 15 201 L51 201 ZM53 141 Q64 118 68 92 L31 92 Q27 113 18 141 L53 141 ZM169 118 Q175 106 178 92 L192 92 L192 125 L119 125 L119 92 L142 92 Q139 105 135 118 L169 118 ZM170 59 Q176 46 178 34 L192 34 L192 65 L119 65 L119 45 Q119 34 130 34 L142 34 Q141 41 136 55 Q135 58 135 59 L170 59 Z" /><glyph glyph-name="uni6E38" unicode="&#x6e38;" d="M64 158 L64 185 L86 185 L86 204 L126 204 L126 185 L148 185 L148 158 L108 158 L108 149 Q108 146 108 140 Q107 134 107 131 L147 131 L147 10 Q148 -21 115 -20 L97 -20 L97 5 L103 5 Q115 4 114 17 L114 106 L107 106 Q107 14 61 -25 L61 11 Q68 32 71 57 Q73 83 73 139 L73 158 L64 158 ZM149 134 L149 156 Q164 173 166 204 L204 204 Q204 200 202 193 Q201 190 201 188 L244 188 L244 161 L190 161 Q184 154 177 148 L237 148 L237 121 Q232 101 219 87 L219 80 L245 80 L245 53 L219 53 L219 10 Q220 -22 189 -21 L165 -21 L165 4 L172 4 Q184 4 183 15 L183 53 L152 53 L152 80 L183 80 L183 92 Q195 106 198 121 L158 121 L158 137 Q154 136 149 134 ZM47 -20 L8 -20 Q27 24 31 81 L64 81 Q62 23 47 -20 ZM47 201 Q59 177 61 152 L26 152 Q24 172 14 201 L47 201 ZM49 141 Q60 118 64 92 L29 92 Q27 114 16 141 L49 141 Z" /><glyph glyph-name="uni70B9" unicode="&#x70b9;" d="M35 43 L35 140 L101 140 L101 206 L146 206 L146 188 L241 188 L241 160 L146 160 L146 140 L223 140 L223 84 Q224 42 185 43 L35 43 ZM180 111 L77 111 L77 72 L167 72 Q180 72 180 87 L180 111 ZM116 34 Q122 12 125 -20 L84 -20 Q83 0 78 34 L116 34 ZM172 34 Q183 0 185 -20 L144 -20 Q143 5 134 34 L172 34 ZM228 34 Q240 5 242 -20 L201 -20 Q200 5 190 34 L228 34 ZM28 34 L66 34 Q57 4 56 -20 L15 -20 Q17 0 28 34 Z" /><glyph glyph-name="uni7248" unicode="&#x7248;" d="M142 -25 L142 2 Q160 15 170 28 Q161 43 153 60 Q153 0 106 -25 L106 5 Q116 20 115 64 L115 195 L194 195 Q215 195 242 202 L242 172 Q218 167 196 167 L153 167 L153 140 L238 140 L238 114 Q232 57 213 29 Q226 14 244 3 L244 -24 Q213 -12 192 5 Q173 -10 142 -25 ZM24 59 L24 199 L57 199 L57 146 L67 146 L67 205 L101 205 L101 146 L111 146 L111 119 L57 119 L57 99 L101 99 L101 -20 L67 -20 L67 72 L57 71 Q60 -2 15 -26 L15 2 Q24 25 24 59 ZM201 113 L153 113 L153 102 L177 102 Q183 81 190 63 Q196 82 201 113 Z" /><glyph glyph-name="uni72D7" unicode="&#x72d7;" d="M91 153 Q114 172 116 205 L158 205 Q157 202 156 197 Q154 191 153 188 L237 188 L237 17 Q240 -25 197 -22 L168 -22 L168 4 L183 4 Q197 3 196 18 L196 159 L140 159 Q130 146 113 138 L188 138 L188 56 Q189 17 153 19 L102 19 L102 134 Q101 134 100 133 Q94 131 91 131 L91 153 ZM17 180 L17 206 Q44 199 61 186 Q62 188 64 194 Q67 201 68 205 L107 205 Q98 174 84 154 Q88 142 88 128 L88 12 Q89 -22 52 -21 L23 -21 L23 5 L38 5 Q50 5 50 16 L50 53 Q32 44 13 40 L13 65 Q35 75 50 95 L50 122 Q33 113 12 108 L12 131 Q31 142 43 155 Q35 170 17 180 ZM137 111 L137 46 L144 46 Q153 46 153 57 L153 111 L137 111 Z" /><glyph glyph-name="uni732B" unicode="&#x732b;" d="M95 -19 L95 130 L239 130 L239 18 Q241 -20 199 -19 L95 -19 ZM102 201 Q101 199 100 195 Q98 190 97 188 L115 188 L115 207 L154 207 L154 188 L178 188 L178 207 L217 207 L217 188 L245 188 L245 160 L217 160 L217 137 L178 137 L178 160 L154 160 L154 137 L115 137 L115 160 L92 160 L92 174 Q86 161 80 152 Q83 140 83 128 L83 14 Q84 -23 47 -22 L22 -22 L22 3 L34 3 Q46 2 45 15 L45 55 Q31 49 13 45 L13 71 Q33 81 45 94 L45 121 Q31 115 13 109 L13 134 Q33 146 38 153 Q31 170 10 180 L10 206 Q43 198 58 184 Q61 192 64 201 L102 201 ZM133 43 L133 7 L149 7 L149 43 L133 43 ZM189 7 Q203 6 202 19 L202 43 L185 43 L185 7 L189 7 ZM202 101 L185 101 L185 71 L202 71 L202 101 ZM133 101 L133 71 L149 71 L149 101 L133 101 Z" /><glyph glyph-name="uni738B" unicode="&#x738b;" d="M38 78 L38 108 L104 108 L104 158 L27 158 L27 188 L230 188 L230 158 L152 158 L152 108 L219 108 L219 78 L152 78 L152 15 L240 15 L240 -13 L16 -13 L16 15 L104 15 L104 78 L38 78 Z" /><glyph glyph-name="uni751F" unicode="&#x751f;" d="M13 110 L13 135 Q45 154 50 201 L95 201 Q92 188 89 177 L113 177 L113 206 L161 206 L161 177 L234 177 L234 148 L161 148 L161 98 L226 98 L226 68 L161 68 L161 11 L244 11 L244 -17 L20 -17 L20 11 L113 11 L113 68 L38 68 L38 98 L113 98 L113 148 L75 148 Q56 120 13 110 Z" /><glyph glyph-name="uni77E5" unicode="&#x77e5;" d="M132 -10 L132 188 L235 188 L235 28 Q236 -11 199 -10 L132 -10 ZM66 205 Q66 203 65 199 Q64 191 63 188 L122 188 L122 160 L96 160 L96 109 L128 109 L128 81 L98 81 Q101 41 127 6 L127 -23 Q87 -1 75 31 Q56 -6 16 -24 L16 5 Q48 41 53 81 L14 81 L14 109 L55 109 L54 160 Q41 136 12 128 L12 151 Q27 164 30 205 L66 205 ZM196 29 L196 160 L171 160 L171 16 L184 16 Q197 15 196 29 Z" /><glyph glyph-name="uni7801" unicode="&#x7801;" d="M185 169 L114 169 L114 197 L225 197 L225 108 L238 108 L238 14 Q240 -25 200 -23 L157 -23 L157 4 L184 4 Q198 3 197 18 L197 80 L141 80 Q114 79 115 108 L115 159 L153 159 L153 119 Q152 107 164 108 L185 108 L185 169 ZM18 164 L18 193 L108 193 L108 164 L77 164 Q73 146 67 132 L104 132 L104 28 Q106 -8 72 -6 L28 -6 L28 86 Q25 84 18 80 Q15 79 13 78 L13 105 Q34 130 38 164 L18 164 ZM190 58 L190 30 L110 30 L110 58 L190 58 ZM73 27 L73 105 L61 105 L61 18 L65 18 Q74 17 73 27 Z" /><glyph glyph-name="uni7A0B" unicode="&#x7a0b;" d="M245 9 L245 -17 L92 -17 L92 9 L148 9 L148 31 L104 31 L104 59 L148 59 L148 77 L101 77 L101 105 L241 105 L241 77 L191 77 L191 59 L236 59 L236 31 L191 31 L191 9 L245 9 ZM13 118 L13 144 L39 144 L39 169 L16 169 L16 196 L62 196 Q78 196 99 202 L99 174 Q89 170 77 169 L77 144 L98 144 L98 118 L78 118 Q84 93 97 74 L97 39 Q85 51 77 60 L77 -25 L39 -25 L39 49 Q30 34 11 12 L11 51 Q29 85 37 118 L13 118 ZM234 197 L234 151 Q235 116 201 117 L106 117 L106 197 L234 197 ZM144 170 L144 144 L186 144 Q198 144 197 155 L197 170 L144 170 Z" /><glyph glyph-name="uni7A3F" unicode="&#x7a3f;" d="M14 119 L14 146 L36 146 L36 170 L16 170 L16 197 L59 197 Q75 197 91 203 L91 174 Q90 174 87 173 Q78 170 72 170 L72 146 L93 146 L93 119 L73 119 Q79 96 92 77 L92 39 Q81 52 72 64 L72 -25 L36 -25 L36 47 Q25 29 12 14 L12 53 Q27 83 35 119 L14 119 ZM204 66 L129 66 L129 -24 L95 -24 L95 92 L239 92 L239 8 Q241 -26 209 -24 L188 -24 L188 0 L195 0 Q205 0 204 10 L204 66 ZM105 102 L105 158 L228 158 L228 131 Q230 100 197 102 L105 102 ZM95 166 L95 193 L144 193 L144 205 L188 205 L188 193 L244 193 L244 166 L95 166 ZM136 0 L136 56 L197 56 L197 23 Q198 0 174 0 L136 0 ZM141 136 L141 123 L183 123 Q193 122 192 132 L192 136 L141 136 ZM159 35 L159 20 L165 20 Q174 19 173 28 L173 35 L159 35 Z" /><glyph glyph-name="uni7B2C" unicode="&#x7b2c;" d="M16 -24 L16 0 Q49 13 60 35 L54 35 Q23 34 24 68 L24 103 L105 103 L105 119 L30 119 L30 147 L232 147 L232 112 Q234 75 198 77 L152 77 L152 62 L240 62 L240 24 Q242 -10 206 -8 L171 -8 L171 17 L187 17 Q198 16 197 28 L197 35 L152 35 L152 -25 L105 -25 L105 35 L103 35 Q85 -9 16 -24 ZM13 148 L13 168 Q36 178 40 206 L80 206 Q79 200 77 196 L130 196 L130 173 L108 173 Q109 168 111 159 Q112 154 113 151 L79 151 Q78 155 76 163 Q75 169 74 173 L66 173 Q51 151 13 148 ZM126 151 L126 169 Q144 178 151 207 L189 207 Q189 205 188 202 Q187 198 186 196 L243 196 L243 173 L219 173 Q222 163 224 151 L190 151 Q189 161 186 173 L175 173 Q160 154 126 151 ZM190 119 L152 119 L152 103 L181 103 Q190 103 190 113 L190 119 ZM65 70 Q65 62 76 62 L105 62 L105 77 L65 77 L65 70 Z" /><glyph glyph-name="uni7CFB" unicode="&#x7cfb;" d="M22 195 L159 195 Q200 195 237 203 L237 172 Q200 163 166 164 L154 164 Q128 148 101 139 Q132 139 151 141 Q160 146 169 152 L233 152 Q175 109 103 84 Q148 84 189 87 Q186 98 180 111 L216 111 Q232 78 237 50 L198 50 Q198 52 198 55 Q197 58 197 59 Q190 59 175 58 Q160 58 152 57 L152 10 Q152 -25 117 -24 L89 -24 L89 3 L98 3 Q108 3 108 13 L108 56 Q100 56 84 56 Q49 55 27 56 L27 85 Q62 96 98 113 Q69 112 33 112 L33 139 Q62 149 90 164 L22 164 L22 195 ZM202 48 Q212 18 242 5 L242 -17 Q177 -7 160 48 L202 48 ZM54 48 L96 48 Q79 -7 14 -17 L14 5 Q44 18 54 48 Z" /><glyph glyph-name="uni7EC4" unicode="&#x7ec4;" d="M245 9 L245 -17 L91 -17 L91 -1 Q54 -10 14 -9 L14 20 Q56 19 99 28 L99 9 L106 9 L106 197 L229 197 L229 9 L245 9 ZM103 156 Q96 106 54 68 Q75 68 97 73 L97 45 Q66 38 16 38 L16 68 Q39 92 47 106 Q32 106 13 106 L13 135 Q34 165 41 205 L82 205 Q70 164 47 134 Q54 134 61 135 Q62 137 63 141 Q64 144 68 156 L103 156 ZM147 45 L147 9 L188 9 L188 45 L147 45 ZM147 108 L147 73 L188 73 L188 108 L147 108 ZM147 169 L147 136 L188 136 L188 169 L147 169 Z" /><glyph glyph-name="uni7EC7" unicode="&#x7ec7;" d="M108 70 L108 194 L233 194 L233 109 Q234 68 197 70 L108 70 ZM104 156 Q95 106 54 68 Q73 68 95 73 L95 45 Q65 37 16 37 L16 68 Q39 92 47 106 Q32 106 13 106 L13 135 Q34 165 41 205 L82 205 Q70 164 47 134 Q54 134 61 135 Q62 137 63 141 Q64 144 68 156 L104 156 ZM159 58 Q154 -3 92 -26 L92 0 Q51 -11 13 -10 L13 20 Q52 19 96 28 L96 6 Q114 25 118 58 L159 58 ZM178 58 L219 58 Q222 21 244 2 L244 -25 Q182 -3 178 58 ZM192 166 L148 166 L148 98 L180 98 Q193 97 192 112 L192 166 Z" /><glyph glyph-name="uni7EC8" unicode="&#x7ec8;" d="M97 69 L97 95 Q124 103 142 112 Q127 125 114 144 Q112 144 109 142 Q104 141 101 140 L101 155 Q91 103 52 67 Q72 68 93 71 L93 44 Q63 36 16 37 L16 67 Q34 84 46 108 Q31 106 13 107 L13 135 Q29 159 38 205 L76 205 Q68 164 45 135 Q52 135 59 136 Q59 138 60 141 Q62 147 66 159 L101 159 L101 162 Q121 178 129 205 L168 205 Q167 199 165 194 L237 194 L237 166 Q222 132 200 111 Q218 103 243 97 L243 70 Q194 79 170 92 Q169 91 166 90 Q150 83 139 80 Q182 77 216 66 L216 32 Q177 47 120 53 L120 74 Q116 73 108 71 Q101 70 97 69 ZM229 -25 Q179 -3 108 6 L108 36 Q177 31 229 12 L229 -25 ZM97 0 Q55 -10 13 -10 L13 19 Q58 19 97 26 L97 0 ZM153 152 Q161 140 170 132 Q184 146 194 165 L149 165 Q142 157 131 152 L153 152 Z" /><glyph glyph-name="uni7ED8" unicode="&#x7ed8;" d="M103 158 Q103 157 103 156 Q101 145 99 140 Q131 161 151 206 L192 206 Q211 162 246 138 L246 113 Q239 115 225 123 Q222 124 220 125 L220 105 L118 105 L118 122 Q109 118 96 113 L96 131 Q87 101 55 68 Q75 68 95 73 L95 45 Q68 37 17 38 L17 68 Q35 86 47 106 Q32 106 13 106 L13 135 Q34 165 41 205 L82 205 Q70 164 47 134 Q54 134 60 135 Q65 146 68 158 L103 158 ZM222 41 Q236 13 242 -20 L206 -20 Q206 -18 206 -15 Q205 -11 205 -9 Q170 -15 104 -15 L104 14 Q122 36 128 57 L100 57 L100 85 L240 85 L240 57 L174 57 Q160 29 143 14 Q173 14 198 18 Q197 21 195 27 Q191 36 189 41 L222 41 ZM97 0 Q57 -10 14 -9 L14 20 Q55 19 97 28 L97 0 ZM172 163 Q156 145 138 133 L206 133 Q189 143 172 163 Z" /><glyph glyph-name="uni7EF4" unicode="&#x7ef4;" d="M103 -24 L103 113 Q102 112 99 111 Q97 110 89 106 L89 125 Q79 97 52 68 Q71 68 92 74 L92 46 Q64 38 16 38 L16 68 Q34 87 45 106 Q42 106 35 106 Q21 105 13 106 L13 134 Q33 167 39 204 L78 204 Q67 162 45 134 Q52 134 58 134 Q62 145 65 158 L98 158 Q97 154 95 146 Q94 142 94 140 Q112 162 121 204 L160 204 Q157 189 153 176 L168 176 L168 200 L208 200 L208 176 L242 176 L242 148 L208 148 L208 122 L239 122 L239 95 L208 95 L208 69 L239 69 L239 42 L208 42 L208 15 L244 15 L244 -11 L143 -11 L143 -24 L103 -24 ZM95 0 Q54 -9 14 -9 L14 20 Q48 19 95 28 L95 0 ZM143 42 L143 15 L168 15 L168 42 L143 42 ZM143 95 L143 69 L168 69 L168 95 L143 95 ZM143 148 L143 122 L168 122 L168 148 L143 148 Z" /><glyph glyph-name="uni7F57" unicode="&#x7f57;" d="M19 80 Q63 94 80 118 L23 118 L23 200 L234 200 L234 152 Q236 116 201 118 L129 118 Q124 112 121 107 L229 107 L229 78 Q182 -4 23 -26 L23 1 Q75 11 108 26 Q82 37 50 42 L50 61 Q35 58 19 55 L19 80 ZM91 78 Q81 72 70 68 Q99 65 130 55 L130 38 Q154 53 174 78 L91 78 ZM61 173 L61 145 L81 145 L81 173 L61 173 ZM196 173 L175 173 L175 145 L184 145 Q196 144 196 158 L196 173 ZM119 173 L119 145 L138 145 L138 173 L119 173 Z" /><glyph glyph-name="uni8001" unicode="&#x8001;" d="M30 156 L30 185 L81 185 L81 207 L126 207 L126 185 L174 185 L174 161 Q180 168 191 184 Q193 186 194 188 L243 188 Q220 153 196 126 L245 126 L245 97 L164 97 Q137 76 101 61 L101 50 Q151 55 182 86 L230 86 Q193 26 101 25 L101 23 Q101 8 116 8 L180 8 Q193 7 192 21 L192 29 L228 29 L228 15 Q229 -20 192 -19 L94 -19 Q55 -20 56 18 L56 44 Q36 38 12 32 L12 60 Q66 76 102 97 L12 97 L12 126 L81 126 L81 156 L30 156 ZM143 126 Q157 140 170 156 L126 156 L126 126 L143 126 Z" /><glyph glyph-name="uni8054" unicode="&#x8054;" d="M13 167 L13 195 L114 195 L114 167 L106 167 L106 43 Q112 45 118 46 L118 18 Q112 17 106 15 L106 -24 L73 -24 L73 8 Q45 3 12 2 L12 33 Q14 33 17 34 Q21 34 22 34 L22 167 L13 167 ZM118 149 L118 177 L130 177 Q124 188 123 203 L161 203 Q163 190 167 177 L186 177 Q191 189 192 202 L230 202 Q230 201 229 198 Q227 184 223 177 L237 177 L237 149 L196 149 L196 104 L243 104 L243 76 L198 76 Q202 33 244 2 L244 -24 Q197 -5 176 29 Q157 -4 111 -24 L111 1 Q151 33 155 76 L113 76 L113 104 L157 104 L157 149 L118 149 ZM55 36 Q64 36 73 38 L73 64 L55 64 L55 36 ZM55 115 L55 91 L73 91 L73 115 L55 115 ZM55 167 L55 142 L73 142 L73 167 L55 167 Z" /><glyph glyph-name="uni8096" unicode="&#x8096;" d="M105 207 L150 207 L150 145 L225 145 L225 13 Q226 -22 193 -21 L161 -21 L161 5 L172 5 Q182 5 182 15 L182 25 L75 25 L75 -24 L31 -24 L31 145 L105 145 L105 207 ZM75 72 L75 53 L182 53 L182 72 L75 72 ZM219 201 Q215 174 206 153 L166 153 Q174 169 179 201 L219 201 ZM37 201 L77 201 Q82 169 90 153 L50 153 Q41 174 37 201 ZM182 116 L75 116 L75 100 L182 100 L182 116 Z" /><glyph glyph-name="uni82A6" unicode="&#x82a6;" d="M193 41 L75 41 Q74 -6 16 -25 L16 2 Q32 13 31 47 L31 137 L105 137 L105 152 L153 152 L153 137 L229 137 L229 80 Q230 40 193 41 ZM61 148 L61 164 L12 164 L12 194 L61 194 L61 207 L102 207 L102 194 L156 194 L156 207 L197 207 L197 194 L245 194 L245 164 L197 164 L197 148 L156 148 L156 164 L102 164 L102 148 L61 148 ZM76 108 L76 70 L173 70 Q186 69 185 83 L185 108 L76 108 Z" /><glyph glyph-name="uni8303" unicode="&#x8303;" d="M89 136 L227 136 L227 75 Q228 36 189 37 L163 37 L163 65 L175 65 Q187 64 186 77 L186 108 L132 108 L132 18 Q132 7 142 7 L198 7 Q210 6 209 18 L209 28 L244 28 L244 13 Q245 -21 210 -20 L119 -20 Q89 -20 89 12 L89 136 ZM66 146 L66 162 L12 162 L12 191 L66 191 L66 207 L108 207 L108 191 L150 191 L150 207 L192 207 L192 191 L245 191 L245 162 L192 162 L192 146 L150 146 L150 162 L108 162 L108 146 L66 146 ZM59 -20 L15 -20 Q36 11 41 48 L78 48 Q75 7 59 -20 ZM62 97 Q74 77 78 57 L38 57 Q34 76 23 97 L62 97 ZM63 145 Q74 127 79 106 L39 106 Q35 128 25 145 L63 145 Z" /><glyph glyph-name="uni8363" unicode="&#x8363;" d="M25 59 L25 87 L106 87 L106 106 L151 106 L151 87 L232 87 L232 59 L201 59 Q209 26 240 5 L240 -18 Q172 0 158 59 L151 59 L151 -24 L106 -24 L106 59 L98 59 Q86 1 16 -18 L16 5 Q49 25 55 59 L25 59 ZM66 147 L66 162 L21 162 L21 191 L66 191 L66 206 L108 206 L108 191 L148 191 L148 206 L190 206 L190 191 L236 191 L236 162 L190 162 L190 147 L148 147 L148 162 L108 162 L108 147 L66 147 ZM242 141 L242 94 L201 94 L201 113 L56 113 L56 94 L15 94 L15 141 L242 141 Z" /><glyph glyph-name="uni83B7" unicode="&#x83b7;" d="M241 108 L241 79 L193 79 Q197 38 242 5 L242 -24 Q191 -2 172 30 Q150 -5 99 -25 L99 2 Q143 37 147 79 L101 79 L101 108 L148 108 L148 146 L192 146 L192 108 L241 108 ZM19 128 L19 151 Q51 147 69 136 Q70 138 72 142 Q73 145 74 147 L116 147 Q106 124 91 109 Q94 100 94 91 L94 13 Q95 -23 57 -22 L28 -22 L28 3 L44 3 Q56 2 55 14 L55 32 Q41 27 18 24 L18 47 Q39 54 55 67 L55 84 Q46 80 25 74 Q20 73 18 72 L18 96 Q20 97 23 98 Q40 106 46 111 Q39 122 19 128 ZM70 153 L70 165 L12 165 L12 194 L70 194 L70 207 L112 207 L112 194 L150 194 L150 207 L192 207 L192 194 L245 194 L245 165 L192 165 L192 153 L150 153 L150 165 L112 165 L112 153 L70 153 ZM226 145 Q236 126 238 111 L205 111 Q203 129 195 145 L226 145 Z" /><glyph glyph-name="uni846B" unicode="&#x846b;" d="M187 5 Q197 4 196 17 L196 28 L165 28 Q158 -5 116 -26 L116 0 Q129 25 129 56 L129 147 L236 147 L236 16 Q237 -22 204 -20 L174 -20 L174 5 L187 5 ZM14 103 L14 129 L48 129 L48 149 L88 149 L88 129 L121 129 L121 103 L88 103 L88 77 L116 77 L116 15 Q117 -16 86 -15 L20 -15 L20 77 L48 77 L48 103 L14 103 ZM67 154 L67 166 L12 166 L12 194 L67 194 L67 207 L108 207 L108 194 L149 194 L149 207 L190 207 L190 194 L245 194 L245 166 L190 166 L190 154 L149 154 L149 166 L108 166 L108 154 L67 154 ZM80 51 L56 51 L56 9 L72 9 Q81 8 80 18 L80 51 ZM168 61 Q168 57 168 54 L196 54 L196 75 L168 75 L168 61 ZM196 121 L168 121 L168 100 L196 100 L196 121 Z" /><glyph glyph-name="uni897F" unicode="&#x897f;" d="M13 167 L13 197 L243 197 L243 167 L176 167 L176 144 L235 144 L235 24 Q236 -18 195 -17 L22 -17 L22 144 L81 144 L81 167 L13 167 ZM119 112 Q123 47 62 29 L62 10 L181 10 Q196 10 195 25 L195 39 L175 39 Q137 38 138 76 L138 115 L119 115 L119 112 ZM62 115 L62 58 Q82 70 81 108 L81 115 L62 115 ZM195 115 L176 115 L176 81 Q176 67 190 67 L195 67 L195 115 ZM119 167 L119 144 L138 144 L138 167 L119 167 Z" /><glyph glyph-name="uni8981" unicode="&#x8981;" d="M241 200 L241 172 L177 172 L177 160 L234 160 L234 124 Q236 87 201 89 L23 89 L23 160 L80 160 L80 172 L17 172 L17 200 L241 200 ZM13 45 L13 73 L45 73 L45 83 L90 83 L90 73 L166 73 L166 83 L211 83 L211 73 L244 73 L244 45 L209 45 Q203 19 179 5 Q203 1 237 -1 L237 -26 Q170 -20 128 -11 Q88 -20 19 -26 L19 -1 Q53 1 77 5 Q53 19 47 45 L13 45 ZM128 17 Q156 28 163 45 L93 45 Q100 28 128 17 ZM118 134 L118 114 L139 114 L139 134 L118 134 ZM62 134 L62 114 L80 114 L80 134 L62 134 ZM195 134 L177 134 L177 114 L185 114 Q196 113 195 124 L195 134 ZM118 172 L118 160 L139 160 L139 172 L118 172 Z" /><glyph glyph-name="uni89C4" unicode="&#x89c4;" d="M17 147 L17 175 L41 175 L41 206 L80 206 L80 175 L100 175 L100 147 L80 147 L80 108 L104 108 L104 80 L81 80 Q84 45 104 9 L104 -24 Q72 -2 61 30 Q46 -5 13 -25 L13 7 Q38 47 39 80 L12 80 L12 108 L41 108 L41 147 L17 147 ZM108 199 L235 199 L235 52 L199 52 L199 172 L145 172 L145 52 L108 52 L108 199 ZM197 75 L197 14 Q196 4 205 5 L207 5 Q216 4 215 14 L215 22 L243 22 L243 7 Q244 -22 212 -21 L189 -21 Q160 -22 161 10 L161 16 Q144 -4 108 -26 L108 1 Q158 43 154 112 L154 156 L190 156 L190 114 Q190 93 187 75 L197 75 Z" /><glyph glyph-name="uni8A89" unicode="&#x8a89;" d="M226 207 Q226 206 225 205 Q216 184 210 177 L241 177 L241 149 L194 149 Q208 127 244 113 L244 89 Q228 94 214 98 L214 79 L42 79 L42 98 Q35 95 18 91 Q13 90 11 89 L11 112 Q47 125 62 149 L15 149 L15 177 L169 177 Q177 189 183 207 L226 207 ZM225 41 L225 11 Q226 -21 193 -20 L31 -20 L31 41 L225 41 ZM42 50 L42 70 L214 70 L214 50 L42 50 ZM71 18 L71 1 L175 1 Q186 0 185 11 L185 18 L71 18 ZM31 207 L69 207 Q78 196 83 182 L42 182 Q39 195 31 207 ZM100 207 L137 207 Q148 196 152 182 L113 182 Q108 196 100 207 ZM59 105 Q53 102 46 99 L210 99 Q208 100 203 102 Q199 104 196 105 L59 105 ZM148 141 L148 128 L163 128 Q154 137 148 149 L108 149 Q102 137 93 128 L108 128 L108 141 L148 141 Z" /><glyph glyph-name="uni8B66" unicode="&#x8b66;" d="M14 142 L14 158 Q27 165 33 179 L40 179 L40 182 L16 182 L16 201 L40 201 L40 207 L72 207 L72 201 L91 201 L91 207 L123 207 L123 201 L147 201 L147 182 L123 182 L123 176 L91 176 L91 182 L72 182 L72 176 L62 176 Q62 176 61 175 Q61 174 60 173 L137 173 L137 126 Q137 112 130 106 L143 106 L143 121 Q153 124 169 130 Q170 131 170 131 Q158 143 152 159 Q150 159 146 158 Q142 158 140 157 L140 175 Q157 185 162 205 L195 205 Q195 204 194 201 Q194 198 193 196 L244 196 L244 173 L234 173 Q230 148 217 132 Q219 131 224 129 Q236 124 244 122 L244 101 Q213 106 194 115 Q177 107 151 102 L151 96 L245 96 L245 77 L12 77 L12 96 L106 96 L106 102 L88 102 L88 110 Q82 107 71 107 L26 107 L26 145 Q20 144 14 142 ZM225 25 L225 6 Q226 -21 196 -20 L32 -20 L32 25 L225 25 ZM36 54 L36 71 L220 71 L220 54 L36 54 ZM36 31 L36 48 L220 48 L220 31 L36 31 ZM73 7 L73 -2 L175 -2 Q185 -2 184 4 L184 7 L73 7 ZM95 150 L95 130 Q95 124 94 120 L96 120 Q103 120 103 127 L103 157 L48 157 Q44 153 39 150 L95 150 ZM194 149 Q201 160 203 173 L180 173 Q186 160 194 149 ZM51 134 L51 122 L63 122 Q70 122 70 129 L70 134 L51 134 Z" /><glyph glyph-name="uni8BB0" unicode="&#x8bb0;" d="M231 198 L231 123 Q232 88 197 89 L145 89 L145 22 Q144 8 158 9 L195 9 Q207 9 206 20 L206 30 L241 30 L241 15 Q242 -19 206 -18 L137 -18 Q99 -20 101 20 L101 118 L175 118 Q190 117 189 132 L189 169 L96 169 L96 198 L231 198 ZM72 34 Q82 38 94 47 L94 13 Q67 -8 30 -20 L30 109 L12 109 L12 137 L72 137 L72 34 ZM64 204 Q76 179 79 155 L39 155 Q35 183 26 204 L64 204 Z" /><glyph glyph-name="uni8BC4" unicode="&#x8bc4;" d="M88 167 L88 195 L237 195 L237 167 L183 167 L183 79 L245 79 L245 51 L183 51 L183 -24 L141 -24 L141 51 L79 51 L79 79 L141 79 L141 167 L88 167 ZM69 34 Q76 37 88 45 L88 11 Q58 -11 28 -21 L28 109 L12 109 L12 137 L69 137 L69 34 ZM57 203 Q69 183 75 153 L37 153 Q32 178 20 203 L57 203 ZM235 152 Q231 117 221 95 L190 95 Q196 113 201 152 L235 152 ZM90 152 L124 152 Q126 122 134 94 L103 94 Q92 124 90 152 Z" /><glyph glyph-name="uni8BCD" unicode="&#x8bcd;" d="M236 198 L236 15 Q236 -23 199 -23 L169 -23 L169 3 L182 3 Q195 3 195 17 L195 170 L86 170 L86 198 L236 198 ZM187 154 L187 126 L81 126 L81 154 L187 154 ZM148 46 L148 82 L123 82 L123 36 L137 36 Q149 36 148 46 ZM182 46 Q184 7 148 9 L88 9 L88 109 L182 109 L182 46 ZM66 32 Q71 34 80 40 Q78 38 84 42 L84 11 Q57 -8 27 -17 L27 109 L12 109 L12 137 L66 137 L66 32 ZM53 204 Q64 182 71 153 L32 153 Q27 177 15 204 L53 204 Z" /><glyph glyph-name="uni8BF7" unicode="&#x8bf7;" d="M183 1 Q193 0 192 12 L127 12 L127 -24 L87 -24 L87 100 L232 100 L232 9 Q233 -24 201 -23 L174 -23 L174 1 L183 1 ZM79 173 L79 196 L138 196 L138 207 L179 207 L179 196 L241 196 L241 173 L179 173 L179 164 L235 164 L235 142 L179 142 L179 131 L245 131 L245 108 L74 108 L74 131 L138 131 L138 142 L83 142 L83 164 L138 164 L138 173 L79 173 ZM66 27 Q73 29 81 35 L81 5 Q57 -14 25 -25 L25 109 L11 109 L11 137 L66 137 L66 27 ZM54 204 Q67 181 72 153 L33 153 Q26 183 15 204 L54 204 ZM127 44 L127 33 L192 33 L192 44 L127 44 ZM192 75 L127 75 L127 65 L192 65 L192 75 Z" /><glyph glyph-name="uni8D5B" unicode="&#x8d5b;" d="M39 157 L72 157 L72 167 L111 167 L111 157 L145 157 L145 167 L185 167 L185 157 L218 157 L218 137 L185 137 L185 129 L223 129 L223 110 L185 110 L185 101 L241 101 L241 80 L201 80 Q216 68 243 58 L243 36 Q222 40 206 46 L206 13 L168 13 L168 48 L90 48 L90 13 L52 13 L52 47 Q44 44 24 39 Q17 37 13 36 L13 58 Q40 68 55 80 L15 80 L15 101 L72 101 L72 110 L34 110 L34 129 L72 129 L72 137 L39 137 L39 157 ZM130 0 Q104 -24 23 -25 L23 -2 Q112 4 106 36 L106 42 L151 42 L151 36 Q145 6 233 -2 L233 -24 Q160 -23 130 0 ZM240 196 L240 158 L199 158 L199 174 L57 174 L57 158 L16 158 L16 196 L103 196 L103 206 L155 206 L155 196 L240 196 ZM103 80 Q101 78 97 75 Q93 71 91 69 L164 69 Q163 70 160 73 Q158 75 153 80 L103 80 ZM111 110 L111 101 L145 101 L145 110 L111 110 ZM111 137 L111 129 L145 129 L145 137 L111 137 Z" /><glyph glyph-name="uni8F7D" unicode="&#x8f7d;" d="M98 206 L98 193 L139 193 L139 167 L98 167 L98 153 L146 153 Q145 177 145 206 L183 206 Q183 177 183 153 L245 153 L245 126 L183 126 Q185 87 187 65 Q200 87 205 114 L241 114 Q229 54 195 23 Q200 3 209 3 Q216 3 216 17 L243 17 Q243 -24 209 -24 Q183 -24 169 3 Q165 1 157 -2 Q151 -5 129 -16 L129 4 Q124 3 114 2 Q108 0 105 0 L105 -25 L66 -25 L66 -1 Q44 -2 16 -2 L16 24 Q44 24 66 24 L66 38 L19 38 L19 64 Q27 75 31 86 L15 86 L15 110 L39 110 Q40 112 40 116 Q41 119 41 121 L80 121 Q80 119 79 116 Q78 112 77 110 L141 110 L141 86 L67 86 Q61 74 52 64 L66 64 L66 78 L105 78 L105 64 L137 64 L137 38 L105 38 L105 26 Q120 28 138 29 L138 15 Q149 22 159 31 Q156 37 155 46 Q149 77 146 126 L12 126 L12 153 L60 153 L60 167 L19 167 L19 193 L60 193 L60 206 L98 206 ZM223 200 Q231 182 235 161 L199 161 Q198 179 190 200 L223 200 Z" /><glyph glyph-name="uni91D1" unicode="&#x91d1;" d="M59 108 L59 123 Q39 114 12 108 L12 135 Q76 160 103 208 L153 208 Q180 160 244 135 L244 108 Q217 114 198 122 L198 108 L151 108 L151 90 L226 90 L226 61 L151 61 L151 10 L240 10 L240 -17 L17 -17 L17 10 L105 10 L105 61 L31 61 L31 90 L105 90 L105 108 L59 108 ZM213 54 Q211 32 203 17 L166 17 Q173 34 174 54 L213 54 ZM43 54 L82 54 Q83 34 90 17 L53 17 Q45 32 43 54 ZM128 168 Q108 148 89 137 L167 137 Q148 148 128 168 Z" /><glyph glyph-name="uni9493" unicode="&#x9493;" d="M107 147 Q131 168 134 205 L174 205 Q173 193 169 184 L237 184 L237 17 Q238 -20 200 -19 L161 -19 L161 8 L182 8 Q195 8 195 22 L195 154 L156 154 Q141 132 107 121 L107 147 ZM20 110 L20 137 L101 137 L101 110 L80 110 L80 83 L106 83 L106 56 L80 56 L80 23 Q87 25 99 29 Q102 30 104 31 L104 3 Q75 -12 38 -22 L38 56 L14 56 L14 83 L38 83 L38 110 L20 110 ZM12 162 Q30 171 32 205 L70 205 Q69 194 66 185 L106 185 L106 157 L50 157 Q36 142 12 141 L12 162 ZM137 50 Q134 83 120 119 L156 119 Q170 90 178 50 L137 50 Z" /><glyph glyph-name="uni952E" unicode="&#x952e;" d="M236 195 L236 160 L245 160 L245 137 L236 137 L236 133 Q237 101 204 101 L197 101 L197 90 L237 90 L237 66 L197 66 L197 54 L240 54 L240 29 L197 29 L197 10 L164 10 L164 29 L135 29 L135 54 L164 54 L164 66 L138 66 L138 90 L164 90 L164 101 L140 101 L140 124 L164 124 L164 137 L133 137 L133 160 L164 160 L164 172 L140 172 L140 195 L164 195 L164 206 L197 206 L197 195 L236 195 ZM97 78 Q99 59 103 45 Q104 51 104 60 L104 97 L79 97 L79 123 Q94 145 101 168 L81 168 L81 195 L134 195 L134 168 Q124 138 110 123 L133 123 L133 68 Q134 36 122 15 Q132 6 153 6 L243 6 L243 -20 L156 -20 Q125 -20 105 -3 Q93 -15 72 -25 L72 1 Q84 9 90 16 Q78 39 74 78 L97 78 ZM15 113 L15 138 L72 138 L72 113 L61 113 L61 87 L74 87 L74 60 L61 60 L61 24 Q64 25 69 29 Q68 28 73 31 L73 3 Q55 -11 27 -21 L27 60 L12 60 L12 87 L27 87 L27 113 L15 113 ZM10 162 Q27 176 28 205 L61 205 Q60 194 58 186 L76 186 L76 159 L44 159 Q34 145 10 141 L10 162 ZM208 172 L197 172 L197 160 L208 160 L208 172 ZM197 124 Q209 124 208 135 L208 137 L197 137 L197 124 Z" /><glyph glyph-name="uni957F" unicode="&#x957f;" d="M15 87 L15 116 L42 116 L42 204 L87 204 L87 116 L241 116 L241 87 L155 87 Q177 31 240 11 L240 -13 Q141 5 108 87 L87 87 L87 26 Q98 29 123 38 Q128 40 130 41 L130 8 Q93 -11 42 -25 L42 87 L15 87 ZM96 149 Q154 156 179 194 L231 194 Q192 129 96 124 L96 149 Z" /><glyph glyph-name="uni95F4" unicode="&#x95f4;" d="M181 152 L181 48 Q183 11 145 13 L76 13 L76 152 L181 152 ZM196 169 L84 169 L84 198 L238 198 L238 15 Q240 -24 198 -22 L170 -22 L170 4 L184 4 Q197 3 196 16 L196 169 ZM20 -24 L20 147 L62 147 L62 -24 L20 -24 ZM59 201 Q70 177 73 156 L31 156 Q28 181 21 201 L59 201 ZM131 40 Q144 40 144 53 L144 71 L113 71 L113 40 L131 40 ZM113 125 L113 97 L144 97 L144 125 L113 125 Z" /><glyph glyph-name="uni960E" unicode="&#x960e;" d="M101 102 Q113 102 126 107 L126 83 Q117 79 103 79 L99 79 L99 63 L123 63 L123 40 L99 40 L99 23 L147 23 Q157 22 157 35 L157 40 L132 40 L132 63 L157 63 L157 78 L132 78 L132 101 L188 101 L188 29 Q188 10 178 4 L186 4 Q198 3 197 16 L197 169 L82 169 L82 197 L237 197 L237 14 Q239 -24 201 -22 L177 -22 L177 4 Q171 0 159 0 L68 0 L68 102 L101 102 ZM20 -23 L20 149 L59 149 L59 -23 L20 -23 ZM128 162 Q128 160 127 157 Q127 154 126 152 L185 152 L185 129 Q177 116 163 106 L131 106 Q142 118 147 129 L115 129 Q101 109 65 102 L65 121 Q89 133 93 162 L128 162 ZM59 205 Q72 179 76 158 L36 158 Q32 182 21 205 L59 205 Z" /><glyph glyph-name="uni9738" unicode="&#x9738;" d="M13 90 L13 108 L26 108 L26 116 L58 116 L58 108 L89 108 L89 116 L121 116 L121 108 L134 108 L134 90 L121 90 Q122 66 99 67 L91 67 L91 61 L128 61 L128 42 Q129 19 108 20 L91 20 L91 12 L130 12 L130 2 Q139 16 138 46 L138 111 L236 111 L236 10 Q237 -26 202 -24 L180 -24 L180 0 L187 0 Q200 -1 199 10 L199 16 L170 16 Q163 -7 128 -27 L128 -7 L91 -7 L91 -25 L57 -25 L57 -7 L11 -7 L11 12 L57 12 L57 20 L19 20 L19 61 L57 61 L57 67 L26 67 L26 90 L13 90 ZM242 175 L242 124 L205 124 L205 155 L148 155 L148 120 L109 120 L109 155 L51 155 L51 124 L14 124 L14 175 L109 175 L109 182 L27 182 L27 202 L229 202 L229 182 L148 182 L148 175 L242 175 ZM59 137 L59 149 L103 149 L103 137 L59 137 ZM59 119 L59 131 L103 131 L103 119 L59 119 ZM156 137 L156 149 L199 149 L199 137 L156 137 ZM156 119 L156 131 L199 131 L199 119 L156 119 ZM174 51 Q174 44 174 38 L199 38 L199 51 L174 51 ZM199 86 L174 86 L174 73 L199 73 L199 86 ZM82 83 Q89 83 89 90 L58 90 L58 83 L82 83 ZM47 45 L47 35 L57 35 L57 45 L47 45 ZM100 45 L91 45 L91 35 L93 35 Q100 35 100 43 L100 45 Z" /><glyph glyph-name="uni9875" unicode="&#x9875;" d="M15 167 L15 197 L244 197 L244 167 L146 167 Q144 155 141 145 L224 145 L224 34 L183 34 L183 117 L74 117 L74 34 L33 34 L33 145 L95 145 Q98 155 100 167 L15 167 ZM128 16 Q94 -20 13 -25 L13 0 Q108 14 104 78 L104 105 L152 105 L152 78 Q147 14 243 0 L243 -25 Q165 -17 128 16 Z" /><glyph glyph-name="uni9879" unicode="&#x9879;" d="M95 171 L95 199 L244 199 L244 171 L185 171 Q184 160 181 151 L238 151 L238 34 L201 34 L201 123 L134 123 L134 34 L97 34 L97 151 L140 151 Q142 160 143 171 L95 171 ZM93 23 Q64 10 12 2 L12 38 Q15 38 22 39 Q29 39 32 40 L32 164 L13 164 L13 192 L90 192 L90 164 L73 164 L73 48 Q82 50 93 53 L93 23 ZM168 15 Q145 -17 88 -24 L88 1 Q149 20 147 70 L147 110 L188 110 L188 70 Q186 20 244 2 L244 -24 Q192 -16 168 15 Z" /><glyph glyph-name="uni987B" unicode="&#x987b;" d="M94 172 L94 199 L243 199 L243 172 L187 172 Q186 168 185 161 Q183 156 183 153 L237 153 L237 33 L199 33 L199 126 L138 126 L138 33 L100 33 L100 153 L141 153 Q143 162 144 172 L94 172 ZM169 10 Q145 -17 94 -25 L94 0 Q152 21 149 70 L149 116 L188 116 L188 69 Q184 23 244 0 L244 -25 Q193 -15 169 10 ZM9 -24 L9 2 Q49 27 60 75 L97 75 Q82 1 9 -24 ZM10 55 L10 81 Q47 101 58 140 L95 140 Q81 75 10 55 ZM12 123 L12 149 Q40 165 52 201 L91 201 Q74 138 12 123 Z" /><glyph glyph-name="uni987E" unicode="&#x987e;" d="M129 171 L129 198 L244 198 L244 171 L201 171 Q200 161 198 152 L238 152 L238 33 L208 33 L208 126 L162 126 L162 33 L132 33 L132 152 L161 152 Q163 161 164 171 L129 171 ZM56 159 L124 159 L124 76 Q126 46 97 48 L88 48 L89 75 Q98 75 97 81 L97 132 L86 132 L86 22 Q96 25 115 35 Q120 38 123 39 L123 9 Q95 -9 56 -20 L56 159 ZM125 172 L51 172 L51 68 Q55 -4 9 -25 L9 1 Q19 14 18 61 L18 199 L125 199 L125 172 ZM185 10 Q168 -15 127 -25 L127 0 Q171 18 169 69 L169 115 L201 115 L201 68 Q199 19 243 0 L243 -25 Q202 -15 185 10 Z" /><glyph glyph-name="uni98CE" unicode="&#x98ce;" d="M186 169 L70 169 L70 49 Q74 -5 16 -24 L16 3 Q29 12 28 40 L28 197 L228 197 L228 40 Q227 12 240 3 L240 -24 Q182 -5 186 49 L186 169 ZM182 -1 Q149 14 128 33 Q107 14 74 -1 L74 26 Q94 42 106 58 Q82 90 77 152 L114 152 Q118 122 128 95 Q138 122 142 152 L179 152 Q174 90 150 58 Q162 42 182 26 L182 -1 Z" /><glyph glyph-name="uni9996" unicode="&#x9996;" d="M201 205 Q200 193 197 187 L245 187 L245 159 L148 159 Q145 150 144 143 L225 143 L225 19 Q225 -20 188 -20 L32 -20 L32 143 L98 143 Q98 145 99 148 Q101 155 101 159 L12 159 L12 187 L59 187 Q56 193 55 205 L100 205 Q101 194 104 187 L151 187 Q155 194 156 205 L201 205 ZM170 5 Q183 5 183 19 L183 26 L74 26 L74 5 L170 5 ZM74 72 L74 52 L183 52 L183 72 L74 72 ZM74 116 L74 97 L183 97 L183 116 L74 116 Z" /><glyph glyph-name="uni9C7C" unicode="&#x9c7c;" d="M14 140 L14 160 Q56 174 72 206 L118 206 Q115 199 112 194 L195 194 L195 168 Q192 165 187 159 Q182 154 180 152 L223 152 L223 67 Q225 24 185 26 L35 26 L35 144 Q25 141 14 140 ZM12 -17 L12 11 L245 11 L245 -17 L12 -17 ZM147 168 L90 168 Q78 159 62 152 L133 152 Q137 156 145 165 Q140 159 147 168 ZM184 124 L150 124 L150 103 L184 103 L184 124 ZM74 124 L74 103 L108 103 L108 124 L74 124 ZM74 76 L74 55 L108 55 L108 76 L74 76 ZM169 55 Q184 55 184 69 L184 76 L150 76 L150 55 L169 55 Z" /><glyph glyph-name="uni9ED1" unicode="&#x9ed1;" d="M22 65 L22 90 L107 90 L107 102 L25 102 L25 198 L231 198 L231 140 Q233 100 196 102 L150 102 L150 90 L234 90 L234 65 L150 65 L150 52 L245 52 L245 25 L12 25 L12 52 L107 52 L107 65 L22 65 ZM63 172 L63 127 L107 127 L107 172 L63 172 ZM193 172 L150 172 L150 127 L180 127 Q194 126 193 141 L193 172 ZM172 19 Q182 -2 184 -22 L145 -22 Q144 -3 136 19 L172 19 ZM115 19 Q123 -3 125 -22 L86 -22 Q86 -10 82 10 Q81 16 80 19 L115 19 ZM227 19 Q238 -5 240 -22 L202 -22 Q199 -2 192 19 L227 19 ZM31 19 L66 19 Q57 -9 56 -22 L18 -22 Q20 -1 31 19 ZM65 166 L96 166 Q101 144 105 134 L75 134 Q67 147 65 166 ZM191 166 Q189 147 181 134 L151 134 Q155 144 160 166 L191 166 Z" /><glyph glyph-name="uniFF0C" unicode="&#xff0c;" d="M16 -35 L16 -16 Q43 -5 44 20 L20 20 L20 69 L69 69 L69 27 Q71 -21 16 -35 Z" /><glyph glyph-name="uniFF1A" unicode="&#xff1a;" d="M73 92 L25 92 L25 141 L73 141 L73 92 ZM73 -13 L25 -13 L25 34 L73 34 L73 -13 Z" /></font>
</defs>
</svg>
