<?xml version="1.0" standalone="no"?><!DOCTYPE svg PUBLIC "-//W3C//DTD SVG 1.1//EN" "http://www.w3.org/Graphics/SVG/1.1/DTD/svg11.dtd" ><svg xmlns="http://www.w3.org/2000/svg"><metadata></metadata><defs><font id="fonteditor" horiz-adv-x="267"><font-face font-family="e¹kckcN-Ñ{OS" font-weight="400" font-stretch="normal" units-per-em="256" panose-1="2 0 0 0 0 0 0 0 0 0" ascent="229" descent="-85" x-height="0" bbox="8 -43 256 215" underline-thickness="0" underline-position="0" unicode-range="U+0025-ff0c" /><missing-glyph horiz-adv-x="256"  /><glyph glyph-name="percent" unicode="%" d="M57 -29 L178 202 L209 202 L88 -29 L57 -29 ZM60 108 Q84 108 84 145 Q84 181 61 181 Q36 181 36 145 Q37 110 60 108 ZM60 87 Q12 89 10 144 Q11 201 61 202 Q109 200 111 144 Q110 89 60 87 ZM206 -7 Q230 -6 230 28 Q229 64 206 65 Q182 65 182 28 Q182 -6 206 -7 ZM205 -27 Q157 -25 155 27 Q157 83 206 85 Q255 84 256 27 Q255 -26 205 -27 Z" /><glyph glyph-name="parenleft" unicode="(" d="M65 215 L91 215 Q45 158 46 85 Q45 11 91 -43 L65 -43 Q13 7 13 85 Q14 159 65 215 Z" /><glyph glyph-name="parenright" unicode=")" d="M8 215 L34 215 Q85 159 86 85 Q86 7 34 -43 L8 -43 Q54 12 54 85 Q55 156 8 215 Z" /><glyph glyph-name="two" unicode="2" d="M159 -17 L10 -17 L10 4 Q31 42 79 77 Q129 113 126 144 Q127 180 89 180 Q54 180 42 140 L10 140 Q28 202 88 202 Q159 198 163 144 Q166 106 105 62 Q66 34 45 4 L159 4 L159 -17 Z" /><glyph glyph-name="three" unicode="3" d="M12 17 L12 45 Q39 -1 84 1 Q130 0 129 42 Q130 84 74 83 L62 83 L62 106 L72 106 Q123 106 122 146 Q122 179 85 179 Q51 181 44 141 L13 141 Q25 202 85 202 Q154 199 158 145 Q158 113 125 96 Q164 82 165 42 Q165 -20 85 -20 Q37 -21 12 17 Z" /><glyph glyph-name="five" unicode="5" d="M12 12 L12 40 Q39 1 80 1 Q128 2 129 49 Q129 94 79 94 L20 94 L20 198 L159 198 L159 175 L54 175 L54 117 L89 117 Q164 116 165 51 Q163 -18 89 -20 Q37 -21 12 12 Z" /><glyph glyph-name="D" unicode="d" d="M54 4 L89 4 Q168 1 166 91 Q167 177 89 176 L54 176 L54 4 ZM19 -17 L19 199 L91 199 Q203 200 202 92 Q207 -22 92 -17 L19 -17 Z" /><glyph glyph-name="quotedblleft" unicode="&#x201c;" d="M197 119 L197 152 Q197 195 239 211 L239 197 Q214 183 215 156 L235 156 L235 119 L197 119 ZM142 119 L142 152 Q142 195 184 211 L184 197 Q158 182 159 156 L180 156 L180 119 L142 119 Z" /><glyph glyph-name="quotedblright" unicode="&#x201d;" d="M17 119 L17 132 Q41 149 41 174 L21 174 L21 211 L59 211 L59 178 Q59 135 17 119 ZM72 119 L72 132 Q97 148 97 174 L76 174 L76 211 L114 211 L114 178 Q115 135 72 119 Z" /><glyph glyph-name="uni3001" unicode="&#x3001;" d="M28 29 L28 55 Q73 34 103 8 L103 -26 Q69 4 28 29 Z" /><glyph glyph-name="uni300A" unicode="&#x300a;" d="M139 -27 L93 89 L139 208 L163 208 L116 89 L163 -27 L139 -27 ZM182 -27 L136 89 L182 208 L205 208 L159 89 L206 -27 L182 -27 Z" /><glyph glyph-name="uni300B" unicode="&#x300b;" d="M92 -27 L138 89 L92 208 L115 208 L161 89 L115 -27 L92 -27 ZM49 -27 L96 89 L49 208 L73 208 L119 89 L72 -27 L49 -27 Z" /><glyph glyph-name="uni4E09" unicode="&#x4e09;" d="M28 164 L28 187 L228 187 L228 164 L28 164 ZM39 81 L39 104 L218 104 L218 81 L39 81 ZM14 -8 L14 12 L242 12 L242 -8 L14 -8 Z" /><glyph glyph-name="uni4E0D" unicode="&#x4e0d;" d="M19 167 L19 189 L241 189 L241 167 L158 167 Q147 143 135 124 L145 124 L145 -25 L111 -25 L111 92 Q79 58 14 23 L14 44 Q93 99 119 167 L19 167 ZM241 28 Q194 68 158 88 L158 113 Q212 89 241 64 L241 28 Z" /><glyph glyph-name="uni4E0E" unicode="&#x4e0e;" d="M144 -21 L144 0 L176 0 Q197 -1 196 20 L196 94 L42 94 L42 117 Q48 144 49 206 L83 206 Q83 201 82 193 Q82 183 81 179 L241 179 L241 157 L79 157 Q76 135 73 116 L229 116 L229 19 Q230 -22 187 -21 L144 -21 ZM11 38 L11 60 L179 60 L179 38 L11 38 Z" /><glyph glyph-name="uni4E1A" unicode="&#x4e1a;" d="M13 -13 L13 7 L80 7 L80 203 L112 203 L112 7 L144 7 L144 203 L175 203 L175 7 L243 7 L243 -13 L13 -13 ZM190 55 Q203 105 208 164 L238 164 Q230 94 217 55 L190 55 ZM39 55 Q26 94 18 164 L48 164 Q51 114 66 55 L39 55 Z" /><glyph glyph-name="uni4E25" unicode="&#x4e25;" d="M17 173 L17 195 L242 195 L242 173 L174 173 L174 109 L241 109 L241 87 L63 87 L63 61 Q66 -3 13 -26 L13 -4 Q30 12 29 51 L29 109 L87 109 L87 173 L17 173 ZM117 173 L117 109 L145 109 L145 173 L117 173 ZM45 120 Q35 138 33 161 L61 161 Q62 140 71 120 L45 120 ZM189 120 Q197 139 200 161 L227 161 Q225 138 215 120 L189 120 Z" /><glyph glyph-name="uni4E2D" unicode="&#x4e2d;" d="M24 41 L24 166 L111 166 L111 207 L145 207 L145 166 L232 166 L232 81 Q233 40 196 41 L145 41 L145 -26 L111 -26 L111 41 L24 41 ZM55 63 L111 63 L111 144 L55 144 L55 63 ZM201 144 L145 144 L145 63 L186 63 Q201 63 201 79 L201 144 Z" /><glyph glyph-name="uni4E3A" unicode="&#x4e3a;" d="M17 -26 L17 -3 Q100 55 100 142 L19 142 L19 163 L50 163 Q47 181 37 203 L64 203 Q64 202 65 200 Q75 178 78 163 L101 163 L101 207 L135 207 L135 181 Q135 172 135 163 L233 163 L233 18 Q234 -20 194 -19 L159 -19 L159 1 L183 1 Q200 0 199 17 L199 142 L134 142 Q131 32 17 -26 ZM149 47 Q149 48 148 50 Q142 80 133 99 L161 99 Q174 68 178 47 L149 47 Z" /><glyph glyph-name="uni4E3B" unicode="&#x4e3b;" d="M24 153 L24 175 L110 175 L110 205 L145 205 L145 175 L232 175 L232 153 L145 153 L145 96 L221 96 L221 74 L145 74 L145 6 L242 6 L242 -14 L14 -14 L14 6 L110 6 L110 74 L36 74 L36 96 L110 96 L110 153 L24 153 Z" /><glyph glyph-name="uni4E5F" unicode="&#x4e5f;" d="M76 -17 Q39 -18 39 20 L39 147 L12 147 L12 169 L39 169 L39 194 L73 194 L73 169 L115 169 L115 207 L147 207 L147 169 L226 169 L226 85 Q227 45 188 46 L169 46 L169 68 L180 68 Q195 68 195 84 L195 147 L147 147 L147 27 L115 27 L115 147 L73 147 L73 24 Q72 2 95 3 L199 3 Q214 3 214 19 L214 30 L241 30 L241 15 Q242 -18 205 -17 L76 -17 Z" /><glyph glyph-name="uni4E7E" unicode="&#x4e7e;" d="M14 170 L14 190 L53 190 L53 206 L81 206 L81 190 L119 190 L119 170 L81 170 L81 151 L114 151 L114 86 Q115 55 83 56 L81 56 L81 35 L119 35 L119 15 L81 15 L81 -24 L53 -24 L53 15 L12 15 L12 35 L53 35 L53 56 L20 56 L20 151 L53 151 L53 170 L14 170 ZM147 -19 Q117 -15 132 16 L189 106 L133 106 L133 127 L226 127 L226 106 L163 12 Q157 1 169 0 L205 0 Q218 0 217 13 L217 24 L242 24 L242 6 Q242 -19 214 -19 L147 -19 ZM120 121 L120 142 Q142 165 145 205 L176 205 Q175 202 174 195 Q174 191 171 182 L242 182 L242 161 L162 161 Q151 138 120 121 ZM44 75 L76 75 Q90 75 90 88 L90 94 L44 94 L44 75 ZM44 131 L44 113 L90 113 L90 131 L44 131 Z" /><glyph glyph-name="uni4E8B" unicode="&#x4e8b;" d="M13 176 L13 194 L112 194 L112 207 L145 207 L145 194 L243 194 L243 176 L145 176 L145 164 L219 164 L219 143 Q220 115 191 116 L145 116 L145 103 L224 103 L224 69 L244 69 L244 51 L224 51 L224 48 Q225 15 194 16 L145 16 L145 11 Q145 -22 112 -22 L81 -22 L81 -3 L99 -3 Q112 -3 112 9 L112 16 L25 16 L25 34 L112 34 L112 51 L12 51 L12 69 L112 69 L112 85 L27 85 L27 103 L112 103 L112 116 L37 116 L37 164 L112 164 L112 176 L13 176 ZM182 34 Q195 34 195 47 L195 51 L145 51 L145 34 L182 34 ZM195 85 L145 85 L145 69 L195 69 L195 85 ZM66 132 L112 132 L112 148 L66 148 L66 132 ZM190 148 L145 148 L145 132 L180 132 Q191 131 190 142 L190 148 Z" /><glyph glyph-name="uni4E8C" unicode="&#x4e8c;" d="M33 156 L33 179 L223 179 L223 156 L33 156 ZM16 -1 L16 20 L240 20 L240 -1 L16 -1 Z" /><glyph glyph-name="uni4EBA" unicode="&#x4eba;" d="M243 -24 Q151 29 128 101 Q106 30 13 -24 L13 -1 Q112 75 111 182 L111 204 L145 204 L145 182 Q144 75 243 -1 L243 -24 Z" /><glyph glyph-name="uni4EE5" unicode="&#x4ee5;" d="M246 -24 Q200 8 180 46 Q163 14 110 -24 L110 0 Q149 38 161 77 Q175 116 176 199 L209 199 Q206 121 196 86 Q212 30 246 0 L246 -24 ZM27 -14 L27 197 L59 197 L59 26 Q85 36 106 50 L106 24 Q80 4 27 -14 ZM107 129 Q103 161 92 190 L119 190 Q131 163 137 129 L107 129 Z" /><glyph glyph-name="uni4F01" unicode="&#x4f01;" d="M17 -14 L17 5 L49 5 L49 105 L80 105 L80 5 L119 5 L119 139 L152 139 L152 93 L215 93 L215 71 L152 71 L152 5 L236 5 L236 -14 L17 -14 ZM245 109 Q170 131 128 176 Q86 131 11 109 L11 129 Q80 158 109 208 L147 208 Q176 158 245 129 L245 109 Z" /><glyph glyph-name="uni4F1A" unicode="&#x4f1a;" d="M245 110 Q215 119 193 130 L193 109 L61 109 L61 130 Q41 119 11 110 L11 130 Q76 156 110 208 L145 208 Q178 156 245 130 L245 110 ZM18 60 L18 82 L238 82 L238 60 L116 60 Q100 31 73 9 Q140 9 181 13 Q176 28 167 42 L195 42 Q213 13 222 -20 L192 -20 Q191 -12 188 -6 Q132 -13 62 -13 L40 -13 L40 9 Q68 36 79 60 L18 60 ZM128 177 Q98 146 63 130 L193 130 Q158 146 128 177 Z" /><glyph glyph-name="uni4F20" unicode="&#x4f20;" d="M90 164 L90 185 L134 185 Q136 194 137 206 L171 206 L167 185 L238 185 L238 164 L163 164 Q157 146 153 130 L245 130 L245 109 L145 109 Q141 96 133 82 L231 82 L231 61 Q214 33 190 13 Q194 11 202 8 Q216 3 223 0 L223 -28 Q165 -1 97 14 L97 36 Q130 31 164 21 Q181 38 194 61 L104 61 L104 82 Q110 96 114 109 L80 109 L80 130 L121 130 Q126 146 130 164 L90 164 ZM38 -24 L38 121 Q26 112 10 108 L10 126 Q45 149 55 205 L86 205 Q78 169 68 153 L68 -24 L38 -24 Z" /><glyph glyph-name="uni4F46" unicode="&#x4f46;" d="M94 40 L94 194 L231 194 L231 77 Q233 38 195 40 L94 40 ZM35 -25 L35 119 Q23 112 10 108 L10 126 Q44 151 53 205 L84 205 Q77 171 65 150 L65 -25 L35 -25 ZM79 -13 L79 6 L245 6 L245 -13 L79 -13 ZM125 61 L185 61 Q201 60 200 77 L200 107 L125 107 L125 61 ZM125 172 L125 128 L200 128 L200 172 L125 172 Z" /><glyph glyph-name="uni4F53" unicode="&#x4f53;" d="M83 150 L83 171 L143 171 L143 205 L174 205 L174 171 L235 171 L235 150 L214 150 Q212 78 240 29 L240 2 Q185 55 187 150 L174 150 L174 42 L207 42 L207 22 L174 22 L174 -24 L143 -24 L143 22 L108 22 L108 42 L143 42 L143 150 L129 150 Q130 55 76 2 L76 29 Q104 78 102 150 L83 150 ZM37 -24 L37 119 Q26 112 11 108 L11 126 Q47 150 57 205 L88 205 Q78 164 67 147 L67 -24 L37 -24 Z" /><glyph glyph-name="uni4F5C" unicode="&#x4f5c;" d="M81 122 L81 140 Q115 165 119 204 L152 204 Q151 197 147 185 Q146 183 146 182 L245 182 L245 161 L168 161 L168 115 L231 115 L231 94 L168 94 L168 48 L239 48 L239 27 L168 27 L168 -24 L136 -24 L135 161 Q118 135 81 122 ZM39 -24 L39 120 Q27 113 12 108 L12 126 Q47 149 56 205 L89 205 Q79 167 70 152 L70 -24 L39 -24 Z" /><glyph glyph-name="uni5143" unicode="&#x5143;" d="M14 100 L14 122 L242 122 L242 100 L176 100 L176 19 Q175 2 192 3 L199 3 Q217 3 216 17 L216 28 L241 28 L241 12 Q242 -18 206 -17 L180 -17 Q141 -19 143 19 L143 100 L104 100 L104 92 Q109 6 17 -24 L17 -2 Q74 24 71 91 L71 100 L14 100 ZM35 171 L35 193 L222 193 L222 171 L35 171 Z" /><glyph glyph-name="uni5149" unicode="&#x5149;" d="M13 88 L13 110 L111 110 L111 206 L145 206 L145 110 L244 110 L244 88 L175 88 L175 17 Q174 0 189 1 L205 1 Q219 1 219 15 L219 25 L244 25 L244 12 Q244 -19 210 -19 L177 -19 Q143 -20 143 15 L143 88 L106 88 Q111 4 13 -25 L13 -5 Q74 20 74 88 L13 88 ZM52 130 Q39 153 33 188 L65 188 Q68 161 80 130 L52 130 ZM175 130 Q187 157 190 188 L223 188 Q218 157 204 130 L175 130 Z" /><glyph glyph-name="uni5165" unicode="&#x5165;" d="M243 -23 Q156 30 128 105 Q102 31 13 -24 L13 -1 Q88 61 113 155 Q107 178 102 205 L137 205 Q157 65 243 0 L243 -23 Z" /><glyph glyph-name="uni5175" unicode="&#x5175;" d="M12 48 L12 69 L47 69 L47 193 L144 193 Q181 192 221 202 L221 179 Q188 172 150 172 L80 172 L80 141 L234 141 L234 120 L188 120 L188 69 L244 69 L244 48 L12 48 ZM80 120 L80 69 L156 69 L156 120 L80 120 ZM240 -25 Q172 -16 157 35 L190 35 Q201 3 240 -7 L240 -25 ZM16 -25 L16 -7 Q55 3 66 35 L99 35 Q84 -16 16 -25 Z" /><glyph glyph-name="uni5199" unicode="&#x5199;" d="M150 -22 L150 -2 L176 -2 Q196 -3 195 15 L195 69 L44 69 L44 90 Q51 118 52 158 L84 158 Q82 144 82 137 L219 137 L219 116 L79 116 Q77 102 74 90 L227 90 L227 15 Q228 -23 188 -22 L150 -22 ZM19 149 L19 194 L237 194 L237 149 L206 149 L206 173 L50 173 L50 149 L19 149 ZM11 25 L11 45 L179 45 L179 25 L11 25 Z" /><glyph glyph-name="uni51C6" unicode="&#x51c6;" d="M64 105 L64 127 Q99 156 106 204 L138 204 Q134 186 129 173 L160 173 L160 200 L191 200 L191 173 L241 173 L241 152 L191 152 L191 118 L239 118 L239 98 L191 98 L191 64 L239 64 L239 44 L191 44 L191 9 L244 9 L244 -9 L118 -9 L118 -25 L87 -25 L87 119 Q77 112 64 105 ZM9 -19 Q32 36 39 100 L65 100 Q60 29 40 -19 L9 -19 ZM35 134 Q30 162 15 195 L42 195 Q58 162 64 134 L35 134 ZM118 44 L118 9 L160 9 L160 44 L118 44 ZM118 98 L118 64 L160 64 L160 98 L118 98 ZM118 152 Q118 151 118 151 L118 118 L160 118 L160 152 L118 152 Z" /><glyph glyph-name="uni5206" unicode="&#x5206;" d="M138 -18 L138 1 L157 1 Q174 0 173 18 L173 89 L115 89 Q112 4 21 -25 L21 -5 Q81 25 82 89 L48 89 L48 109 Q40 104 22 96 Q16 93 13 92 L13 113 Q67 141 80 201 L113 201 Q98 136 51 111 L204 111 Q157 136 142 201 L176 201 Q188 142 243 113 L243 92 Q222 101 206 110 L206 16 Q207 -19 169 -18 L138 -18 Z" /><glyph glyph-name="uni5219" unicode="&#x5219;" d="M23 44 L23 196 L136 196 L136 44 L110 44 L110 175 L48 175 L48 44 L23 44 ZM156 26 L156 186 L184 186 L184 26 L156 26 ZM177 -21 L177 0 L193 0 Q206 -1 205 10 L205 204 L234 204 L234 8 Q235 -22 204 -21 L177 -21 ZM15 -24 L15 -4 Q67 27 65 83 L65 159 L92 159 L92 83 Q90 29 140 -3 L140 -24 Q96 -4 79 28 Q60 -6 15 -24 Z" /><glyph glyph-name="uni521B" unicode="&#x521b;" d="M62 -18 Q29 -19 30 15 L30 123 Q22 119 13 114 L13 134 Q49 160 65 205 L96 205 Q112 162 148 135 L148 115 Q138 120 130 124 L130 72 Q131 37 96 38 L79 38 L79 59 L90 59 Q102 59 102 72 L102 105 L60 105 L60 17 Q59 0 75 1 L105 1 Q120 0 119 16 L119 24 L143 24 L143 12 Q144 -19 112 -18 L62 -18 ZM176 -22 L176 -1 L194 -1 Q207 -2 206 10 L206 205 L235 205 L235 9 Q236 -23 204 -22 L176 -22 ZM157 27 L157 187 L184 187 L184 27 L157 27 ZM80 171 Q64 142 36 126 L127 126 Q98 142 80 171 Z" /><glyph glyph-name="uni529B" unicode="&#x529b;" d="M13 -25 L13 -1 Q88 46 89 149 L19 149 L19 171 L89 171 L89 206 L124 206 L124 189 Q124 180 124 171 L231 171 L231 23 Q232 -19 187 -18 L154 -18 L154 2 L177 2 Q196 2 196 22 L196 149 L123 149 Q123 29 13 -25 Z" /><glyph glyph-name="uni529F" unicode="&#x529f;" d="M97 -26 L97 0 Q137 47 134 133 L134 149 L109 149 L109 171 L134 171 L134 206 L167 206 L167 171 L236 171 L236 15 Q237 -21 201 -20 L170 -20 L170 0 L190 0 Q205 0 204 14 L204 149 L167 149 Q172 24 97 -26 ZM14 161 L14 182 L103 182 L103 161 L75 161 L75 42 Q79 43 88 46 Q100 49 106 51 L106 30 Q65 13 13 8 L13 34 Q20 34 34 36 Q41 37 44 37 L44 161 L14 161 Z" /><glyph glyph-name="uni52A0" unicode="&#x52a0;" d="M143 -8 L143 183 L236 183 L236 25 Q237 -9 202 -8 L143 -8 ZM12 -26 L12 0 Q30 33 36 65 Q42 97 42 154 L16 154 L16 175 L43 175 L43 206 L72 206 L72 175 L125 175 L125 15 Q126 -20 89 -19 L67 -19 L67 0 L82 0 Q95 0 95 13 L95 154 L72 154 Q75 29 12 -26 ZM172 11 L193 11 Q208 11 207 25 L207 162 L172 162 L172 11 Z" /><glyph glyph-name="uni52A8" unicode="&#x52a8;" d="M12 108 L12 128 L124 128 L124 108 L76 108 Q65 63 41 29 Q71 29 92 32 Q90 44 83 67 Q80 76 79 81 L102 81 Q117 40 123 7 Q138 37 143 67 Q148 96 148 151 L125 151 L125 172 L149 172 L149 206 L178 206 L178 172 L238 172 L238 16 Q239 -21 204 -20 L180 -20 L180 0 L195 0 Q209 0 208 14 L208 151 L178 151 Q180 27 120 -25 L120 0 L98 0 L96 11 Q55 6 15 6 L15 30 Q36 67 45 108 L12 108 ZM23 169 L23 190 L115 190 L115 169 L23 169 Z" /><glyph glyph-name="uni52B1" unicode="&#x52b1;" d="M51 -24 L51 0 Q61 19 65 40 Q68 60 68 105 L68 130 L49 130 L49 49 Q52 -2 12 -24 L12 -5 Q26 7 25 38 L25 194 L143 194 L143 174 L49 174 L49 150 L141 150 L141 130 L92 130 L92 104 L134 104 L134 14 Q134 -18 103 -18 L88 -18 L88 0 L96 0 Q111 0 110 14 L110 85 L91 85 Q91 10 51 -24 ZM141 -25 L141 1 Q155 27 159 56 Q163 85 163 151 L147 151 L147 171 L163 171 L163 206 L190 206 L190 171 L237 171 L237 14 Q238 -22 203 -20 L186 -20 L186 0 L196 0 Q211 -1 210 13 L210 151 L189 151 Q189 74 179 41 Q171 7 141 -25 Z" /><glyph glyph-name="uni5316" unicode="&#x5316;" d="M164 -18 Q124 -19 125 16 L125 62 Q117 59 101 55 Q91 52 86 51 L86 72 Q89 73 95 75 Q115 82 125 87 L125 205 L159 205 L159 107 Q193 132 209 174 L242 174 Q218 107 159 77 L159 21 Q159 2 176 2 L199 2 Q214 2 214 17 L214 31 L240 31 L240 13 Q241 -19 205 -18 L164 -18 ZM39 -24 L39 119 Q26 113 11 108 L11 126 Q47 148 57 205 L90 205 Q81 169 70 150 L70 -24 L39 -24 Z" /><glyph glyph-name="uni5341" unicode="&#x5341;" d="M14 103 L14 126 L110 126 L110 205 L145 205 L145 126 L242 126 L242 103 L145 103 L145 -24 L110 -24 L110 103 L14 103 Z" /><glyph glyph-name="uni539F" unicode="&#x539f;" d="M80 56 L80 150 L123 150 Q126 157 127 168 L159 168 Q158 164 156 156 Q155 152 155 150 L228 150 L228 90 Q230 54 194 56 L171 56 L171 8 Q172 -23 139 -22 L115 -22 L115 -2 L127 -2 Q141 -3 140 10 L140 56 L80 56 ZM14 -25 L14 -3 Q31 18 30 60 L30 195 L243 195 L243 174 L61 174 L61 70 Q65 3 14 -25 ZM110 75 L184 75 Q199 74 198 90 L198 94 L110 94 L110 75 ZM110 131 L110 112 L198 112 L198 131 L110 131 ZM63 -12 L63 5 Q90 18 98 45 L126 45 Q115 0 63 -12 ZM246 -12 Q194 0 184 45 L212 45 Q220 18 246 5 L246 -12 Z" /><glyph glyph-name="uni53C2" unicode="&#x53c2;" d="M17 110 L17 130 L98 130 Q103 136 106 143 L141 143 Q140 141 138 137 Q134 132 133 130 L241 130 L241 110 L176 110 Q197 85 242 70 L242 52 Q187 65 162 88 Q133 57 55 50 L55 66 Q104 72 130 91 L159 91 Q150 100 141 110 L118 110 Q87 72 13 52 L13 70 Q61 88 82 110 L17 110 ZM38 148 L38 169 Q68 182 91 205 L133 205 Q106 180 81 169 Q137 167 177 172 Q176 173 174 177 Q171 182 162 194 L190 194 Q209 171 221 144 L190 144 Q189 149 187 153 Q140 148 68 148 L38 148 ZM26 -26 L26 -9 Q147 2 191 42 L231 42 Q177 -18 26 -26 ZM41 12 L41 29 Q125 38 156 65 L191 65 Q155 20 41 12 Z" /><glyph glyph-name="uni53D1" unicode="&#x53d1;" d="M20 143 L20 165 Q28 179 31 200 L63 200 Q57 179 50 165 L90 165 Q92 173 95 190 Q97 200 98 205 L131 205 Q130 199 128 187 Q125 172 123 165 L181 165 L181 199 L210 199 L210 165 L244 165 L244 143 L117 143 Q113 128 108 115 L222 115 L222 94 Q203 47 172 22 Q195 5 240 -5 L240 -24 Q185 -12 151 6 Q116 -11 61 -24 L61 -5 Q107 6 130 22 Q107 43 89 77 Q65 34 13 -7 L13 16 Q68 75 85 143 L20 143 ZM99 94 L93 82 L121 82 Q133 56 151 38 Q172 56 189 94 L99 94 Z" /><glyph glyph-name="uni53EA" unicode="&#x53ea;" d="M15 -24 L15 -3 Q58 15 65 58 L99 58 Q88 -3 15 -24 ZM70 96 L170 96 Q189 95 188 113 L188 171 L70 171 L70 96 ZM37 74 L37 193 L221 193 L221 115 Q222 73 181 74 L37 74 ZM241 -24 Q168 -3 157 58 L191 58 Q198 15 241 -3 L241 -24 Z" /><glyph glyph-name="uni53EF" unicode="&#x53ef;" d="M36 22 L36 143 L148 143 L148 57 Q149 21 114 22 L36 22 ZM11 169 L11 191 L245 191 L245 169 L216 169 L216 13 Q216 -22 180 -22 L151 -22 L151 0 L167 0 Q183 -1 182 14 L182 169 L11 169 ZM66 43 L104 43 Q117 43 117 57 L117 123 L66 123 L66 43 Z" /><glyph glyph-name="uni540D" unicode="&#x540d;" d="M14 55 L14 75 Q74 86 111 104 Q80 118 54 123 L54 134 Q46 130 16 122 L16 141 Q71 164 91 205 L126 205 Q124 200 120 193 Q118 189 117 187 L224 187 L224 166 Q183 104 116 80 L225 80 L225 16 Q226 -21 193 -20 L52 -20 L52 62 Q42 59 18 56 Q15 55 14 55 ZM84 0 L180 0 Q193 0 193 17 L193 59 L84 59 L84 0 ZM101 165 Q86 150 71 143 Q105 136 126 126 L126 112 Q157 131 183 165 L101 165 Z" /><glyph glyph-name="uni540E" unicode="&#x540e;" d="M82 -17 L82 86 L227 86 L227 16 Q228 -17 192 -17 L82 -17 ZM15 -25 L15 -3 Q37 15 35 66 L35 193 L158 193 Q196 192 235 203 L235 179 Q202 172 162 172 L68 172 L68 140 L243 140 L243 118 L68 118 L68 73 Q72 1 15 -25 ZM114 3 L180 3 Q196 2 195 20 L195 64 L114 64 L114 3 Z" /><glyph glyph-name="uni5412" unicode="&#x5412;" d="M21 1 L21 188 L96 188 L96 33 Q97 0 65 1 L21 1 ZM106 169 L106 191 L189 191 Q210 191 234 197 L234 174 Q215 169 191 169 L172 169 L172 109 L243 109 L243 87 L172 87 L172 19 Q171 0 190 1 L199 1 Q216 0 215 16 L215 28 L241 28 L241 11 Q242 -19 210 -18 L175 -18 Q139 -19 140 13 L140 87 L103 87 L103 109 L140 109 L140 169 L106 169 ZM47 21 L59 21 Q72 20 71 33 L71 168 L47 168 L47 21 Z" /><glyph glyph-name="uni54C1" unicode="&#x54c1;" d="M74 131 L167 131 Q183 130 182 148 L182 174 L74 174 L74 131 ZM43 109 L43 195 L214 195 L214 145 Q214 109 178 109 L43 109 ZM50 1 L75 1 Q89 0 88 16 L88 66 L50 66 L50 1 ZM22 -18 L22 88 L116 88 L116 13 Q117 -19 83 -18 L22 -18 ZM167 1 L194 1 Q208 0 207 16 L207 66 L167 66 L167 1 ZM139 -18 L139 88 L235 88 L235 13 Q236 -19 203 -18 L139 -18 Z" /><glyph glyph-name="uni54EA" unicode="&#x54ea;" d="M84 118 L84 137 L99 137 L99 176 L84 176 L84 196 L161 196 L161 10 Q162 -19 132 -18 L119 -18 L119 0 L125 0 Q139 0 138 13 L138 60 L121 60 Q119 6 78 -26 L78 -2 Q97 20 99 60 L84 60 L84 79 L99 79 L99 118 L84 118 ZM19 -3 L19 189 L77 189 L77 25 Q78 -5 49 -3 L19 -3 ZM174 -25 L174 194 L242 194 L242 175 Q239 133 227 107 Q243 84 243 54 Q244 5 203 6 L203 29 Q222 29 221 57 Q222 80 205 105 Q217 136 218 172 L197 172 L197 -25 L174 -25 ZM40 14 L46 14 Q58 14 57 25 L57 170 L40 170 L40 14 ZM121 79 L138 79 L138 118 L121 118 L121 79 ZM138 176 L121 176 L121 137 L138 137 L138 176 Z" /><glyph glyph-name="uni552F" unicode="&#x552f;" d="M90 108 L90 129 Q118 157 124 204 L153 204 Q152 200 151 194 Q149 186 145 173 L172 173 L172 200 L201 200 L201 173 L242 173 L242 152 L201 152 L201 118 L239 118 L239 98 L201 98 L201 64 L239 64 L239 44 L201 44 L201 8 L244 8 L244 -10 L137 -10 L137 -25 L108 -25 L108 121 Q101 114 90 108 ZM21 1 L21 190 L89 190 L89 32 Q90 0 58 1 L21 1 ZM46 21 L54 21 Q66 20 65 33 L65 169 L46 169 L46 21 ZM137 44 L137 8 L172 8 L172 44 L137 44 ZM137 98 L137 64 L172 64 L172 98 L137 98 ZM137 152 L137 118 L172 118 L172 152 L137 152 Z" /><glyph glyph-name="uni56FD" unicode="&#x56fd;" d="M22 -19 L22 197 L235 197 L235 16 Q236 -20 200 -19 L22 -19 ZM54 0 L186 0 Q204 0 203 17 L203 176 L54 176 L54 0 ZM65 136 L65 156 L191 156 L191 136 L142 136 L142 106 L186 106 L186 86 L142 86 L142 42 L194 42 L194 22 L62 22 L62 42 L110 42 L110 86 L69 86 L69 106 L110 106 L110 136 L65 136 ZM162 48 Q159 64 153 79 L174 79 Q182 66 185 48 L162 48 Z" /><glyph glyph-name="uni56FE" unicode="&#x56fe;" d="M21 -19 L21 198 L234 198 L234 18 Q236 -21 199 -19 L21 -19 ZM51 0 L188 0 Q206 0 205 17 L205 178 L51 178 L51 0 ZM198 79 Q157 84 130 94 Q102 84 59 78 L59 94 Q87 99 106 106 Q92 115 78 129 Q75 128 69 126 Q65 125 62 124 L62 139 Q85 149 92 170 L118 170 Q118 168 116 165 Q115 161 114 159 L191 159 L191 143 Q175 119 154 106 Q172 100 198 94 L198 79 ZM184 6 Q129 22 70 28 L70 46 Q130 43 184 29 L184 6 ZM176 46 Q127 60 83 62 L83 79 Q137 78 176 68 L176 46 ZM159 143 L102 143 Q96 138 90 135 L105 135 Q117 125 130 117 Q148 127 159 143 Z" /><glyph glyph-name="uni5708" unicode="&#x5708;" d="M21 -20 L21 198 L235 198 L235 14 Q236 -21 199 -20 L21 -20 ZM50 0 L189 0 Q207 -1 206 15 L206 178 L50 178 L50 0 ZM63 130 L63 146 L78 146 Q75 155 73 166 L95 166 Q96 163 97 158 Q98 155 100 146 L116 146 Q116 151 116 155 L116 172 L141 172 L141 156 Q141 152 141 146 L156 146 Q159 155 161 166 L184 166 Q184 164 183 161 Q181 151 178 146 L193 146 L193 130 L138 130 Q137 123 135 117 L199 117 L199 101 L163 101 Q175 87 198 78 L198 62 Q190 64 176 70 Q172 71 170 72 L170 63 Q171 39 146 40 L127 40 L127 54 L140 54 Q149 54 148 63 L148 67 L105 67 L105 40 Q104 27 118 28 L163 28 Q173 28 173 38 L173 43 L193 43 L193 36 Q194 10 168 11 L109 11 Q80 10 81 38 L81 70 Q70 66 58 61 L58 78 Q84 87 97 101 L57 101 L57 117 L109 117 Q109 119 111 122 Q112 127 113 130 L63 130 ZM126 101 Q119 91 108 84 L153 84 Q144 91 138 101 L126 101 Z" /><glyph glyph-name="uni5728" unicode="&#x5728;" d="M20 163 L20 184 L81 184 Q82 186 83 191 Q86 199 87 205 L121 205 Q119 195 116 184 L244 184 L244 163 L108 163 Q98 140 76 116 L76 -24 L44 -24 L44 93 Q31 86 14 78 L14 99 Q56 125 73 163 L20 163 ZM93 77 L93 99 L147 99 L147 144 L179 144 L179 99 L232 99 L232 77 L179 77 L179 9 L243 9 L243 -11 L84 -11 L84 9 L147 9 L147 77 L93 77 Z" /><glyph glyph-name="uni5764" unicode="&#x5764;" d="M98 27 L98 176 L152 176 L152 206 L182 206 L182 176 L235 176 L235 63 Q237 25 202 27 L182 27 L182 -25 L152 -25 L152 27 L98 27 ZM13 136 L13 157 L36 157 L36 206 L65 206 L65 157 L87 157 L87 136 L65 136 L65 38 Q69 39 76 42 Q85 45 90 46 L90 25 Q56 8 12 1 L12 27 Q17 28 27 29 Q33 31 36 31 L36 136 L13 136 ZM125 48 L152 48 L152 93 L125 93 L125 48 ZM195 48 Q209 47 208 65 L208 93 L182 93 L182 48 L195 48 ZM208 155 L182 155 L182 113 L208 113 L208 155 ZM125 155 L125 113 L152 113 L152 155 L125 155 Z" /><glyph glyph-name="uni578B" unicode="&#x578b;" d="M19 177 L19 197 L143 197 L143 177 L124 177 L124 144 L148 144 L148 124 L124 124 L124 77 L97 77 L97 124 L66 124 Q63 88 17 71 L17 90 Q37 102 39 124 L13 124 L13 144 L40 144 L40 177 L19 177 ZM30 35 L30 56 L112 56 L112 72 L144 72 L144 56 L226 56 L226 35 L144 35 L144 3 L242 3 L242 -16 L13 -16 L13 3 L112 3 L112 35 L30 35 ZM177 75 L177 95 L192 95 Q206 95 206 109 L206 203 L233 203 L233 106 Q234 75 201 75 L177 75 ZM159 114 L159 194 L185 194 L185 114 L159 114 ZM67 177 L67 144 L97 144 L97 177 L67 177 Z" /><glyph glyph-name="uni57FA" unicode="&#x57fa;" d="M21 172 L21 191 L53 191 L53 206 L85 206 L85 191 L171 191 L171 206 L202 206 L202 191 L236 191 L236 172 L202 172 L202 92 L242 92 L242 73 L187 73 Q203 50 242 35 L242 17 Q207 27 190 38 L190 25 L143 25 L143 2 L227 2 L227 -15 L30 -15 L30 2 L112 2 L112 25 L66 25 L66 38 Q47 26 14 17 L14 35 Q53 50 69 73 L14 73 L14 92 L53 92 L53 172 L21 172 ZM143 62 L143 44 L181 44 Q165 55 152 73 L104 73 Q91 55 75 44 L112 44 L112 62 L143 62 ZM85 108 L85 92 L171 92 L171 108 L85 108 ZM85 140 L85 124 L171 124 L171 140 L85 140 ZM85 172 L85 156 L171 156 L171 172 L85 172 Z" /><glyph glyph-name="uni589E" unicode="&#x589e;" d="M81 93 L81 186 L110 186 Q106 194 104 205 L135 205 Q136 195 142 186 L177 186 Q183 195 184 205 L215 205 Q214 194 209 186 L238 186 L238 125 Q239 92 206 93 L81 93 ZM91 -20 L91 79 L227 79 L227 12 Q228 -21 193 -20 L91 -20 ZM14 137 L14 157 L32 157 L32 205 L60 205 L60 157 L76 157 L76 137 L60 137 L60 33 Q70 36 82 40 L82 19 Q50 3 12 0 L12 24 Q23 24 32 26 L32 137 L14 137 ZM106 112 L146 112 L146 167 L106 167 L106 112 ZM212 167 L172 167 L172 112 L197 112 Q213 111 212 127 L212 167 ZM119 -1 L184 -1 Q199 -2 198 12 L198 20 L119 20 L119 -1 ZM119 60 L119 38 L198 38 L198 60 L119 60 ZM177 122 Q182 137 184 156 L204 156 Q201 135 196 122 L177 122 ZM122 122 Q115 139 114 156 L133 156 Q136 137 141 122 L122 122 Z" /><glyph glyph-name="uni5904" unicode="&#x5904;" d="M173 -17 Q112 -17 78 19 Q59 0 16 -25 L16 -3 Q44 17 62 40 Q43 71 28 124 Q26 123 20 120 Q15 117 12 115 L12 133 Q43 158 49 205 L80 205 Q77 193 74 183 L132 183 L132 162 Q128 85 95 40 Q125 3 181 3 L243 3 L243 -17 L173 -17 ZM155 17 L155 205 L184 205 L184 17 L155 17 ZM100 162 L65 162 Q54 141 35 128 L59 128 Q67 91 79 66 Q97 102 100 162 ZM240 82 Q216 110 190 125 L190 153 Q223 139 240 118 L240 82 Z" /><glyph glyph-name="uni5927" unicode="&#x5927;" d="M17 133 L17 156 L110 156 L110 205 L146 205 L146 156 L239 156 L239 133 L147 133 Q153 40 243 -3 L243 -24 Q157 8 129 68 Q100 8 13 -24 L13 -3 Q105 42 109 133 L17 133 Z" /><glyph glyph-name="uni5929" unicode="&#x5929;" d="M28 170 L28 193 L229 193 L229 170 L147 170 L147 118 L241 118 L241 96 L150 96 Q161 31 243 -3 L243 -24 Q156 3 129 58 Q102 3 13 -24 L13 -3 Q100 35 108 96 L14 96 L14 118 L110 118 L110 170 L28 170 Z" /><glyph glyph-name="uni592A" unicode="&#x592a;" d="M17 133 L17 156 L110 156 L110 205 L146 205 L146 156 L239 156 L239 133 L147 133 Q157 43 243 -3 L243 -24 Q157 11 129 77 Q117 55 102 37 L126 37 Q136 19 144 -7 L115 -7 Q110 12 101 35 Q73 4 13 -24 L13 -3 Q103 49 109 133 L17 133 Z" /><glyph glyph-name="uni5938" unicode="&#x5938;" d="M19 169 L19 189 L101 189 Q103 194 109 203 Q107 201 111 207 L144 207 Q142 202 138 195 Q136 191 135 189 L237 189 L237 169 L172 169 Q191 142 241 125 L241 107 Q213 114 193 123 L193 111 L65 111 L65 125 Q43 115 14 106 L14 125 Q61 143 84 169 L19 169 ZM16 72 L16 93 L238 93 L238 72 L91 72 Q90 65 87 54 Q86 52 86 51 L206 51 L206 9 Q207 -20 174 -20 L117 -20 L117 0 L161 0 Q174 0 174 12 L174 31 L55 31 L55 51 Q55 52 56 54 Q59 65 60 72 L16 72 ZM121 169 Q103 146 76 131 L177 131 Q157 144 139 169 L121 169 Z" /><glyph glyph-name="uni5996" unicode="&#x5996;" d="M10 153 L10 174 L23 174 L23 205 L49 205 L49 174 L76 174 L76 205 L101 205 L101 174 L114 174 L114 153 L101 153 L101 106 Q102 46 78 18 Q91 5 109 -4 L109 -25 Q80 -12 62 1 Q44 -12 15 -25 L15 -4 Q34 5 46 18 Q23 48 23 106 L23 153 L10 153 ZM119 170 L119 191 L193 191 Q214 191 239 198 L239 175 Q220 170 198 170 L198 119 L244 119 L244 98 L198 98 Q202 37 243 -2 L243 -24 Q195 8 182 52 Q166 7 119 -23 L119 -2 Q161 42 164 98 L113 98 L113 119 L165 119 L165 170 L119 170 ZM62 38 Q76 64 76 105 L76 153 L49 153 L49 105 Q49 62 62 38 Z" /><glyph glyph-name="uni59D3" unicode="&#x59d3;" d="M11 154 L11 175 L22 175 L22 206 L47 206 L47 175 L73 175 L73 206 L98 206 L98 175 L109 175 L109 154 L98 154 L98 105 Q99 48 76 18 Q88 5 106 -4 L106 -25 Q78 -12 60 2 Q42 -12 12 -25 L12 -4 Q32 6 45 18 Q22 49 22 105 L22 154 L11 154 ZM108 112 L108 131 Q125 150 124 193 L151 193 Q151 189 150 182 Q150 174 149 170 L167 170 L167 206 L197 206 L197 170 L241 170 L241 149 L197 149 L197 90 L239 90 L239 70 L197 70 L197 3 L245 3 L245 -16 L112 -16 L112 3 L167 3 L167 70 L119 70 L119 90 L167 90 L167 149 L144 149 Q135 127 108 112 ZM60 39 Q73 64 73 104 L73 154 L47 154 L47 104 Q47 64 60 39 Z" /><glyph glyph-name="uni5B50" unicode="&#x5b50;" d="M11 80 L11 102 L115 102 L115 129 Q149 146 174 172 L32 172 L32 194 L225 194 L225 172 Q189 139 150 121 L150 102 L244 102 L244 80 L150 80 L150 17 Q150 -22 110 -22 L78 -22 L78 0 L98 0 Q116 0 115 16 L115 80 L11 80 Z" /><glyph glyph-name="uni5B9E" unicode="&#x5b9e;" d="M14 47 L14 67 L133 67 Q137 83 137 106 L137 156 L169 156 L169 113 Q169 86 165 67 L242 67 L242 47 L169 47 Q189 11 239 -5 L239 -24 Q173 -6 148 29 Q121 -7 18 -25 L18 -6 Q104 12 124 47 L14 47 ZM19 142 L19 188 L110 188 L110 206 L146 206 L146 188 L237 188 L237 142 L207 142 L207 167 L49 167 L49 142 L19 142 ZM111 74 Q75 90 40 94 L40 115 Q80 113 111 100 L111 74 ZM127 112 Q98 127 62 133 L62 152 Q101 150 127 138 L127 112 Z" /><glyph glyph-name="uni5BA1" unicode="&#x5ba1;" d="M35 14 L35 134 L112 134 L112 156 L144 156 L144 134 L222 134 L222 48 Q222 15 188 14 L144 14 L144 -25 L112 -25 L112 14 L35 14 ZM18 147 L18 188 L109 188 L109 205 L146 205 L146 188 L238 188 L238 147 L206 147 L206 168 L50 168 L50 147 L18 147 ZM63 35 L112 35 L112 65 L63 65 L63 35 ZM179 35 Q194 35 193 49 L193 65 L144 65 L144 35 L179 35 ZM63 113 L63 86 L112 86 L112 113 L63 113 ZM193 113 L144 113 L144 86 L193 86 L193 113 Z" /><glyph glyph-name="uni5BAB" unicode="&#x5bab;" d="M33 -19 L33 60 L223 60 L223 12 Q224 -20 190 -19 L33 -19 ZM48 79 L48 145 L207 145 L207 109 Q208 78 176 79 L48 79 ZM18 147 L18 189 L110 189 L110 206 L147 206 L147 189 L238 189 L238 147 L207 147 L207 168 L49 168 L49 147 L18 147 ZM64 0 L177 0 Q193 0 192 15 L192 39 L64 39 L64 0 ZM78 99 L164 99 Q178 98 177 113 L177 125 L78 125 L78 99 Z" /><glyph glyph-name="uni5C06" unicode="&#x5c06;" d="M92 147 L92 163 Q125 175 140 205 L171 205 Q169 200 165 193 Q163 189 162 187 L240 187 L240 167 Q205 100 94 90 L94 109 Q130 115 153 125 Q134 134 114 136 L114 153 Q105 150 92 147 ZM14 33 L14 63 Q34 69 53 80 L53 129 Q35 137 16 141 L16 163 Q37 161 53 156 L53 205 L82 205 L82 -25 L53 -25 L53 53 Q35 41 14 33 ZM89 59 L89 80 L189 80 L189 106 L220 106 L220 80 L245 80 L245 59 L220 59 L220 7 Q221 -22 188 -22 L162 -22 L162 -2 L177 -2 Q190 -3 189 9 L189 59 L89 59 ZM206 167 L143 167 Q133 159 119 154 Q146 153 165 145 L165 130 Q191 145 206 167 ZM123 7 Q121 25 111 48 L136 48 Q148 27 152 7 L123 7 Z" /><glyph glyph-name="uni5C16" unicode="&#x5c16;" d="M16 66 L16 88 L111 88 L111 112 L145 112 L145 88 L240 88 L240 66 L147 66 Q156 19 243 -4 L243 -24 Q158 -9 128 33 Q100 -9 13 -24 L13 -4 Q97 16 108 66 L16 66 ZM110 119 L110 205 L145 205 L145 119 L110 119 ZM19 115 L19 134 Q53 151 61 184 L93 184 Q80 131 19 115 ZM236 115 Q176 131 162 184 L195 184 Q203 150 236 134 L236 115 Z" /><glyph glyph-name="uni5C31" unicode="&#x5c31;" d="M130 131 L130 152 L154 152 L154 206 L182 206 L182 152 L239 152 L239 131 L182 131 Q182 121 181 111 L206 111 L206 7 Q205 0 215 0 Q225 0 224 7 L224 20 L244 20 L244 6 Q245 -20 218 -19 L207 -19 Q177 -20 178 6 L178 81 Q172 21 122 -25 L122 0 L126 7 Q100 22 98 58 L120 58 Q120 35 134 22 Q155 62 154 131 L130 131 ZM24 72 L24 146 L123 146 L123 102 Q125 70 94 72 L90 72 L90 9 Q91 -23 60 -22 L41 -22 L41 -2 L49 -2 Q63 -3 62 9 L62 72 L24 72 ZM15 164 L15 185 L58 185 L58 206 L91 206 L91 185 L133 185 L133 164 L15 164 ZM51 91 L85 91 Q98 90 97 103 L97 127 L51 127 L51 91 ZM9 -6 L9 12 Q26 27 29 58 L52 58 Q48 8 9 -6 ZM204 160 Q201 178 194 197 L217 197 Q227 177 230 160 L204 160 Z" /><glyph glyph-name="uni5C4A" unicode="&#x5c4a;" d="M76 -18 L76 103 L140 103 L140 122 L168 122 L168 103 L232 103 L232 13 Q233 -19 202 -18 L76 -18 ZM13 -25 L13 -2 Q33 17 31 60 L31 196 L233 196 L233 161 Q234 128 201 129 L62 129 L62 71 Q66 2 13 -25 ZM62 175 L62 149 L191 149 Q204 149 204 162 L204 175 L62 175 ZM104 0 L140 0 L140 33 L104 33 L104 0 ZM192 0 Q205 -1 204 12 L204 33 L168 33 L168 0 L192 0 ZM104 84 L104 52 L140 52 L140 84 L104 84 ZM204 84 L168 84 L168 52 L204 52 L204 84 Z" /><glyph glyph-name="uni5E7B" unicode="&#x5e7b;" d="M15 92 L15 115 Q44 149 59 203 L92 203 Q74 149 42 115 Q57 114 76 116 Q82 132 89 151 L120 151 Q97 74 49 22 Q78 22 100 25 Q96 44 90 66 L113 66 Q126 31 132 -11 L105 -11 L103 3 Q77 0 39 0 L18 0 L18 22 Q49 56 66 93 Q39 91 15 92 ZM165 -19 L165 0 L188 0 Q202 0 201 14 L201 166 L120 166 L120 188 L234 188 L234 15 Q235 -20 198 -19 L165 -19 Z" /><glyph glyph-name="uni5E7F" unicode="&#x5e7f;" d="M13 -26 L13 -4 Q39 15 37 60 L37 182 L125 182 L125 206 L162 206 L162 182 L243 182 L243 159 L71 159 L71 73 Q76 0 13 -26 Z" /><glyph glyph-name="uni5EA6" unicode="&#x5ea6;" d="M13 -25 L13 -3 Q31 20 30 69 L30 189 L121 189 L121 206 L158 206 L158 189 L243 189 L243 168 L61 168 L61 145 L92 145 L92 162 L121 162 L121 145 L176 145 L176 162 L206 162 L206 145 L241 145 L241 125 L206 125 L206 118 Q207 86 177 87 L92 87 L92 125 L61 125 L61 77 Q65 2 13 -25 ZM241 -24 Q176 -15 147 -2 Q114 -15 55 -25 L55 -5 Q102 3 120 10 Q96 25 78 47 L114 47 Q129 32 146 23 Q167 34 185 54 L70 54 L70 73 L223 73 L223 54 Q203 26 174 9 Q204 0 241 -5 L241 -24 ZM164 106 Q177 105 176 119 L176 125 L121 125 L121 106 L164 106 Z" /><glyph glyph-name="uni5EA7" unicode="&#x5ea7;" d="M13 -25 L13 -3 Q31 13 29 62 L29 189 L121 189 L121 207 L158 207 L158 189 L243 189 L243 168 L60 168 L60 69 Q64 2 13 -25 ZM71 39 L71 58 L136 58 L136 157 L164 157 L164 58 L229 58 L229 39 L164 39 L164 3 L243 3 L243 -15 L57 -15 L57 3 L136 3 L136 39 L71 39 ZM170 67 L170 88 Q190 105 189 138 L189 150 L214 150 L214 138 Q213 105 233 87 L233 67 Q211 79 201 97 Q192 79 170 67 ZM68 67 L68 88 Q88 105 87 138 L87 150 L112 150 L112 137 Q111 105 130 88 L130 67 Q109 79 99 97 Q90 79 68 67 Z" /><glyph glyph-name="uni5F20" unicode="&#x5f20;" d="M98 92 L98 113 L117 113 L117 203 L148 203 L148 113 L242 113 L242 92 L193 92 Q202 36 243 2 L243 -19 Q173 17 164 92 L148 92 L148 12 Q149 12 151 13 Q167 19 177 25 L177 1 Q145 -15 117 -24 L117 92 L98 92 ZM29 -21 L29 -1 L51 -1 Q64 -2 63 10 L63 62 L45 62 Q17 61 18 90 L18 139 L54 139 Q66 138 65 151 L65 175 L16 175 L16 195 L94 195 L94 146 Q95 118 66 119 L47 119 L47 95 Q47 82 60 82 L93 82 L93 9 Q94 -22 61 -21 L29 -21 ZM161 125 L161 142 Q197 162 207 197 L237 197 Q223 141 161 125 Z" /><glyph glyph-name="uni5FAA" unicode="&#x5faa;" d="M72 -25 L72 -3 Q87 15 86 55 L86 193 L177 193 Q213 192 238 202 L238 180 Q217 174 193 173 L193 154 L244 154 L244 134 L193 134 L193 115 L235 115 L235 13 Q236 -19 204 -18 L123 -18 L123 115 L164 115 L164 134 L114 134 L114 66 Q114 28 106 10 Q98 -6 72 -25 ZM13 69 L13 88 Q41 104 53 140 L81 140 Q74 118 63 104 L63 -25 L36 -25 L36 79 Q34 78 28 76 Q25 74 13 69 ZM13 133 L13 151 Q42 167 53 205 L82 205 Q67 149 13 133 ZM150 58 L150 37 L208 37 L208 58 L150 58 ZM150 0 L194 0 Q209 0 208 14 L208 20 L150 20 L150 0 ZM150 95 L150 75 L208 75 L208 95 L150 95 ZM114 173 L114 154 L164 154 L164 173 L114 173 Z" /><glyph glyph-name="uni6000" unicode="&#x6000;" d="M96 171 L96 192 L241 192 L241 171 L188 171 Q183 154 173 129 L181 129 L181 -24 L150 -24 L150 89 Q130 62 87 29 L87 53 Q140 109 153 171 L96 171 ZM101 127 Q88 130 73 132 L73 -24 L44 -24 L44 204 L73 204 L73 153 Q86 154 101 151 L101 127 ZM243 35 Q216 66 188 84 L188 112 Q221 94 243 72 L243 35 ZM10 75 Q16 114 16 161 L35 161 Q35 115 32 75 L10 75 Z" /><glyph glyph-name="uni6027" unicode="&#x6027;" d="M93 105 L93 126 Q111 147 111 195 L139 195 Q139 190 138 182 Q138 173 137 169 L156 169 L156 206 L189 206 L189 169 L238 169 L238 148 L189 148 L189 92 L236 92 L236 71 L189 71 L189 5 L245 5 L245 -14 L91 -14 L91 5 L156 5 L156 71 L103 71 L103 92 L156 92 L156 148 L132 148 Q123 122 93 105 ZM43 -21 L43 206 L72 206 L72 154 Q76 153 82 153 Q88 152 92 152 L92 126 Q83 130 72 131 L72 -21 L43 -21 ZM11 74 Q16 106 17 161 L35 161 Q35 110 31 74 L11 74 Z" /><glyph glyph-name="uni60F3" unicode="&#x60f3;" d="M115 66 L115 197 L230 197 L230 99 Q232 64 198 66 L115 66 ZM17 159 L17 178 L49 178 L49 206 L78 206 L78 178 L107 178 L107 159 L80 159 Q89 134 107 112 L107 86 Q87 104 78 119 L78 62 L49 62 L49 115 Q40 97 15 71 L15 98 Q37 127 47 159 L17 159 ZM105 -20 Q71 -21 72 10 L72 55 L103 55 L103 17 Q101 -1 120 0 L156 0 Q171 0 170 13 L170 18 L194 18 L194 9 Q195 -21 162 -20 L105 -20 ZM215 -13 Q210 23 198 55 L224 55 Q237 20 244 -13 L215 -13 ZM12 -13 Q26 16 32 55 L58 55 Q53 16 41 -13 L12 -13 ZM189 85 Q202 84 201 98 L201 106 L144 106 L144 85 L189 85 ZM144 142 L144 123 L201 123 L201 142 L144 142 ZM144 178 L144 159 L201 159 L201 178 L144 178 ZM140 20 Q138 35 131 55 L157 55 Q165 38 168 20 L140 20 Z" /><glyph glyph-name="uni610F" unicode="&#x610f;" d="M38 44 L38 120 L218 120 L218 78 Q219 43 186 44 L38 44 ZM13 131 L13 150 L71 150 Q67 159 65 169 L96 169 Q98 159 102 150 L154 150 Q158 159 161 169 L191 169 Q190 159 185 150 L243 150 L243 131 L13 131 ZM27 174 L27 193 L110 193 L110 206 L147 206 L147 193 L229 193 L229 174 L27 174 ZM101 -20 Q67 -21 68 9 L68 37 L98 37 L98 14 Q97 -3 115 -1 L161 -1 Q175 -2 174 10 L174 14 L198 14 L198 7 Q199 -21 168 -20 L101 -20 ZM69 61 L173 61 Q188 61 187 76 L69 76 L69 61 ZM69 103 L69 89 L187 89 L187 103 L69 103 ZM216 -14 Q212 8 200 37 L225 37 Q237 15 243 -14 L216 -14 ZM13 -14 Q26 8 31 37 L55 37 Q52 4 40 -14 L13 -14 ZM136 10 Q133 26 126 37 L155 37 Q166 21 168 10 L136 10 Z" /><glyph glyph-name="uni6210" unicode="&#x6210;" d="M14 -25 L14 -4 Q34 15 32 57 L32 166 L137 166 Q137 172 137 184 Q136 199 136 207 L168 207 Q168 184 168 166 L195 166 L195 200 L221 200 L221 166 L244 166 L244 144 L169 144 Q170 100 177 58 Q196 85 206 127 L235 127 Q218 62 185 27 Q196 -1 213 -1 Q225 -2 225 16 L247 16 Q248 -24 214 -23 Q182 -23 165 7 Q145 -6 118 -23 L118 -1 Q140 13 155 30 Q155 32 153 37 Q152 44 151 47 Q141 82 138 144 L63 144 L63 110 L125 110 L125 31 Q126 0 94 1 L73 1 L73 21 L84 21 Q97 20 96 34 L96 89 L63 89 L63 63 Q66 0 14 -25 Z" /><glyph glyph-name="uni6216" unicode="&#x6216;" d="M14 151 L14 173 L136 173 Q136 189 136 207 L168 207 L168 173 L197 173 L197 201 L223 201 L223 173 L244 173 L244 151 L168 151 Q169 100 177 61 Q195 90 206 132 L236 132 Q219 67 184 29 Q195 -1 213 -1 Q225 -2 225 16 L247 16 Q248 -24 214 -23 Q181 -23 164 9 Q144 -5 117 -22 L117 0 L128 8 Q67 -6 12 -5 L12 19 Q74 18 129 30 L129 9 Q131 11 135 14 Q148 26 154 33 Q154 34 153 35 Q153 39 150 47 Q141 86 137 151 L14 151 ZM26 45 L26 129 L120 129 L120 75 Q121 44 89 45 L26 45 ZM55 66 L79 66 Q92 65 91 79 L91 108 L55 108 L55 66 Z" /><glyph glyph-name="uni6253" unicode="&#x6253;" d="M15 146 L15 168 L46 168 L46 204 L78 204 L78 168 L106 168 L106 146 L78 146 L78 98 Q91 101 109 107 L109 87 Q93 80 78 75 L78 5 Q79 -23 49 -22 L23 -22 L23 -1 L37 -1 Q47 -2 46 7 L46 66 Q31 62 11 59 L11 86 Q32 88 46 91 L46 146 L15 146 ZM113 167 L113 189 L245 189 L245 167 L203 167 L203 11 Q203 -23 170 -22 L137 -22 L137 0 L156 0 Q170 -1 169 11 L169 167 L113 167 Z" /><glyph glyph-name="uni6258" unicode="&#x6258;" d="M104 169 L104 191 L189 191 Q209 191 234 197 L234 174 Q213 169 191 169 L169 169 L169 107 L243 107 L243 85 L169 85 L169 18 Q168 0 187 0 L201 0 Q218 0 217 15 L217 28 L243 28 L243 10 Q243 -19 212 -19 L172 -19 Q137 -20 138 13 L138 85 L101 85 L101 107 L138 107 L138 169 L104 169 ZM15 150 L15 170 L45 170 L45 206 L74 206 L74 170 L96 170 L96 150 L74 150 L74 101 L94 107 L94 87 Q85 82 74 79 L74 6 Q75 -22 45 -22 L22 -22 L22 0 L35 0 Q46 -1 45 8 L45 69 Q30 66 14 62 L14 89 Q30 91 45 94 L45 150 L15 150 Z" /><glyph glyph-name="uni6263" unicode="&#x6263;" d="M113 -11 L113 186 L233 186 L233 22 Q234 -12 200 -11 L113 -11 ZM14 150 L14 170 L44 170 L44 205 L75 205 L75 170 L103 170 L103 150 L75 150 L75 99 Q81 100 93 104 Q100 106 104 107 L104 86 Q88 80 75 76 L75 6 Q76 -23 45 -22 L20 -22 L20 -1 L33 -1 Q45 -2 44 8 L44 68 Q31 65 13 62 L13 89 Q31 90 44 93 L44 150 L14 150 ZM144 8 L189 8 Q203 7 202 22 L202 165 L144 165 L144 8 Z" /><glyph glyph-name="uni6295" unicode="&#x6295;" d="M243 -24 Q196 -12 166 5 Q136 -10 88 -25 L88 -5 Q124 6 146 22 Q122 46 107 79 L139 79 Q154 52 166 39 Q185 58 197 88 L100 88 L100 109 L231 109 L231 88 Q213 43 186 21 Q209 5 243 -4 L243 -24 ZM14 151 L14 171 L40 171 L40 205 L70 205 L70 171 L91 171 L91 151 L70 151 L70 100 Q79 103 91 106 L91 86 L70 78 L70 5 Q70 -24 39 -23 L18 -23 L18 -2 L30 -2 Q40 -2 40 7 L40 69 Q35 68 22 66 Q16 65 12 64 L12 89 Q27 90 40 93 L40 151 L14 151 ZM216 121 Q186 120 187 150 L187 176 L143 176 L143 162 Q145 122 93 117 L93 133 Q116 139 115 162 L115 197 L216 197 L216 152 Q215 139 227 140 L242 140 L242 121 L216 121 Z" /><glyph glyph-name="uni6301" unicode="&#x6301;" d="M14 150 L14 170 L38 170 L38 206 L68 206 L68 170 L89 170 L89 150 L68 150 L68 100 L88 107 L88 87 Q77 81 68 78 L68 7 Q68 -22 39 -22 L17 -22 L17 -1 L26 -1 Q38 -1 38 9 L38 68 Q34 67 24 65 Q17 64 13 63 L13 88 Q26 91 38 92 L38 150 L14 150 ZM103 164 L103 185 L152 185 L152 206 L183 206 L183 185 L234 185 L234 164 L183 164 L183 132 L245 132 L245 110 L92 110 L92 132 L152 132 L152 164 L103 164 ZM93 61 L93 82 L184 82 L184 100 L214 100 L214 82 L243 82 L243 61 L214 61 L214 9 Q214 -21 184 -22 L155 -22 L155 -1 L171 -1 Q185 -2 184 11 L184 61 L93 61 ZM116 7 Q112 27 103 49 L129 49 Q141 24 144 7 L116 7 Z" /><glyph glyph-name="uni6325" unicode="&#x6325;" d="M91 122 L91 143 L127 143 Q132 153 135 165 L168 165 Q164 153 159 143 L239 143 L239 122 L149 122 Q139 103 123 83 L154 83 L154 109 L186 109 L186 83 L233 83 L233 63 L186 63 L186 38 L244 38 L244 17 L186 17 L186 -25 L154 -25 L154 17 L82 17 L82 38 L154 38 L154 63 L96 63 L96 83 Q110 105 118 122 L91 122 ZM13 151 L13 171 L35 171 L35 205 L65 205 L65 171 L83 171 L83 151 L65 151 L65 100 Q74 103 85 106 L85 86 Q79 83 68 79 Q66 78 65 78 L65 5 Q66 -22 36 -22 L17 -22 L17 -2 L25 -2 Q35 -2 35 7 L35 68 Q31 67 23 65 Q16 64 12 63 L12 89 Q24 90 35 93 L35 151 L13 151 ZM91 156 L91 196 L239 196 L239 156 L210 156 L210 177 L120 177 L120 156 L91 156 Z" /><glyph glyph-name="uni636E" unicode="&#x636e;" d="M70 -25 L70 -2 Q91 26 90 77 L90 195 L237 195 L237 158 Q238 129 209 130 L191 130 L191 106 L244 106 L244 87 L191 87 L191 61 L234 61 L234 12 Q235 -19 202 -18 L121 -18 L121 61 L163 61 L163 87 L118 87 L118 84 Q121 9 70 -25 ZM14 150 L14 170 L36 170 L36 205 L63 205 L63 170 L82 170 L82 150 L63 150 L63 99 Q72 101 81 104 L81 84 Q72 80 63 77 L63 6 Q63 -23 35 -22 L17 -22 L17 -2 L25 -2 Q36 -3 36 8 L36 69 Q31 68 23 66 Q16 65 12 64 L12 89 L36 92 L36 150 L14 150 ZM148 0 L194 0 Q209 0 208 14 L208 41 L148 41 L148 0 ZM118 175 L118 149 L200 149 Q212 149 211 160 L211 175 L118 175 ZM118 130 L118 106 L163 106 L163 130 L118 130 Z" /><glyph glyph-name="uni63A8" unicode="&#x63a8;" d="M79 107 L79 128 Q109 156 117 204 L147 204 Q144 186 138 173 L166 173 L166 200 L197 200 L197 173 L242 173 L242 152 L197 152 L197 118 L239 118 L239 98 L197 98 L197 64 L239 64 L239 44 L197 44 L197 9 L244 9 L244 -10 L129 -10 L129 -25 L99 -25 L99 120 Q91 113 79 107 ZM14 149 L14 170 L37 170 L37 205 L66 205 L66 170 L87 170 L87 149 L66 149 L66 100 Q75 103 86 106 L86 87 Q75 81 66 78 L66 7 Q66 -22 37 -22 L17 -22 L17 -2 L26 -2 Q37 -3 37 8 L37 68 Q30 67 17 64 Q14 63 12 63 L12 90 Q25 92 37 93 L37 149 L14 149 ZM129 44 L129 9 L166 9 L166 44 L129 44 ZM129 98 L129 64 L166 64 L166 98 L129 98 ZM129 152 L129 118 L166 118 L166 152 L129 152 Z" /><glyph glyph-name="uni63A9" unicode="&#x63a9;" d="M85 167 L85 188 L135 188 Q136 189 137 193 Q139 196 142 206 L172 206 Q171 201 167 193 Q166 189 165 188 L237 188 L237 167 L195 167 Q208 145 243 128 L243 110 Q240 112 233 114 Q226 117 222 118 L222 49 Q223 18 193 19 L170 19 L170 11 Q169 -1 182 0 L208 0 Q221 -1 220 10 L220 18 L243 18 L243 7 Q244 -21 214 -20 L173 -20 Q142 -21 143 9 L143 19 L90 19 L90 117 Q82 114 73 111 L73 129 Q108 148 123 167 L85 167 ZM14 150 L14 170 L35 170 L35 206 L63 206 L63 170 L81 170 L81 150 L63 150 L63 100 L81 106 L81 86 Q78 85 73 83 Q67 79 63 78 L63 6 Q63 -23 35 -22 L16 -22 L16 -2 L24 -2 Q35 -3 35 8 L35 69 Q32 69 25 67 Q16 66 12 65 L12 90 Q24 92 35 93 L35 150 L14 150 ZM170 141 L170 119 L221 119 Q183 135 165 167 L154 167 Q137 138 94 119 L143 119 L143 141 L170 141 ZM116 38 L143 38 L143 61 L116 61 L116 38 ZM116 101 L116 79 L143 79 L143 101 L116 101 ZM197 101 L170 101 L170 79 L197 79 L197 101 ZM184 38 Q198 37 197 51 L197 61 L170 61 L170 38 L184 38 Z" /><glyph glyph-name="uni6545" unicode="&#x6545;" d="M117 116 L117 136 Q144 160 149 205 L179 205 Q176 190 173 178 L244 178 L244 157 L226 157 Q224 75 196 37 Q214 15 242 -2 L242 -25 Q201 -3 180 17 Q159 -3 118 -25 L118 -3 Q147 16 163 37 Q141 69 132 124 Q130 123 125 120 Q120 118 117 116 ZM12 151 L12 172 L53 172 L53 206 L84 206 L84 172 L124 172 L124 151 L84 151 L84 100 L118 100 L118 23 Q119 -9 85 -8 L18 -8 L18 100 L53 100 L53 151 L12 151 ZM46 10 L76 10 Q91 10 90 25 L90 80 L46 80 L46 10 ZM164 157 Q157 145 147 135 L158 135 Q166 86 179 62 Q197 97 198 157 L164 157 Z" /><glyph glyph-name="uni6548" unicode="&#x6548;" d="M134 103 Q89 112 79 155 L106 155 Q112 133 130 122 L130 137 Q152 159 156 204 L185 204 Q184 188 179 175 L244 175 L244 154 L229 154 Q227 78 200 38 Q216 16 243 -2 L243 -25 Q203 -2 185 18 Q164 -5 131 -25 L131 -3 Q151 12 170 38 Q149 70 142 122 Q141 121 139 120 Q135 118 134 117 L134 103 ZM126 -24 Q96 -11 72 8 Q51 -8 11 -24 L11 -4 Q39 9 57 25 Q36 50 23 101 L51 101 Q60 62 72 45 Q87 66 94 100 L123 100 Q110 51 88 24 Q103 8 126 -4 L126 -24 ZM15 165 L15 185 L57 185 L57 204 L90 204 L90 185 L131 185 L131 165 L15 165 ZM171 154 Q165 143 156 134 L167 134 Q173 93 185 66 Q199 98 202 154 L171 154 ZM11 103 L11 120 Q33 130 39 155 L67 155 Q56 112 11 103 Z" /><glyph glyph-name="uni65B0" unicode="&#x65b0;" d="M132 -25 L132 -6 Q100 8 98 53 L122 53 Q122 22 138 6 Q143 16 143 46 L143 193 L195 193 Q222 192 243 200 L243 178 Q225 171 201 172 L171 172 L171 136 L245 136 L245 115 L223 115 L223 -22 L194 -22 L194 115 L171 115 L171 52 Q174 -3 132 -25 ZM12 107 L12 128 L35 128 Q29 142 27 158 L54 158 Q55 142 61 128 L87 128 Q93 142 94 158 L121 158 Q119 142 113 128 L135 128 L135 107 L90 107 L90 84 L131 84 L131 64 L90 64 L90 10 Q91 -22 59 -21 L40 -21 L40 -1 L49 -1 Q62 -2 61 11 L61 64 L17 64 L17 84 L61 84 L61 107 L12 107 ZM18 166 L18 187 L58 187 L58 204 L90 204 L90 187 L130 187 L130 166 L18 166 ZM9 -10 L9 6 Q27 22 29 53 L52 53 Q52 6 9 -10 Z" /><glyph glyph-name="uni65E0" unicode="&#x65e0;" d="M31 170 L31 192 L226 192 L226 170 L142 170 L142 164 Q142 140 140 121 L242 121 L242 99 L136 99 Q135 90 132 83 L156 83 L156 18 Q155 1 172 2 L198 2 Q214 1 213 18 L213 28 L238 28 L238 13 Q239 -18 204 -17 L160 -17 Q124 -18 125 15 L125 65 Q103 14 19 -25 L19 -3 Q93 40 103 99 L15 99 L15 121 L106 121 Q108 139 108 159 L108 170 L31 170 Z" /><glyph glyph-name="uni65E7" unicode="&#x65e7;" d="M91 -16 L91 194 L233 194 L233 19 Q235 -18 198 -16 L91 -16 ZM26 -22 L26 196 L58 196 L58 -22 L26 -22 ZM123 4 L186 4 Q202 3 201 20 L201 82 L123 82 L123 4 ZM123 172 L123 104 L201 104 L201 172 L123 172 Z" /><glyph glyph-name="uni662F" unicode="&#x662f;" d="M41 106 L41 197 L215 197 L215 138 Q216 105 183 106 L41 106 ZM13 70 L13 91 L243 91 L243 70 L148 70 L148 49 L226 49 L226 29 L148 29 L148 1 L241 1 L241 -17 L142 -17 Q86 -18 65 8 Q51 -11 14 -26 L14 -6 Q48 14 49 60 L80 60 Q79 45 76 33 Q90 9 116 4 L116 70 L13 70 ZM72 125 L171 125 Q184 124 184 140 L184 143 L72 143 L72 125 ZM72 177 L72 160 L184 160 L184 177 L72 177 Z" /><glyph glyph-name="uni671F" unicode="&#x671f;" d="M134 -25 L134 -2 Q147 14 146 62 L146 198 L236 198 L236 9 Q237 -21 205 -20 L186 -20 L186 0 L196 0 Q208 -1 207 10 L207 56 L174 56 Q176 -1 134 -25 ZM14 166 L14 187 L28 187 L28 204 L57 204 L57 187 L94 187 L94 204 L122 204 L122 187 L136 187 L136 166 L122 166 L122 55 L137 55 L137 34 L11 34 L11 55 L28 55 L28 166 L14 166 ZM13 -25 L13 -7 Q35 2 40 25 L67 25 Q58 -15 13 -25 ZM174 117 L174 76 L207 76 L207 117 L174 117 ZM174 178 L174 137 L207 137 L207 178 L174 178 ZM129 -25 Q90 -12 81 25 L109 25 Q112 4 129 -6 L129 -25 ZM57 79 L57 55 L94 55 L94 79 L57 79 ZM57 166 L57 143 L94 143 L94 166 L57 166 ZM57 123 L57 99 L94 99 L94 123 L57 123 Z" /><glyph glyph-name="uni672C" unicode="&#x672c;" d="M242 8 Q165 58 159 148 L144 148 L144 40 L190 40 L190 18 L144 18 L144 -25 L111 -25 L111 18 L65 18 L65 40 L111 40 L111 148 L97 148 Q91 58 14 8 L14 31 Q60 77 66 148 L20 148 L20 170 L111 170 L111 206 L144 206 L144 170 L236 170 L236 148 L190 148 Q195 79 242 31 L242 8 Z" /><glyph glyph-name="uni672F" unicode="&#x672f;" d="M242 -2 Q165 47 159 145 L144 145 L144 -25 L111 -25 L111 145 L96 145 Q91 47 14 -2 L14 21 Q59 66 66 145 L18 145 L18 167 L111 167 L111 206 L144 206 L144 167 L179 167 L179 197 L209 197 L209 167 L239 167 L239 145 L190 145 Q197 64 242 21 L242 -2 Z" /><glyph glyph-name="uni673A" unicode="&#x673a;" d="M87 -25 L87 -1 Q113 22 111 91 L111 194 L206 194 L206 12 Q205 1 215 2 Q224 2 224 12 L224 20 L245 20 L245 8 Q246 -18 219 -17 L204 -17 Q174 -18 175 12 L175 173 L141 173 L141 93 Q145 7 87 -25 ZM15 151 L15 172 L42 172 L42 206 L71 206 L71 172 L97 172 L97 151 L72 151 Q82 114 99 87 L99 59 Q86 73 71 96 L71 -24 L42 -24 L42 80 Q31 54 10 24 L10 55 Q32 100 41 151 L15 151 Z" /><glyph glyph-name="uni676F" unicode="&#x676f;" d="M101 169 L101 190 L241 190 L241 169 L187 169 Q181 147 173 129 L181 129 L181 -25 L149 -25 L149 86 Q128 58 90 29 L90 53 L95 58 Q78 79 70 94 L70 -25 L41 -25 L41 81 Q31 56 8 25 L8 56 Q28 97 39 151 L13 151 L13 172 L41 172 L41 206 L70 206 L70 172 L97 172 L97 151 L71 151 Q78 119 95 88 L95 59 Q140 109 153 169 L101 169 ZM244 35 Q218 65 188 84 L188 112 Q221 96 244 72 L244 35 Z" /><glyph glyph-name="uni679C" unicode="&#x679c;" d="M35 91 L35 195 L221 195 L221 126 Q223 90 187 91 L144 91 L144 73 L243 73 L243 52 L194 52 Q203 16 241 -1 L241 -19 Q176 0 162 52 L144 52 L144 -24 L112 -24 L112 52 L94 52 Q80 0 15 -19 L15 -1 Q53 16 62 52 L13 52 L13 73 L112 73 L112 91 L35 91 ZM65 111 L112 111 L112 134 L65 134 L65 111 ZM177 111 Q192 110 191 127 L191 134 L144 134 L144 111 L177 111 ZM191 175 L144 175 L144 154 L191 154 L191 175 ZM65 175 L65 154 L112 154 L112 175 L65 175 Z" /><glyph glyph-name="uni67AA" unicode="&#x67aa;" d="M141 -18 Q104 -19 105 17 L105 123 Q96 119 86 114 L86 133 Q131 161 148 207 L183 207 Q201 161 246 133 L246 114 Q240 117 229 121 Q224 124 221 125 L221 70 Q223 35 187 37 L163 37 L163 58 L179 58 Q191 58 191 71 L191 104 L136 104 L136 18 Q136 1 153 1 L198 1 Q213 1 212 17 L212 29 L238 29 L238 13 Q239 -19 205 -18 L141 -18 ZM14 151 L14 171 L40 171 L40 206 L69 206 L69 171 L92 171 L92 151 L69 151 Q76 117 93 84 L93 53 Q75 80 69 93 L69 -25 L40 -25 L40 81 Q32 57 9 24 L9 55 Q29 97 39 151 L14 151 ZM166 173 Q147 144 111 125 L220 125 Q185 143 166 173 Z" /><glyph glyph-name="uni67D3" unicode="&#x67d3;" d="M13 52 L13 73 L111 73 L111 94 L145 94 L145 73 L243 73 L243 52 L192 52 Q203 16 243 0 L243 -19 Q174 -1 160 52 L145 52 L145 -25 L111 -25 L111 52 L95 52 Q81 -1 13 -19 L13 0 Q54 17 63 52 L13 52 ZM75 85 L75 104 Q115 126 118 163 L81 163 L81 184 L119 184 L119 206 L150 206 L150 184 L203 184 L203 121 Q202 111 212 112 Q223 111 222 122 L222 136 L243 136 L243 119 Q244 90 214 91 L202 91 Q172 90 173 121 L173 163 L149 163 Q146 108 75 85 ZM16 85 Q36 105 43 131 L70 131 Q65 105 50 85 L16 85 ZM41 139 Q35 156 25 168 L54 168 Q65 154 70 139 L41 139 ZM35 176 Q29 191 19 205 L48 205 Q59 191 64 176 L35 176 Z" /><glyph glyph-name="uni6839" unicode="&#x6839;" d="M102 -23 L102 196 L229 196 L229 114 Q230 79 197 80 L132 80 L132 13 Q147 18 162 26 L162 3 Q135 -13 102 -23 ZM15 149 L15 170 L39 170 L39 206 L68 206 L68 170 L92 170 L92 149 L70 149 Q77 113 92 83 L92 54 Q77 73 68 92 L68 -24 L39 -24 L39 76 Q26 46 11 25 L11 58 Q30 101 38 149 L15 149 ZM243 -22 Q163 0 143 72 L173 72 Q180 52 189 38 Q205 49 213 72 L241 72 Q229 38 201 23 Q219 6 243 -2 L243 -22 ZM188 101 Q201 101 201 115 L201 129 L132 129 L132 101 L188 101 ZM132 175 L132 148 L201 148 L201 175 L132 175 Z" /><glyph glyph-name="uni683C" unicode="&#x683c;" d="M95 74 L95 93 Q126 101 147 113 Q132 127 119 143 Q108 137 96 131 L96 150 Q124 173 130 205 L162 205 Q161 202 159 197 Q157 191 156 188 L234 188 L234 168 Q217 131 193 113 Q214 102 243 93 L243 74 Q198 84 170 99 Q142 84 95 74 ZM105 -20 L105 71 L230 71 L230 13 Q231 -21 198 -20 L105 -20 ZM14 151 L14 171 L40 171 L40 206 L68 206 L68 171 L93 171 L93 151 L68 151 Q78 115 91 85 L91 55 Q77 74 68 92 L68 -25 L40 -25 L40 83 Q29 55 10 26 L10 59 Q30 100 38 151 L14 151 ZM135 0 L186 0 Q201 0 200 15 L200 50 L135 50 L135 0 ZM145 167 Q144 166 143 165 Q142 164 138 160 Q152 141 169 128 Q187 142 200 167 L145 167 Z" /><glyph glyph-name="uni6A21" unicode="&#x6a21;" d="M94 63 L94 148 L230 148 L230 94 Q231 62 200 63 L176 63 L176 47 L242 47 L242 27 L181 27 Q192 4 244 -7 L244 -25 Q186 -17 161 9 Q136 -18 79 -25 L79 -7 Q130 4 140 27 L81 27 L81 47 L145 47 L145 63 L94 63 ZM15 148 L15 169 L37 169 L37 205 L65 205 L65 169 L84 169 L84 148 L67 148 Q71 120 86 86 L86 57 Q71 79 65 93 L65 -24 L37 -24 L37 79 Q27 52 10 27 L10 59 Q28 101 36 148 L15 148 ZM179 154 L179 170 L145 170 L145 154 L117 154 L117 170 L85 170 L85 190 L117 190 L117 206 L145 206 L145 190 L179 190 L179 206 L207 206 L207 190 L242 190 L242 170 L207 170 L207 154 L179 154 ZM122 81 L189 81 Q203 80 202 95 L202 98 L122 98 L122 81 ZM122 130 L122 114 L202 114 L202 130 L122 130 Z" /><glyph glyph-name="uni6C14" unicode="&#x6c14;" d="M15 118 L15 138 Q51 159 58 205 L90 205 Q89 196 86 188 L234 188 L234 167 L78 167 Q71 154 61 144 L217 144 L217 124 L59 124 L59 143 Q43 128 15 118 ZM215 -25 Q169 -29 170 78 L27 78 L27 100 L204 100 Q201 -11 217 -3 Q227 -4 225 14 L246 14 Q247 -27 215 -25 Z" /><glyph glyph-name="uni6C1B" unicode="&#x6c1b;" d="M97 -21 L97 -2 L112 -2 Q126 -3 125 9 L125 34 L91 34 Q83 -14 15 -25 L15 -9 Q57 2 62 34 L38 34 L38 44 Q27 39 12 36 L12 53 Q48 67 60 98 L89 98 Q78 68 56 54 L135 54 Q112 68 103 98 L131 98 Q143 68 180 54 L180 36 Q165 39 154 44 L154 10 Q155 -22 123 -21 L97 -21 ZM11 130 L11 149 Q45 168 53 207 L85 207 Q84 204 83 199 Q81 196 81 194 L236 194 L236 174 L72 174 Q68 165 61 159 L219 159 L219 140 L60 140 L60 157 Q44 141 11 130 ZM223 -24 Q179 -27 179 103 L20 103 L20 124 L212 124 Q209 50 214 20 Q216 -3 225 -2 Q234 -4 233 15 L249 15 Q251 -27 223 -24 Z" /><glyph glyph-name="uni6C34" unicode="&#x6c34;" d="M13 -4 L13 16 Q63 65 70 137 L17 137 L17 159 L99 159 L99 137 Q92 47 13 -4 ZM80 -21 L80 0 L98 0 Q113 0 113 14 L113 205 L145 205 L145 11 Q145 -21 112 -21 L80 -21 ZM243 -4 Q160 47 159 137 L159 159 L191 159 Q214 159 237 167 L237 144 Q220 137 194 137 L188 137 Q189 64 243 17 L243 -4 Z" /><glyph glyph-name="uni6CD5" unicode="&#x6cd5;" d="M85 157 L85 178 L143 178 L143 206 L174 206 L174 178 L233 178 L233 157 L174 157 L174 101 L244 101 L244 80 L157 80 Q141 40 114 10 Q151 10 201 14 Q200 16 199 19 Q196 34 187 55 L213 55 Q231 17 239 -20 L210 -20 Q209 -13 207 -5 Q156 -12 85 -12 L85 10 Q111 45 121 80 L75 80 L75 101 L143 101 L143 157 L85 157 ZM15 -20 Q35 23 41 81 L68 81 Q64 21 46 -20 L15 -20 ZM38 92 Q34 115 22 141 L49 141 Q61 120 68 92 L38 92 ZM36 152 Q32 177 19 201 L47 201 Q60 179 65 152 L36 152 Z" /><glyph glyph-name="uni6CE8" unicode="&#x6ce8;" d="M80 155 L80 176 L142 176 L142 205 L175 205 L175 176 L238 176 L238 155 L175 155 L175 96 L232 96 L232 75 L175 75 L175 5 L244 5 L244 -14 L70 -14 L70 5 L142 5 L142 75 L86 75 L86 96 L142 96 L142 155 L80 155 ZM14 -20 Q37 27 42 80 L70 80 Q65 26 47 -20 L14 -20 ZM40 92 Q34 116 23 141 L51 141 Q65 112 69 92 L40 92 ZM37 152 Q32 176 20 201 L48 201 Q60 178 67 152 L37 152 Z" /><glyph glyph-name="uni6D3B" unicode="&#x6d3b;" d="M85 172 L85 193 L189 193 Q210 193 235 199 L235 177 Q214 172 191 172 L175 172 L175 137 L244 137 L244 116 L175 116 L175 79 L232 79 L232 18 Q233 -19 195 -18 L88 -18 L88 79 L143 79 L143 116 L77 116 L77 137 L143 137 L143 172 L85 172 ZM118 1 L184 1 Q202 1 201 18 L201 58 L118 58 L118 1 ZM12 -20 Q36 28 41 79 L69 79 Q64 24 45 -20 L12 -20 ZM38 91 Q31 115 18 141 L47 141 Q61 118 69 91 L38 91 ZM36 151 Q29 177 16 201 L46 201 Q59 179 66 151 L36 151 Z" /><glyph glyph-name="uni6D77" unicode="&#x6d77;" d="M68 69 L68 89 L83 89 L83 150 L227 150 L227 89 L246 89 L246 69 L227 69 L227 30 L241 30 L241 10 L227 10 L227 8 Q227 -23 194 -23 L162 -23 L162 -4 L184 -4 Q199 -4 198 8 L198 10 L116 10 Q82 9 83 40 L83 69 L68 69 ZM68 148 L68 164 Q98 177 106 206 L138 206 Q137 204 136 200 Q134 196 130 188 L240 188 L240 169 L115 169 Q99 154 68 148 ZM12 -20 Q32 26 37 81 L63 81 Q60 22 42 -20 L12 -20 ZM164 122 Q172 104 174 89 L198 89 L198 130 L112 130 L112 89 L146 89 Q145 101 138 122 L164 122 ZM112 46 Q111 29 128 30 L148 30 Q146 43 139 63 L165 63 Q173 43 175 30 L198 30 L198 69 L112 69 L112 46 ZM33 152 Q25 183 16 201 L43 201 Q54 182 60 152 L33 152 ZM35 92 Q30 114 19 141 L45 141 Q58 119 63 92 L35 92 Z" /><glyph glyph-name="uni6DF7" unicode="&#x6df7;" d="M79 100 L79 196 L228 196 L228 135 Q229 99 195 100 L79 100 ZM186 -21 Q153 -22 154 8 L154 91 L184 91 L184 60 Q205 65 215 84 L241 84 Q230 46 184 42 L184 11 Q183 -1 197 0 L207 0 Q220 -1 219 11 L219 19 L241 19 L241 6 Q242 -22 212 -21 L186 -21 ZM78 -22 L78 91 L108 91 L108 68 L146 68 L146 48 L108 48 L108 8 Q129 12 146 19 L146 0 Q119 -14 78 -22 ZM11 -20 Q33 26 39 80 L66 80 Q60 19 42 -20 L11 -20 ZM109 119 L184 119 Q199 118 198 134 L198 140 L109 140 L109 119 ZM109 177 L109 157 L198 157 L198 177 L109 177 ZM36 92 Q31 116 19 141 L47 141 Q60 119 65 92 L36 92 ZM34 152 Q26 183 16 201 L45 201 Q57 178 63 152 L34 152 Z" /><glyph glyph-name="uni6E32" unicode="&#x6e32;" d="M86 21 L86 115 L226 115 L226 55 Q228 19 193 21 L86 21 ZM75 154 L75 190 L138 190 L138 205 L174 205 L174 190 L238 190 L238 154 L207 154 L207 171 L105 171 L105 154 L75 154 ZM65 -16 L65 2 L245 2 L245 -16 L65 -16 ZM12 -20 Q34 28 39 80 L66 80 Q61 26 43 -20 L12 -20 ZM91 131 L91 150 L222 150 L222 131 L91 131 ZM115 97 L115 77 L196 77 L196 97 L115 97 ZM115 40 L183 40 Q197 39 196 53 L196 60 L115 60 L115 40 ZM37 92 Q32 116 20 141 L48 141 Q59 120 66 92 L37 92 ZM35 152 Q27 183 18 201 L45 201 Q58 177 63 152 L35 152 Z" /><glyph glyph-name="uni6F14" unicode="&#x6f14;" d="M70 148 L70 190 L138 190 L138 206 L172 206 L172 190 L240 190 L240 148 L217 148 L217 134 L169 134 L169 116 L230 116 L230 55 Q231 22 200 23 L79 23 L79 116 L141 116 L141 134 L93 134 L93 148 L70 148 ZM13 -21 Q33 29 37 81 L62 81 Q57 22 43 -21 L13 -21 ZM98 171 L98 153 L212 153 L212 171 L98 171 ZM65 -25 L65 -7 Q100 -1 111 14 L144 14 Q124 -21 65 -25 ZM244 -25 Q184 -20 166 14 L197 14 Q211 -2 244 -7 L244 -25 ZM32 153 Q25 182 16 201 L42 201 Q56 172 59 153 L32 153 ZM34 93 Q30 118 19 142 L45 142 Q56 119 62 93 L34 93 ZM105 41 L141 41 L141 61 L105 61 L105 41 ZM192 41 Q205 40 204 55 L204 61 L169 61 L169 41 L192 41 ZM105 98 L105 78 L141 78 L141 98 L105 98 ZM204 98 L169 98 L169 78 L204 78 L204 98 Z" /><glyph glyph-name="uni6FC0" unicode="&#x6fc0;" d="M156 123 L156 142 Q176 164 180 204 L206 204 Q204 189 201 177 L245 177 L245 157 L236 157 Q235 77 212 36 Q224 16 243 -1 L243 -24 Q210 0 199 15 Q182 -5 157 -25 L157 -2 Q175 16 186 37 Q168 72 165 128 Q164 127 161 126 Q158 124 156 123 ZM72 99 L72 190 L95 190 Q96 193 97 201 Q98 204 98 206 L127 206 Q126 197 123 190 L152 190 L152 128 Q153 98 122 99 L72 99 ZM65 64 L65 83 L98 83 L98 95 L128 95 L128 83 L161 83 L161 64 L104 64 L104 50 L152 50 L152 9 Q153 -20 122 -19 L106 -19 L106 -1 L114 -1 Q127 -2 126 10 L126 31 L103 31 Q99 -7 58 -24 L58 -5 Q79 12 78 46 L78 64 L65 64 ZM13 -20 Q30 24 35 79 L59 79 Q56 24 42 -20 L13 -20 ZM193 157 Q187 148 180 140 L189 140 Q191 95 199 67 Q210 94 211 157 L193 157 ZM30 152 Q26 178 16 201 L41 201 Q51 180 57 152 L30 152 ZM33 93 Q29 117 19 141 L44 141 Q55 116 59 93 L33 93 ZM97 117 L114 117 Q128 116 127 131 L127 136 L97 136 L97 117 ZM97 172 L97 154 L127 154 L127 172 L97 172 Z" /><glyph glyph-name="uni706B" unicode="&#x706b;" d="M47 95 Q33 126 28 164 L59 164 Q61 129 74 95 L47 95 ZM182 95 Q195 129 197 164 L227 164 Q224 127 209 95 L182 95 ZM13 -24 L13 -3 Q115 46 111 138 L111 206 L147 206 L147 138 Q145 44 243 -3 L243 -24 Q159 7 129 64 Q100 7 13 -24 Z" /><glyph glyph-name="uni706F" unicode="&#x706f;" d="M13 -23 L13 0 Q37 32 44 60 Q52 88 52 144 L52 204 L83 204 L83 157 Q98 158 116 166 L116 140 Q97 135 83 134 Q81 51 120 1 L120 -23 Q81 8 68 46 Q55 7 13 -23 ZM121 169 L121 190 L244 190 L244 169 L207 169 L207 12 Q207 -22 174 -21 L142 -21 L142 0 L160 0 Q174 0 173 12 L173 169 L121 169 ZM22 98 Q15 127 14 169 L35 169 Q36 137 46 98 L22 98 Z" /><glyph glyph-name="uni70D8" unicode="&#x70d8;" d="M102 151 L102 172 L121 172 L121 204 L151 204 L151 172 L184 172 L184 204 L214 204 L214 172 L238 172 L238 151 L214 151 L214 80 L244 80 L244 59 L94 59 L94 80 L121 80 L121 151 L102 151 ZM13 -23 L13 0 Q32 29 38 59 Q45 88 45 142 L45 205 L73 205 L73 156 Q85 158 95 162 L95 138 Q85 135 74 134 Q73 65 97 31 L97 5 Q72 25 62 52 Q51 7 13 -23 ZM151 151 L151 80 L184 80 L184 151 L151 151 ZM93 -25 L93 -5 Q122 12 127 46 L157 46 Q150 -5 93 -25 ZM242 -25 Q189 -5 179 46 L209 46 Q215 11 242 -5 L242 -25 ZM19 99 Q13 131 12 167 L31 167 Q32 130 41 99 L19 99 Z" /><glyph glyph-name="uni7269" unicode="&#x7269;" d="M97 -24 L97 3 Q132 62 133 150 Q123 133 98 120 L98 140 Q119 159 124 205 L152 205 Q151 202 150 197 Q148 186 146 180 L237 180 L237 15 Q239 -20 206 -18 L185 -18 L185 0 L196 0 Q211 0 210 16 L210 160 L199 160 Q203 35 143 -24 L143 3 Q176 64 175 160 L158 160 Q158 41 97 -24 ZM12 100 L12 122 Q23 142 22 191 L43 191 Q43 178 42 167 L53 167 L53 206 L81 206 L81 167 L99 167 L99 147 L81 147 L81 81 L103 87 L103 67 Q101 66 96 65 Q91 62 81 59 L81 -24 L53 -24 L53 52 Q37 49 15 47 L15 72 Q36 73 53 76 L53 147 L40 147 Q36 119 12 100 Z" /><glyph glyph-name="uni738B" unicode="&#x738b;" d="M27 164 L27 186 L229 186 L229 164 L145 164 L145 103 L219 103 L219 81 L145 81 L145 10 L240 10 L240 -10 L16 -10 L16 10 L110 10 L110 81 L37 81 L37 103 L110 103 L110 164 L27 164 Z" /><glyph glyph-name="uni73B0" unicode="&#x73b0;" d="M100 53 L100 197 L231 197 L231 53 L202 53 L202 177 L128 177 L128 53 L100 53 ZM14 171 L14 191 L92 191 L92 171 L69 171 L69 112 L90 112 L90 92 L69 92 L69 28 Q71 28 75 29 Q81 31 96 35 L96 15 Q63 1 12 -4 L12 19 Q26 21 39 22 L39 92 L15 92 L15 112 L39 112 L39 171 L14 171 ZM90 -24 L90 -4 Q155 32 150 103 L150 157 L179 157 L179 102 Q180 86 177 73 L189 73 L189 13 Q188 0 205 0 Q221 0 220 13 L220 20 L241 20 L241 9 Q241 -20 209 -20 L192 -20 Q160 -21 161 12 L161 28 Q144 2 90 -24 Z" /><glyph glyph-name="uni7406" unicode="&#x7406;" d="M98 77 L98 196 L234 196 L234 109 Q235 77 202 77 L181 77 L181 53 L236 53 L236 32 L181 32 L181 3 L246 3 L246 -16 L84 -16 L84 3 L151 3 L151 32 L96 32 L96 53 L151 53 L151 77 L98 77 ZM14 172 L14 192 L89 192 L89 172 L67 172 L67 115 L87 115 L87 94 L67 94 L67 28 Q77 30 90 34 L90 14 Q61 0 12 -6 L12 18 L37 22 L37 94 L15 94 L15 115 L37 115 L37 172 L14 172 ZM125 98 L151 98 L151 127 L125 127 L125 98 ZM193 98 Q208 98 207 112 L207 127 L181 127 L181 98 L193 98 ZM207 175 L181 175 L181 148 L207 148 L207 175 ZM125 175 L125 148 L151 148 L151 175 L125 175 Z" /><glyph glyph-name="uni7528" unicode="&#x7528;" d="M14 -26 L14 -4 Q34 14 33 55 L33 195 L233 195 L233 10 Q233 -22 199 -22 L176 -22 L176 0 L187 0 Q201 -1 200 13 L200 54 L149 54 L149 -19 L117 -19 L117 54 L65 54 Q66 -2 14 -26 ZM65 114 L65 75 L117 75 L117 114 L65 114 ZM149 114 L149 75 L200 75 L200 114 L149 114 ZM200 173 L149 173 L149 135 L200 135 L200 173 ZM65 173 L65 135 L117 135 L117 173 L65 173 Z" /><glyph glyph-name="uni753B" unicode="&#x753b;" d="M68 27 L68 154 L188 154 L188 61 Q189 26 157 27 L68 27 ZM23 -13 L23 149 L51 149 L51 6 L188 6 Q207 5 206 25 L206 148 L233 148 L233 20 Q234 -14 197 -13 L23 -13 ZM14 173 L14 194 L242 194 L242 173 L14 173 ZM94 46 L116 46 L116 81 L94 81 L94 46 ZM94 134 L94 101 L116 101 L116 134 L94 134 ZM149 46 Q162 46 162 61 L162 81 L140 81 L140 46 L149 46 ZM162 134 L140 134 L140 101 L162 101 L162 134 Z" /><glyph glyph-name="uni767D" unicode="&#x767d;" d="M29 -16 L29 176 L90 176 Q95 190 96 205 L134 205 Q131 187 126 176 L227 176 L227 22 Q228 -17 189 -16 L29 -16 ZM63 4 L177 4 Q193 4 193 21 L193 72 L63 72 L63 4 ZM63 154 L63 94 L193 94 L193 154 L63 154 Z" /><glyph glyph-name="uni767E" unicode="&#x767e;" d="M14 171 L14 193 L242 193 L242 171 L143 171 Q142 156 137 144 L222 144 L222 18 Q223 -17 185 -16 L35 -16 L35 144 L102 144 Q104 150 107 163 Q107 168 108 171 L14 171 ZM65 4 L177 4 Q192 3 192 20 L192 53 L65 53 L65 4 ZM65 122 L65 75 L192 75 L192 122 L65 122 Z" /><glyph glyph-name="uni7684" unicode="&#x7684;" d="M20 -14 L20 175 L49 175 Q53 188 56 204 L86 204 Q83 188 79 175 L118 175 L118 18 Q119 -15 87 -14 L20 -14 ZM171 -20 L171 0 L192 0 Q208 0 207 15 L207 158 L166 158 Q154 138 124 124 L124 143 Q147 162 150 205 L180 205 Q179 201 178 195 Q178 190 175 180 L237 180 L237 14 Q239 -22 204 -20 L171 -20 ZM49 5 L77 5 Q90 4 89 19 L89 74 L49 74 L49 5 ZM49 154 L49 94 L89 94 L89 154 L49 154 ZM154 50 Q150 84 137 119 L162 119 Q176 89 183 50 L154 50 Z" /><glyph glyph-name="uni793E" unicode="&#x793e;" d="M107 116 L107 137 L154 137 L154 205 L187 205 L187 137 L236 137 L236 116 L187 116 L187 5 L244 5 L244 -15 L96 -15 L96 5 L154 5 L154 116 L107 116 ZM46 -24 L46 60 Q31 48 10 37 L10 57 Q54 93 66 139 L16 139 L16 159 L97 159 L97 140 Q88 109 79 96 Q90 81 113 63 L113 44 Q93 53 78 64 L78 -24 L46 -24 ZM54 166 Q51 184 41 205 L69 205 Q80 184 84 166 L54 166 Z" /><glyph glyph-name="uni79D1" unicode="&#x79d1;" d="M16 174 L16 195 L65 195 Q88 195 107 201 L107 179 Q95 176 76 174 L76 142 L106 142 L106 121 L77 121 Q86 89 105 65 L105 36 Q86 56 76 73 L76 -24 L47 -24 L47 65 Q35 41 10 13 L10 42 Q34 78 46 121 L13 121 L13 142 L47 142 L47 174 L16 174 ZM110 36 L110 57 L185 57 L185 205 L216 205 L216 57 L245 57 L245 36 L216 36 L216 -24 L185 -24 L185 36 L110 36 ZM170 81 Q141 98 112 104 L112 126 Q145 123 170 110 L170 81 ZM175 143 Q150 157 119 163 L119 185 Q151 183 175 171 L175 143 Z" /><glyph glyph-name="uni7A3F" unicode="&#x7a3f;" d="M16 174 L16 194 L55 194 Q71 194 90 200 L90 178 Q78 175 68 174 L68 143 L92 143 L92 123 L68 123 Q77 89 91 68 L91 39 Q77 56 68 74 L68 -25 L40 -25 L40 63 Q31 42 12 17 L12 47 Q31 85 39 123 L15 123 L15 143 L40 143 L40 174 L16 174 ZM96 -24 L96 90 L237 90 L237 5 Q239 -26 208 -24 L192 -24 L192 -4 L199 -4 Q212 -5 211 6 L211 70 L122 70 L122 -24 L96 -24 ZM108 104 L108 156 L225 156 L225 129 Q227 102 198 104 L108 104 ZM95 170 L95 190 L149 190 L149 206 L182 206 L182 190 L242 190 L242 170 L95 170 ZM135 2 L135 56 L198 56 L198 25 Q199 1 175 2 L135 2 ZM135 120 L188 120 Q198 120 198 130 L198 140 L135 140 L135 120 ZM154 18 L169 18 Q179 17 178 28 L178 39 L154 39 L154 18 Z" /><glyph glyph-name="uni7B2C" unicode="&#x7b2c;" d="M172 -7 L172 10 L189 10 Q205 10 205 26 L205 40 L145 40 L145 -25 L111 -25 L111 40 L101 40 Q85 -6 15 -21 L15 -2 Q57 12 69 40 L58 40 Q28 39 29 71 L29 102 L111 102 L111 124 L33 124 L33 145 L227 145 L227 115 Q229 80 194 82 L145 82 L145 60 L236 60 L236 25 Q238 -9 201 -7 L172 -7 ZM191 152 Q190 163 185 175 L169 175 Q154 156 124 150 L124 165 Q147 177 153 206 L182 206 Q179 199 178 193 L243 193 L243 175 L210 175 Q214 164 217 152 L191 152 ZM80 152 Q79 163 74 175 L61 175 Q47 155 13 148 L13 164 Q40 177 45 205 L74 205 Q73 199 70 193 L130 193 L130 175 L100 175 Q105 165 106 152 L80 152 ZM60 73 Q59 59 73 60 L111 60 L111 82 L60 82 L60 73 ZM196 124 L145 124 L145 102 L183 102 Q196 102 196 115 L196 124 Z" /><glyph glyph-name="uni7B49" unicode="&#x7b49;" d="M30 114 L30 133 L111 133 L111 145 L145 145 L145 133 L225 133 L225 114 L145 114 L145 93 L243 93 L243 73 L195 73 L195 54 L236 54 L236 34 L195 34 L195 6 Q195 -23 163 -22 L131 -22 L131 -3 L149 -3 Q163 -3 163 9 L163 34 L22 34 L22 54 L163 54 L163 73 L13 73 L13 93 L111 93 L111 114 L30 114 ZM13 143 L13 160 Q40 174 45 205 L74 205 Q73 198 71 192 L130 192 L130 173 L99 173 Q103 162 106 147 L79 147 Q78 160 73 173 L62 173 Q47 150 13 143 ZM190 147 Q189 160 184 173 L169 173 Q157 155 125 148 L125 163 Q148 175 154 206 L183 206 Q182 203 181 197 Q179 194 179 192 L242 192 L242 173 L209 173 Q213 161 216 147 L190 147 ZM69 -12 Q66 6 55 25 L83 25 Q95 8 100 -12 L69 -12 Z" /><glyph glyph-name="uni7D20" unicode="&#x7d20;" d="M22 174 L22 193 L111 193 L111 207 L144 207 L144 193 L234 193 L234 174 L144 174 L144 160 L223 160 L223 142 L144 142 L144 127 L243 127 L243 109 L130 109 Q107 95 87 90 Q126 90 146 92 Q158 96 169 102 L216 102 Q159 69 96 53 Q145 53 193 56 Q189 65 183 74 L209 74 Q226 49 232 26 L204 26 Q203 32 201 38 Q188 37 165 36 Q153 35 147 35 L147 7 Q147 -23 115 -23 L91 -23 L91 -3 L102 -3 Q114 -3 114 8 L114 34 Q80 34 30 34 L30 53 Q63 61 99 73 Q72 72 38 72 L38 90 Q62 96 85 109 L13 109 L13 127 L111 127 L111 142 L33 142 L33 160 L111 160 L111 174 L22 174 ZM15 -17 L15 0 Q44 4 60 26 L93 26 Q71 -11 15 -17 ZM241 -17 Q184 -10 163 26 L196 26 Q210 4 241 0 L241 -17 Z" /><glyph glyph-name="uni7EB9" unicode="&#x7eb9;" d="M96 158 L96 178 L153 178 L153 205 L188 205 L188 178 L244 178 L244 158 L229 158 Q221 82 187 41 Q208 19 243 -2 L243 -24 Q191 1 169 23 Q148 2 94 -24 L94 -3 Q130 19 152 41 Q119 82 111 158 L96 158 ZM18 43 L18 66 Q42 93 52 110 Q41 109 13 109 L13 131 Q36 163 48 204 L78 204 Q64 162 38 130 Q48 130 62 132 Q61 132 64 132 Q69 143 73 156 L102 156 Q85 101 47 67 Q74 67 95 71 L95 50 Q60 43 18 43 ZM141 158 Q146 99 170 63 Q193 96 199 158 L141 158 ZM12 -3 L12 20 Q59 19 98 28 L98 6 Q58 -3 12 -3 Z" /><glyph glyph-name="uni7EC4" unicode="&#x7ec4;" d="M13 -4 L13 18 Q54 16 97 25 L97 4 Q94 4 93 3 L108 3 L108 195 L227 195 L227 3 L245 3 L245 -16 L89 -16 L89 2 Q53 -4 13 -4 ZM16 43 L16 66 Q38 90 51 111 Q39 110 12 110 L12 132 Q37 164 47 206 L78 206 Q65 163 38 131 Q55 131 62 132 Q68 144 72 157 L100 157 Q84 103 44 66 Q67 66 93 71 L93 50 Q61 43 16 43 ZM138 47 L138 3 L197 3 L197 47 L138 47 ZM138 111 L138 68 L197 68 L197 111 L138 111 ZM138 174 L138 132 L197 132 L197 174 L138 174 Z" /><glyph glyph-name="uni7EC6" unicode="&#x7ec6;" d="M99 -15 L99 191 L235 191 L235 16 Q236 -16 204 -15 L99 -15 ZM17 43 L17 66 Q37 87 50 110 Q29 108 12 109 L12 130 Q38 162 46 204 L75 204 Q61 159 36 130 Q53 130 61 131 Q67 143 71 157 L98 157 Q80 100 43 66 Q63 65 90 70 L90 49 Q53 43 17 43 ZM127 4 L155 4 L155 80 L127 80 L127 4 ZM194 4 Q209 4 208 18 L208 80 L181 80 L181 4 L194 4 ZM127 170 L127 101 L155 101 L155 170 L127 170 ZM208 170 L181 170 L181 101 L208 101 L208 170 ZM12 -5 L12 16 Q56 15 93 24 L93 5 Q53 -5 12 -5 Z" /><glyph glyph-name="uni7ECE" unicode="&#x7ece;" d="M242 96 Q193 102 168 115 Q139 102 95 96 L95 113 Q123 120 144 129 Q125 143 108 165 L142 165 Q154 151 167 142 Q187 155 200 175 L100 175 L100 196 L236 196 L236 175 Q219 146 192 128 Q213 119 242 113 L242 96 ZM103 61 L103 81 L153 81 L153 100 L184 100 L184 81 L236 81 L236 61 L184 61 L184 33 L244 33 L244 12 L184 12 L184 -24 L153 -24 L153 12 L96 12 L96 33 L153 33 L153 61 L103 61 ZM16 45 L16 68 Q40 93 51 112 Q35 111 13 111 L13 132 Q37 165 46 205 L77 205 Q65 166 39 132 Q55 132 62 133 Q68 145 72 158 L101 158 Q84 105 45 68 Q68 68 91 72 L91 51 Q64 44 16 45 ZM13 -5 L13 17 Q53 16 94 25 L94 4 Q54 -6 13 -5 Z" /><glyph glyph-name="uni7EDF" unicode="&#x7edf;" d="M91 164 L91 185 L150 185 L150 205 L183 205 L183 185 L241 185 L241 164 L170 164 Q152 132 127 111 Q160 111 173 112 Q189 112 205 114 Q203 118 200 126 Q195 138 192 144 L217 144 Q231 118 242 81 L215 81 L211 94 Q209 93 204 93 Q199 92 197 92 L197 14 Q197 0 211 0 Q224 0 224 14 L224 24 L244 24 L244 8 Q245 -19 216 -18 L200 -18 Q168 -19 169 10 L169 90 Q160 89 150 89 L150 68 Q154 1 83 -25 L83 -4 Q125 19 122 69 L122 88 L96 88 L96 111 Q123 138 135 164 L91 164 ZM12 110 L12 131 Q36 165 44 205 L73 205 Q61 162 36 131 Q53 131 61 132 Q66 144 70 157 L97 157 Q80 104 44 67 Q69 67 90 72 L90 51 Q63 45 17 45 L17 67 Q38 89 50 111 Q29 109 12 110 ZM12 0 L12 21 Q56 20 93 29 L93 9 Q61 -1 12 0 Z" /><glyph glyph-name="uni7EEB" unicode="&#x7eeb;" d="M244 -24 Q191 -13 165 0 Q139 -14 84 -25 L84 -7 Q123 2 143 13 Q128 26 114 44 Q103 40 91 37 L91 54 Q124 69 136 95 L167 95 Q164 89 160 83 L228 83 L228 63 Q212 32 188 13 Q201 5 240 -5 Q243 -6 244 -6 L244 -24 ZM12 110 L12 132 Q37 165 45 204 L75 204 Q62 162 37 131 Q45 131 56 133 Q59 133 60 133 Q65 144 69 157 L95 157 Q79 101 43 67 Q63 65 86 71 L86 50 Q62 43 15 44 L15 67 Q36 90 49 111 Q38 110 12 110 ZM103 169 L103 189 L153 189 L153 206 L184 206 L184 189 L236 189 L236 169 L184 169 L184 149 L245 149 L245 129 L95 129 L95 149 L153 149 L153 169 L103 169 ZM13 -4 L13 17 Q51 16 89 25 L89 4 Q54 -5 13 -4 ZM244 83 Q194 88 177 123 L207 123 Q219 104 244 98 L244 83 ZM92 83 L92 98 Q118 105 130 123 L159 123 Q143 88 92 83 ZM195 63 L145 63 Q138 57 130 52 L143 52 Q152 40 165 28 Q181 41 195 63 Z" /><glyph glyph-name="uni7EED" unicode="&#x7eed;" d="M90 35 L90 55 L163 55 Q166 67 165 83 L165 123 L194 123 L194 89 Q194 71 191 55 L244 55 L244 35 L200 35 Q212 9 243 -7 L243 -25 Q200 -11 179 21 Q159 -10 91 -26 L91 -8 Q143 7 156 35 L90 35 ZM101 168 L101 188 L152 188 L152 206 L182 206 L182 188 L234 188 L234 168 L182 168 L182 151 L241 151 L241 98 L216 98 L216 132 L94 132 L94 151 L152 151 L152 168 L101 168 ZM13 109 L13 131 Q37 165 45 205 L75 205 Q61 161 38 131 Q53 131 59 132 Q64 144 68 157 L95 157 Q81 102 44 66 Q66 66 86 71 L86 50 Q62 43 17 44 L17 66 Q39 92 49 110 Q39 109 13 109 ZM12 -4 L12 18 Q55 17 88 26 L88 5 Q50 -5 12 -4 ZM149 57 Q124 72 95 76 L95 93 Q126 90 149 79 L149 57 ZM154 89 Q129 103 101 107 L101 124 Q132 121 154 112 L154 89 Z" /><glyph glyph-name="uni7F8E" unicode="&#x7f8e;" d="M20 166 L20 187 L66 187 Q63 195 62 205 L95 205 Q96 194 99 187 L156 187 Q156 188 157 190 Q160 199 161 205 L194 205 Q192 195 189 187 L236 187 L236 166 L144 166 L144 145 L223 145 L223 125 L144 125 L144 103 L241 103 L241 82 L14 82 L14 103 L110 103 L110 125 L33 125 L33 145 L110 145 L110 166 L20 166 ZM18 37 L18 58 L110 58 Q110 60 110 61 L110 76 L145 76 L145 58 L238 58 L238 37 L154 37 Q172 10 243 -4 L243 -23 Q161 -13 128 21 Q95 -13 13 -23 L13 -4 Q82 9 102 37 L18 37 Z" /><glyph glyph-name="uni8000" unicode="&#x8000;" d="M111 -25 L111 57 Q109 56 105 54 Q99 51 95 50 L95 68 Q116 84 124 113 L152 113 Q150 106 147 98 L169 98 L169 110 L198 110 L198 98 L241 98 L241 81 L198 81 L198 65 L237 65 L237 49 L198 49 L198 33 L236 33 L236 17 L198 17 L198 0 L244 0 L244 -15 L137 -15 L137 -25 L111 -25 ZM11 94 L11 114 L42 114 L42 204 L68 204 L68 114 L98 114 L98 94 L83 94 L83 12 Q90 14 101 20 Q100 20 102 21 L102 1 Q83 -11 60 -18 L60 94 L49 94 L49 71 Q52 5 10 -26 L10 -6 Q27 21 26 71 L26 94 L11 94 ZM173 115 L173 136 Q195 139 207 144 Q192 152 175 155 L175 169 Q193 169 208 163 L208 144 Q210 146 213 146 L213 177 L173 177 L173 197 L237 197 L237 110 L213 110 L213 129 Q198 120 173 115 ZM100 112 L100 134 Q123 138 143 146 L143 178 L102 178 L102 197 L166 197 L166 115 L143 115 L143 128 Q128 119 100 112 ZM23 127 Q14 151 12 187 L30 187 Q32 157 40 127 L23 127 ZM71 127 Q78 152 81 186 L100 186 Q96 151 87 127 L71 127 ZM137 17 L137 0 L169 0 L169 17 L137 17 ZM138 81 Q137 81 137 80 L137 65 L169 65 L169 81 L138 81 ZM135 145 Q123 152 104 154 L104 169 Q124 168 135 163 L135 145 ZM137 49 L137 33 L169 33 L169 49 L137 49 Z" /><glyph glyph-name="uni8005" unicode="&#x8005;" d="M34 167 L34 188 L91 188 L91 206 L124 206 L124 188 L176 188 L176 167 L124 167 L124 138 L148 138 Q174 157 204 194 L239 194 Q208 154 189 138 L244 138 L244 116 L163 116 Q144 102 121 90 L215 90 L215 13 Q216 -20 181 -19 L50 -19 L50 61 Q33 55 13 49 L13 70 Q80 93 118 116 L13 116 L13 138 L91 138 L91 167 L34 167 ZM81 0 L169 0 Q185 0 184 15 L184 25 L81 25 L81 0 ZM81 69 L81 45 L184 45 L184 69 L81 69 Z" /><glyph glyph-name="uni80FD" unicode="&#x80fd;" d="M22 -23 L22 118 L124 118 L124 8 Q125 -23 93 -22 L73 -22 L73 -2 L84 -2 Q97 -3 96 8 L96 22 L50 22 L50 -23 L22 -23 ZM172 -20 Q142 -21 143 8 L143 93 L172 93 L172 53 Q201 61 212 84 L241 84 Q225 41 172 34 L172 12 Q171 0 185 0 L206 0 Q219 0 218 12 L218 18 L242 18 L242 6 Q243 -21 211 -20 L172 -20 ZM172 101 Q141 100 142 132 L142 205 L172 205 L172 170 Q200 176 212 197 L240 197 Q225 157 172 151 L172 135 Q171 121 185 122 L206 122 Q219 121 218 135 L218 141 L241 141 L241 130 Q242 100 211 101 L172 101 ZM108 127 L106 137 Q77 133 14 133 L14 155 Q39 177 55 206 L89 206 Q69 173 46 155 Q83 155 99 157 Q97 165 88 181 L113 181 Q128 157 137 127 L108 127 ZM50 60 L50 39 L96 39 L96 60 L50 60 ZM50 99 L50 78 L96 78 L96 99 L50 99 Z" /><glyph glyph-name="uni8282" unicode="&#x8282;" d="M86 -26 L86 102 L24 102 L24 124 L225 124 L225 39 Q225 3 189 3 L157 3 L157 25 L176 25 Q193 24 192 41 L192 102 L121 102 L121 -26 L86 -26 ZM12 161 L12 183 L67 183 L67 205 L98 205 L98 183 L158 183 L158 205 L189 205 L189 183 L243 183 L243 161 L189 161 L189 135 L158 135 L158 161 L98 161 L98 135 L67 135 L67 161 L12 161 Z" /><glyph glyph-name="uni82B1" unicode="&#x82b1;" d="M91 25 L91 46 Q112 49 128 55 L128 134 L161 134 L161 70 Q193 89 206 122 L239 122 Q216 64 161 42 L161 17 Q160 0 177 1 L202 1 Q217 1 217 16 L217 27 L243 27 L243 11 Q243 -19 209 -19 L163 -19 Q128 -19 128 14 L128 32 Q111 28 91 25 ZM13 165 L13 186 L64 186 L64 207 L95 207 L95 186 L162 186 L162 207 L193 207 L193 186 L243 186 L243 165 L193 165 L193 143 L162 143 L162 165 L95 165 L95 143 L64 143 L64 165 L13 165 ZM14 48 L14 67 Q50 87 63 134 L96 134 Q87 106 75 89 L75 -24 L44 -24 L44 61 Q42 60 37 58 Q31 55 14 48 Z" /><glyph glyph-name="uni8363" unicode="&#x8363;" d="M25 63 L25 84 L111 84 L111 108 L144 108 L144 84 L232 84 L232 63 L192 63 Q202 23 241 1 L241 -16 Q174 4 160 63 L144 63 L144 -24 L111 -24 L111 63 L96 63 Q82 4 15 -16 L15 1 Q54 23 64 63 L25 63 ZM22 166 L22 188 L73 188 L73 205 L104 205 L104 188 L152 188 L152 205 L183 205 L183 188 L234 188 L234 166 L183 166 L183 148 L152 148 L152 166 L104 166 L104 148 L73 148 L73 166 L22 166 ZM18 95 L18 139 L239 139 L239 95 L208 95 L208 118 L48 118 L48 95 L18 95 Z" /><glyph glyph-name="uni83B2" unicode="&#x83b2;" d="M78 120 L78 140 L116 140 Q118 143 120 150 Q123 155 124 158 L158 158 Q157 156 155 152 Q151 143 149 140 L233 140 L233 120 L137 120 Q128 104 115 91 L149 91 L149 110 L180 110 L180 91 L227 91 L227 71 L180 71 L180 50 L242 50 L242 30 L180 30 L180 6 L149 6 L149 30 L78 30 L78 50 L149 50 L149 71 L86 71 L86 91 Q97 103 106 120 L78 120 ZM13 -22 L13 -3 Q36 3 35 25 L35 79 L12 79 L12 99 L66 99 L66 31 Q67 0 100 0 L243 0 L243 -19 L97 -19 Q65 -19 52 -1 Q42 -18 13 -22 ZM12 170 L12 191 L71 191 L71 206 L102 206 L102 191 L158 191 L158 206 L189 206 L189 191 L244 191 L244 170 L189 170 L189 153 L158 153 L158 170 L102 170 L102 153 L71 153 L71 170 L12 170 ZM40 113 Q36 133 24 157 L51 157 Q63 137 68 113 L40 113 Z" /><glyph glyph-name="uni867E" unicode="&#x867e;" d="M19 55 L19 174 L55 174 L55 205 L82 205 L82 174 L118 174 L118 85 Q120 54 88 55 L82 55 L82 17 L103 20 Q102 27 100 40 Q99 44 98 47 L119 47 Q129 14 132 -16 L108 -16 L106 0 Q61 -6 13 -10 L13 12 Q20 12 34 13 Q49 13 55 14 L55 55 L19 55 ZM120 166 L120 188 L243 188 L243 166 L187 166 L187 -25 L157 -25 L157 166 L120 166 ZM242 59 Q218 83 194 95 L194 121 Q224 111 242 94 L242 59 ZM41 76 L55 76 L55 154 L41 154 L41 76 ZM96 154 L82 154 L83 76 Q97 75 96 88 L96 154 Z" /><glyph glyph-name="uni87F9" unicode="&#x87f9;" d="M12 64 L12 81 Q27 95 26 121 L26 166 Q20 165 14 163 L14 176 Q38 187 44 206 L70 206 Q70 205 68 202 Q67 199 66 197 L113 197 L113 185 Q109 179 101 173 Q101 173 100 172 L124 172 L124 94 Q124 83 120 77 L144 77 L144 63 L222 63 L222 41 Q223 15 195 16 L144 16 L144 0 L150 0 Q180 0 207 3 Q206 5 204 10 Q202 14 201 16 L225 16 Q236 -3 241 -23 L215 -23 Q214 -17 212 -11 Q184 -17 150 -17 L14 -17 L14 0 L111 0 L111 16 L35 16 L35 63 L111 63 L111 72 Q107 71 101 71 L91 71 L91 86 L95 86 Q102 86 102 93 L102 101 L86 101 L86 77 L63 77 L63 101 L45 101 Q40 78 12 64 ZM131 91 L131 107 L178 107 L178 123 L155 123 Q145 114 131 112 L131 125 Q143 131 146 148 L167 148 L165 139 L178 139 L178 149 L204 149 L204 139 L239 139 L239 123 L204 123 L204 107 L244 107 L244 91 L204 91 L204 69 L178 69 L178 91 L131 91 ZM130 146 L130 160 Q153 167 156 182 L133 182 L133 197 L237 197 L237 176 Q238 152 214 153 L192 153 L192 167 L202 167 Q211 167 210 175 L210 182 L183 182 Q177 152 130 146 ZM193 47 L144 47 L144 32 L183 32 Q193 32 193 42 L193 47 ZM64 32 L111 32 L111 47 L64 47 L64 32 ZM57 185 Q50 176 40 172 L73 172 Q74 173 76 175 Q82 180 85 185 L57 185 ZM86 129 L86 114 L102 114 L102 129 L86 129 ZM102 157 L86 157 L86 143 L102 143 L102 157 ZM47 123 Q47 119 47 114 L63 114 L63 129 L47 129 L47 123 ZM47 157 L47 143 L63 143 L63 157 L47 157 Z" /><glyph glyph-name="uni884C" unicode="&#x884c;" d="M102 108 L102 130 L244 130 L244 108 L207 108 L207 12 Q207 -21 175 -21 L139 -21 L139 0 L160 0 Q174 0 174 12 L174 108 L102 108 ZM42 -24 L42 78 Q30 72 14 68 L14 87 Q50 100 62 142 L95 142 Q86 115 72 100 L72 -24 L42 -24 ZM112 170 L112 192 L234 192 L234 170 L112 170 ZM14 131 L14 150 Q51 164 63 205 L95 205 Q78 145 14 131 Z" /><glyph glyph-name="uni8868" unicode="&#x8868;" d="M21 170 L21 190 L111 190 L111 206 L144 206 L144 190 L234 190 L234 170 L144 170 L144 150 L225 150 L225 130 L144 130 L144 110 L242 110 L242 90 L137 90 Q136 89 135 88 Q132 83 126 77 L147 77 Q158 57 171 42 Q189 54 198 77 L228 77 Q214 42 187 28 Q208 12 241 1 L241 -17 Q149 2 119 70 Q106 57 91 47 L91 8 Q112 12 138 21 L138 0 Q103 -16 62 -26 L62 32 Q40 23 12 16 L12 36 Q71 57 98 90 L14 90 L14 110 L111 110 L111 130 L31 130 L31 150 L111 150 L111 170 L21 170 Z" /><glyph glyph-name="uni8A89" unicode="&#x8a89;" d="M16 153 L16 174 L171 174 Q179 186 189 207 L221 207 Q210 185 200 174 L241 174 L241 153 L187 153 Q205 124 244 109 L244 91 Q218 98 200 108 L56 108 Q38 98 11 91 L11 109 Q52 123 69 153 L16 153 ZM36 -20 L36 38 L220 38 L220 7 Q221 -21 190 -20 L36 -20 ZM66 -2 L178 -2 Q191 -3 190 8 L190 20 L66 20 L66 -2 ZM45 52 L45 68 L211 68 L211 52 L45 52 ZM45 81 L45 97 L210 97 L210 81 L45 81 ZM143 141 L143 125 L174 125 Q161 137 152 153 L103 153 Q94 137 82 125 L113 125 L113 141 L143 141 ZM50 179 Q46 195 38 207 L66 207 Q75 195 80 179 L50 179 ZM119 179 Q113 195 105 207 L132 207 Q143 194 147 179 L119 179 Z" /><glyph glyph-name="uni8BA1" unicode="&#x8ba1;" d="M89 110 L89 132 L151 132 L151 206 L185 206 L185 132 L245 132 L245 110 L185 110 L185 -24 L151 -24 L151 110 L89 110 ZM37 -21 L37 111 L12 111 L12 133 L69 133 L69 21 Q88 27 107 40 L107 14 Q75 -8 37 -21 ZM48 152 Q43 177 30 204 L58 204 Q72 180 78 152 L48 152 Z" /><glyph glyph-name="uni8BBE" unicode="&#x8bbe;" d="M243 -24 Q191 -12 159 4 Q125 -12 75 -25 L75 -5 Q112 6 136 20 Q111 42 92 79 L125 79 Q143 50 159 36 Q181 57 196 88 L87 88 L87 109 L230 109 L230 88 Q212 44 181 19 Q205 6 243 -5 L243 -24 ZM211 123 Q182 121 184 151 L184 176 L135 176 L135 162 Q138 122 81 117 L81 133 Q107 140 105 163 L105 197 L213 197 L213 155 Q212 142 225 143 L242 143 L242 123 L211 123 ZM33 -15 L33 114 L12 114 L12 135 L64 135 L64 25 Q78 31 92 40 L92 17 Q71 0 33 -15 ZM41 153 Q35 182 23 204 L51 204 Q64 181 71 153 L41 153 Z" /><glyph glyph-name="uni8BC4" unicode="&#x8bc4;" d="M88 172 L88 193 L237 193 L237 172 L177 172 L177 76 L245 76 L245 55 L177 55 L177 -24 L146 -24 L146 55 L79 55 L79 76 L146 76 L146 172 L88 172 ZM34 -19 L34 114 L11 114 L11 135 L64 135 L64 22 Q77 29 92 39 L92 15 Q64 -8 34 -19 ZM193 95 Q202 119 205 153 L231 153 Q227 116 217 95 L193 95 ZM106 95 Q95 123 91 153 L118 153 Q121 119 130 95 L106 95 ZM42 152 Q36 180 25 203 L52 203 Q64 183 71 152 L42 152 Z" /><glyph glyph-name="uni8BC6" unicode="&#x8bc6;" d="M128 93 L185 93 Q200 93 200 109 L200 170 L128 170 L128 93 ZM97 72 L97 191 L231 191 L231 109 Q233 71 196 72 L97 72 ZM244 -24 Q186 0 180 60 L211 60 Q216 16 244 -3 L244 -24 ZM77 -25 L77 -4 Q110 15 115 60 L147 60 Q141 0 77 -25 ZM34 -11 L34 114 L12 114 L12 135 L64 135 L64 29 Q76 35 89 43 L89 19 Q69 0 34 -11 ZM42 153 Q36 182 24 204 L51 204 Q64 181 71 153 L42 153 Z" /><glyph glyph-name="uni8C61" unicode="&#x8c61;" d="M16 20 L16 37 Q83 52 120 82 Q119 84 117 86 Q114 89 113 90 Q83 69 16 58 L16 76 Q61 85 83 99 L30 99 L30 144 Q24 141 16 140 L16 157 Q64 174 80 207 L114 207 Q111 201 106 195 L195 195 L195 175 Q185 165 180 161 L230 161 L230 131 Q232 98 199 99 L137 99 Q158 84 158 52 L158 10 Q159 -24 124 -23 L97 -23 L97 -4 L113 -4 Q129 -5 128 10 L128 20 Q95 0 15 -18 L15 0 Q84 13 128 48 Q128 54 127 60 Q86 32 16 20 ZM240 -16 Q170 6 162 67 L162 86 L191 86 Q212 85 230 92 L230 72 Q218 67 195 67 L190 67 Q196 26 240 2 L240 -16 ZM152 143 Q146 128 140 117 L188 117 Q201 117 201 130 L201 143 L152 143 ZM60 117 L105 117 Q114 128 119 143 L60 143 L60 117 ZM158 176 L91 176 Q83 167 71 161 L143 161 Q151 167 158 176 Z" /><glyph glyph-name="uni8D28" unicode="&#x8d28;" d="M12 -25 L12 -3 Q32 16 30 63 L30 194 L161 194 Q203 193 237 203 L237 181 Q208 173 168 173 L168 150 L240 150 L240 129 L168 129 L168 107 L228 107 L228 25 L199 25 L199 86 L108 86 L108 25 L79 25 L79 107 L137 107 L137 129 L70 129 L70 150 L137 150 L137 173 L62 173 L62 72 Q66 2 12 -25 ZM62 -24 L62 -5 Q141 11 138 57 L138 74 L169 74 L169 57 Q167 10 241 -5 L241 -24 Q180 -15 154 13 Q124 -16 62 -24 Z" /><glyph glyph-name="uni8D34" unicode="&#x8d34;" d="M130 -18 L130 98 L163 98 L163 206 L194 206 L194 164 L245 164 L245 143 L194 143 L194 98 L237 98 L237 16 Q238 -19 204 -18 L130 -18 ZM21 44 L21 195 L118 195 L118 44 L95 44 L95 175 L44 175 L44 44 L21 44 ZM12 -25 L12 -5 Q61 23 58 83 L58 160 L81 160 L81 83 Q78 24 121 -2 L121 -22 Q85 -5 69 22 Q52 -7 12 -25 ZM159 1 L193 1 Q208 1 207 17 L207 77 L159 77 L159 1 Z" /><glyph glyph-name="uni8D5B" unicode="&#x8d5b;" d="M40 141 L40 156 L77 156 L77 168 L106 168 L106 156 L150 156 L150 168 L179 168 L179 156 L216 156 L216 141 L179 141 L179 128 L222 128 L222 113 L179 113 L179 99 L240 99 L240 83 L190 83 Q208 66 243 54 L243 38 Q219 43 202 50 L202 11 L173 11 L173 51 L84 51 L84 11 L56 11 L56 51 Q38 43 13 38 L13 54 Q47 65 66 83 L16 83 L16 99 L77 99 L77 113 L34 113 L34 128 L77 128 L77 141 L40 141 ZM17 158 L17 194 L110 194 L110 206 L147 206 L147 194 L238 194 L238 158 L208 158 L208 176 L48 176 L48 158 L17 158 ZM22 -25 L22 -8 Q115 1 112 35 L112 44 L145 44 L145 36 Q141 2 234 -8 L234 -25 Q157 -21 129 3 Q105 -21 22 -25 ZM101 83 Q94 74 85 67 L170 67 Q161 74 154 83 L101 83 ZM106 113 L106 99 L150 99 L150 113 L106 113 ZM106 141 L106 128 L150 128 L150 141 L106 141 Z" /><glyph glyph-name="uni8F6E" unicode="&#x8f6e;" d="M13 165 L13 185 L39 185 L42 206 L72 206 L68 185 L111 185 L111 165 L63 165 Q56 133 40 101 L59 101 L59 146 L88 146 L88 101 L110 101 L110 81 L88 81 L88 50 Q89 50 93 51 Q99 51 113 54 L113 35 Q100 31 88 29 L88 -24 L59 -24 L59 24 Q39 22 12 22 L12 45 Q40 45 59 46 L59 81 L16 81 L16 101 Q30 136 36 165 L13 165 ZM162 -18 Q124 -19 125 18 L125 119 L155 119 L155 71 Q185 83 199 112 L228 112 Q209 61 155 49 L155 20 Q154 0 173 1 L194 1 Q210 1 210 18 L210 30 L235 30 L235 14 Q236 -19 200 -18 L162 -18 ZM246 114 Q196 134 174 172 Q151 134 103 114 L103 133 Q142 161 157 206 L190 206 Q206 159 246 133 L246 114 Z" /><glyph glyph-name="uni8FA8" unicode="&#x8fa8;" d="M157 100 L157 119 L172 119 Q166 137 165 159 L187 159 Q188 133 193 119 L209 119 Q214 140 214 159 L237 159 Q236 137 230 119 L245 119 L245 100 L215 100 L215 67 L242 67 L242 47 L215 47 L215 -24 L186 -24 L186 47 L159 47 L159 67 L186 67 L186 100 L157 100 ZM12 100 L12 119 L25 119 Q19 137 18 159 L40 159 Q40 140 45 119 L59 119 Q64 139 65 159 L87 159 Q85 136 79 119 L92 119 L92 100 L67 100 L67 75 Q67 70 67 67 L89 67 L89 47 L66 47 Q62 1 16 -26 L16 -5 Q38 17 38 47 L14 47 L14 67 L39 67 L39 100 L12 100 ZM97 -27 L97 0 Q114 28 119 60 Q125 92 125 159 L125 204 L151 204 L151 165 Q152 76 141 42 Q132 7 97 -27 ZM160 168 L160 187 L186 187 L186 205 L215 205 L215 187 L241 187 L241 168 L160 168 ZM14 168 L14 187 L39 187 L39 205 L68 205 L68 187 L92 187 L92 168 L14 168 ZM90 71 Q98 107 99 161 L117 161 Q116 103 111 71 L90 71 Z" /><glyph glyph-name="uni8FDB" unicode="&#x8fdb;" d="M86 159 L86 180 L112 180 L112 205 L141 205 L141 180 L179 180 L179 205 L208 205 L208 180 L235 180 L235 159 L208 159 L208 111 L242 111 L242 90 L208 90 L208 14 L179 14 L179 90 L141 90 Q143 36 90 12 L90 32 Q114 51 112 90 L79 90 L79 111 L112 111 L112 159 L86 159 ZM12 -22 L12 -4 Q35 6 34 28 L34 110 L13 110 L13 131 L65 131 L65 36 Q66 3 101 2 L243 2 L243 -18 L98 -18 Q66 -18 54 0 Q40 -17 12 -22 ZM141 159 L141 111 L179 111 L179 159 L141 159 ZM42 151 Q37 178 26 201 L55 201 Q66 177 72 151 L42 151 Z" /><glyph glyph-name="uni906E" unicode="&#x906e;" d="M72 11 L72 35 Q84 50 83 87 L83 190 L148 190 L148 205 L182 205 L182 190 L243 190 L243 171 L111 171 L111 142 L133 142 L133 163 L160 163 L160 142 L191 142 L191 163 L218 163 L218 142 L241 142 L241 122 L218 122 L218 104 Q220 75 189 77 L133 77 L133 122 L111 122 L111 93 Q114 34 72 11 ZM12 -24 L12 -6 Q34 3 33 28 L33 110 L12 110 L12 130 L62 130 L62 34 Q63 2 97 0 L243 0 L243 -19 L97 -19 Q65 -20 52 0 Q40 -18 12 -24 ZM37 151 Q33 177 21 201 L48 201 Q61 176 66 151 L37 151 ZM111 15 Q113 37 120 65 L140 65 Q134 37 132 15 L111 15 ZM151 15 Q150 35 146 62 Q146 60 145 65 L165 65 Q165 63 166 60 Q170 35 172 15 L151 15 ZM220 15 Q218 42 210 65 L229 65 Q237 44 241 15 L220 15 ZM185 15 Q184 41 177 65 L197 65 Q204 37 206 15 L185 15 ZM181 95 Q191 95 191 106 L191 122 L160 122 L160 95 L181 95 Z" /><glyph glyph-name="uni9075" unicode="&#x9075;" d="M71 175 L71 191 L109 191 Q106 198 105 208 L132 208 Q133 198 136 191 L171 191 Q175 198 176 207 L203 207 Q202 197 199 191 L238 191 L238 175 L186 175 L186 161 L231 161 L231 101 Q232 74 210 72 L210 61 L240 61 L240 44 L210 44 L210 39 Q211 9 182 10 L156 10 L156 27 L170 27 Q183 26 182 39 L182 44 L70 44 L70 61 L182 61 L182 72 L78 72 L78 161 L123 161 L123 175 L71 175 ZM10 -23 L10 -5 Q33 4 32 27 L32 110 L12 110 L12 131 L62 131 L62 35 Q63 1 97 0 L244 0 L244 -19 L96 -19 Q64 -20 52 0 Q39 -18 10 -23 ZM187 118 Q162 117 163 140 L163 146 L145 146 Q141 121 103 115 L103 110 L206 110 L206 118 L187 118 ZM37 151 Q33 178 22 201 L48 201 Q61 178 66 151 L37 151 ZM103 86 L194 86 Q206 86 206 97 L103 97 L103 86 ZM108 13 Q104 28 95 40 L121 40 Q131 28 135 13 L108 13 ZM206 146 L186 146 L186 141 Q185 130 196 131 L206 131 L206 146 ZM146 175 L146 161 L163 161 L163 175 L146 175 ZM103 129 Q119 135 122 146 L103 146 L103 129 Z" /><glyph glyph-name="uni91CD" unicode="&#x91cd;" d="M29 178 L29 195 L148 195 Q186 194 227 203 L227 184 Q193 177 155 178 L144 178 L144 163 L244 163 L244 146 L144 146 L144 131 L221 131 L221 81 Q223 48 191 50 L144 50 L144 34 L228 34 L228 17 L144 17 L144 0 L244 0 L244 -16 L12 -16 L12 0 L112 0 L112 17 L27 17 L27 34 L112 34 L112 50 L35 50 L35 131 L112 131 L112 146 L13 146 L13 163 L112 163 L112 178 L29 178 ZM64 67 L112 67 L112 83 L64 83 L64 67 ZM180 67 Q193 66 192 80 L192 83 L144 83 L144 67 L180 67 ZM192 114 L144 114 L144 98 L192 98 L192 114 ZM64 114 L64 98 L112 98 L112 114 L64 114 Z" /><glyph glyph-name="uni91CF" unicode="&#x91cf;" d="M35 36 L35 103 L221 103 L221 66 Q222 35 192 36 L145 36 L145 24 L229 24 L229 9 L145 9 L145 -2 L245 -2 L245 -18 L12 -18 L12 -2 L112 -2 L112 9 L27 9 L27 24 L112 24 L112 36 L35 36 ZM33 138 L33 198 L223 198 L223 165 Q224 137 194 138 L33 138 ZM12 112 L12 128 L244 128 L244 112 L12 112 ZM64 184 L64 174 L192 174 L192 184 L64 184 ZM64 152 L181 152 Q193 152 192 162 L64 162 L64 152 ZM65 51 L112 51 L112 63 L65 63 L65 51 ZM65 89 L65 76 L112 76 L112 89 L65 89 ZM191 89 L145 89 L145 76 L191 76 L191 89 ZM179 51 Q192 50 191 63 L145 63 L145 51 L179 51 Z" /><glyph glyph-name="uni95F9" unicode="&#x95f9;" d="M179 -21 L179 0 L191 0 Q206 -1 205 13 L205 174 L84 174 L84 195 L236 195 L236 15 Q238 -23 200 -21 L179 -21 ZM68 13 L68 104 L114 104 L114 119 L141 119 L141 104 L189 104 L189 43 Q190 12 162 13 L150 13 L150 32 L154 32 Q164 31 163 42 L163 85 L141 85 L141 -9 L114 -9 L114 85 L93 85 L93 13 L68 13 ZM22 -24 L22 152 L52 152 L52 -24 L22 -24 ZM62 123 L62 143 L112 143 L112 163 L143 163 L143 143 L195 143 L195 123 L62 123 ZM44 160 Q38 184 27 205 L56 205 Q67 185 74 160 L44 160 Z" /><glyph glyph-name="uni9650" unicode="&#x9650;" d="M109 -24 L109 196 L228 196 L228 115 Q229 81 196 82 L137 82 L137 11 Q147 15 165 24 L165 1 Q139 -14 109 -24 ZM20 -25 L20 196 L95 196 L95 176 Q93 132 80 111 Q97 90 97 60 Q97 10 52 10 L52 34 Q74 32 73 63 Q74 89 56 110 Q70 139 69 176 L47 176 L47 -25 L20 -25 ZM244 -22 Q168 0 150 73 L178 73 Q184 54 191 40 Q209 53 215 73 L242 73 Q230 38 202 25 Q216 9 244 -3 L244 -22 ZM188 103 Q202 102 201 118 L201 129 L137 129 L137 103 L188 103 ZM137 175 L137 149 L201 149 L201 175 L137 175 Z" /><glyph glyph-name="uni9700" unicode="&#x9700;" d="M12 73 L12 91 L244 91 L244 73 L138 73 Q137 71 136 66 Q134 59 133 57 L228 57 L228 9 Q229 -23 196 -22 L180 -22 L180 -3 L187 -3 Q200 -4 199 9 L199 38 L169 38 L169 -17 L143 -17 L143 38 L113 38 L113 -17 L87 -17 L87 38 L58 38 L58 -24 L29 -24 L29 57 L102 57 Q105 64 106 73 L12 73 ZM28 179 L28 196 L228 196 L228 179 L143 179 L143 165 L238 165 L238 115 L210 115 L210 149 L143 149 L143 99 L113 99 L113 149 L46 149 L46 115 L18 115 L18 165 L113 165 L113 179 L28 179 ZM153 102 L153 115 L200 115 L200 102 L153 102 ZM56 102 L56 115 L103 115 L103 102 L56 102 ZM153 126 L153 138 L200 138 L200 126 L153 126 ZM56 126 L56 138 L103 138 L103 126 L56 126 Z" /><glyph glyph-name="uni9762" unicode="&#x9762;" d="M13 173 L13 195 L242 195 L242 173 L142 173 Q140 161 134 146 L232 146 L232 17 Q233 -18 195 -18 L24 -18 L24 146 L99 146 Q105 158 106 173 L13 173 ZM53 1 L80 1 L80 126 L53 126 L53 1 ZM203 126 L175 126 L175 1 L186 1 Q204 0 203 19 L203 126 ZM109 30 L109 1 L147 1 L147 30 L109 30 ZM109 78 L109 49 L147 49 L147 78 L109 78 ZM109 126 L109 97 L147 97 L147 126 L109 126 Z" /><glyph glyph-name="uni987B" unicode="&#x987b;" d="M95 176 L95 197 L243 197 L243 176 L182 176 Q181 170 178 160 Q177 154 176 150 L234 150 L234 29 L205 29 L205 130 L131 130 L131 29 L102 29 L102 150 L145 150 Q146 155 148 165 Q149 172 150 176 L95 176 ZM91 -25 L91 -6 Q157 18 154 72 L154 117 L183 117 L183 71 Q180 19 244 -5 L244 -25 Q191 -11 168 19 Q145 -13 91 -25 ZM9 -24 L9 -3 Q54 23 67 74 L95 74 Q79 1 9 -24 ZM10 55 L10 74 Q53 98 63 139 L91 139 Q77 77 10 55 ZM12 125 L12 144 Q46 162 58 200 L87 200 Q71 142 12 125 Z" /><glyph glyph-name="uni98CE" unicode="&#x98ce;" d="M241 -24 Q190 -2 194 49 L194 173 L62 173 L62 49 Q66 -2 15 -24 L15 -2 Q32 10 31 40 L31 194 L225 194 L225 40 Q224 10 241 -2 L241 -24 ZM185 0 Q151 18 128 40 Q106 19 70 0 L70 20 Q96 41 111 60 Q86 93 77 153 L105 153 Q115 106 128 84 Q143 112 150 153 L178 153 Q169 91 144 59 Q158 42 185 20 L185 0 Z" /><glyph glyph-name="uni9AD8" unicode="&#x9ad8;" d="M23 -23 L23 89 L233 89 L233 11 Q235 -24 201 -22 L175 -22 L175 -3 L189 -3 Q203 -4 202 9 L202 69 L54 69 L54 -23 L23 -23 ZM46 103 L46 156 L210 156 L210 133 Q211 102 182 103 L46 103 ZM75 2 L75 55 L181 55 L181 29 Q183 0 153 2 L75 2 ZM12 170 L12 190 L110 190 L110 205 L147 205 L147 190 L244 190 L244 170 L12 170 ZM77 120 L169 120 Q180 119 179 132 L179 140 L77 140 L77 120 ZM103 18 L143 18 Q154 17 153 29 L153 38 L103 38 L103 18 Z" /><glyph glyph-name="uni9B54" unicode="&#x9b54;" d="M182 106 L182 132 Q177 116 158 108 Q157 106 155 102 Q154 101 154 100 L225 100 L225 60 Q226 33 197 34 L154 34 Q153 30 150 26 L162 26 L162 4 Q161 -7 174 -6 L213 -6 Q223 -6 223 0 L212 0 L211 4 Q200 2 164 2 L164 13 Q176 22 178 30 L199 30 Q192 19 184 13 Q195 13 207 15 Q206 17 204 21 Q203 24 202 25 L217 25 Q223 16 227 6 L244 6 L244 0 Q245 -22 219 -21 L163 -21 Q137 -22 138 0 L138 10 Q113 -12 56 -26 L56 -9 Q114 7 126 34 L71 34 L71 100 L126 100 Q129 104 130 109 L151 109 L151 118 Q166 129 169 140 L153 140 L153 154 L182 154 L182 166 L208 166 L208 154 L238 154 L238 140 L220 140 Q223 129 240 119 L240 104 Q213 116 208 132 L208 106 L182 106 ZM11 -26 L11 -4 Q29 15 27 57 L27 190 L121 190 L121 206 L157 206 L157 190 L243 190 L243 171 L57 171 L57 68 Q61 0 11 -26 ZM147 112 Q124 120 120 135 L120 106 L95 106 L95 133 Q90 116 62 105 L62 119 Q76 127 80 140 L65 140 L65 154 L95 154 L95 166 L120 166 L120 154 L146 154 L146 140 L133 140 Q136 131 147 124 L147 112 ZM188 48 Q200 48 199 59 L199 61 L161 61 Q160 54 158 48 L188 48 ZM199 86 L162 86 L162 80 Q162 79 162 77 Q161 75 161 74 L199 74 L199 86 ZM98 86 L98 74 L134 74 L134 86 L98 86 ZM98 48 L131 48 Q133 54 133 61 L98 61 L98 48 Z" /><glyph glyph-name="uni9F13" unicode="&#x9f13;" d="M125 154 L125 175 L166 175 L166 206 L196 206 L196 175 L242 175 L242 154 L196 154 L196 121 L238 121 L238 100 Q223 52 199 24 Q216 8 243 -3 L243 -24 Q205 -9 181 8 Q157 -9 121 -25 L121 -4 Q146 7 164 25 Q142 49 130 90 L158 90 Q168 63 181 45 Q197 67 207 100 L126 100 L126 121 L166 121 L166 154 L125 154 ZM19 55 L19 119 L117 119 L117 86 Q119 53 86 55 L19 55 ZM12 165 L12 185 L53 185 L53 205 L84 205 L84 185 L121 185 L121 165 L84 165 L84 151 L118 151 L118 131 L17 131 L17 151 L53 151 L53 165 L12 165 ZM10 -16 L10 6 Q22 6 33 7 Q28 18 23 46 L50 46 Q51 25 58 8 Q61 8 68 9 Q74 9 77 9 Q83 28 84 46 L111 46 Q109 32 103 13 Q104 13 106 13 Q114 14 126 17 L126 -1 Q76 -14 10 -16 ZM46 74 L77 74 Q91 73 90 87 L90 100 L46 100 L46 74 Z" /><glyph glyph-name="uni9F99" unicode="&#x9f99;" d="M17 153 L17 175 L74 175 L74 206 L108 206 L108 175 L167 175 L167 201 L196 201 L196 175 L243 175 L243 153 L161 153 L161 79 Q189 96 205 126 L236 126 Q214 73 161 51 L161 19 Q160 0 178 1 L199 1 Q214 1 213 15 L213 27 L239 27 L239 12 Q240 -20 205 -19 L166 -19 Q128 -21 130 16 L130 42 Q117 39 103 37 L103 58 Q117 61 130 65 L130 153 L107 153 Q106 33 15 -25 L15 -1 Q73 56 74 153 L17 153 Z" /><glyph glyph-name="uniFF08" unicode="&#xff08;" d="M164 211 L186 211 Q139 158 140 90 Q140 20 186 -29 L164 -29 Q115 16 114 90 Q116 162 164 211 Z" /><glyph glyph-name="uniFF09" unicode="&#xff09;" d="M69 211 L91 211 Q139 162 141 90 Q140 16 91 -29 L69 -29 Q115 20 115 90 Q116 158 69 211 Z" /><glyph glyph-name="uniFF0C" unicode="&#xff0c;" d="M46 -32 L46 -18 Q67 -3 68 20 L51 20 L51 53 L83 53 L83 24 Q85 -12 46 -32 Z" /></font>
</defs>
</svg>
